#VERSION:0.83;
#TITLE:トリ〇クオアトリート (Protein of the Dead);
#SUBTITLE:;
#ARTIST:Hatsune Miku, Otomachi Una;
#TITLETRANSLIT:Trik or Treat (Protein of the Dead);
#SUBTITLETRANSLIT:;
#ARTISTTRANSLIT:;
#GENRE:;
#ORIGIN:;
#CREDIT:GalaxyStar;
#BANNER:Trik or Treat (Protein of the Dead).png;
#BACKGROUND:;
#PREVIEWVID:;
#JACKET:Trik or Treat (Protein of the Dead)-jacket.png;
#CDIMAGE:;
#DISCIMAGE:;
#LYRICSPATH:;
#CDTITLE:;
#MUSIC:Trik or Treat (Protein of the Dead).ogg;
#OFFSET:-0.125000;
#SAMPLESTART:37.237984;
#SAMPLELENGTH:16.972000;
#SELECTABLE:YES;
#DISPLAYBPM:198.000000;
#BPMS:0.000=198.000,
24.000=396.000,
24.750=198.000,
25.000=396.000,
25.750=198.000,
26.000=396.000,
26.125=198.000,
26.250=396.000,
26.375=198.000,
26.500=396.000,
26.625=198.000,
26.750=396.000,
26.875=198.000,
27.000=396.000,
27.875=198.000,
74.500=396.000,
74.875=198.000,
75.000=396.000,
75.375=198.000,
75.500=396.000,
75.875=198.000,
90.500=396.000,
90.875=198.000,
91.000=396.000,
91.375=198.000,
91.500=396.000,
91.875=198.000,
122.500=396.000,
122.875=198.000,
123.000=396.000,
123.375=198.000,
123.500=396.000,
123.875=198.000,
154.500=396.000,
154.875=198.000,
155.000=396.000,
155.375=198.000,
155.500=396.000,
155.875=198.000,
184.000=396.000,
184.625=198.000,
184.750=396.000,
185.375=198.000,
185.500=396.000,
185.875=198.000,
186.000=396.000,
187.875=198.000,
250.500=396.000,
250.875=198.000,
251.000=396.000,
251.375=198.000,
251.500=396.000,
251.875=198.000,
282.500=396.000,
282.875=198.000,
283.000=396.000,
283.375=198.000,
283.500=396.000,
283.875=198.000,
312.000=396.000,
312.625=198.000,
312.750=396.000,
313.375=198.000,
313.500=396.000,
313.875=198.000,
324.000=396.000,
325.875=198.000,
326.000=396.000,
327.875=198.000,
328.000=132.000;
#STOPS:24.000=0.114,
25.000=0.114,
26.000=0.019,
26.250=0.019,
26.500=0.019,
26.750=0.019,
27.000=0.133,
74.500=0.057,
75.000=0.057,
75.500=0.057,
90.500=0.057,
91.000=0.057,
91.500=0.057,
122.500=0.057,
123.000=0.057,
123.500=0.057,
154.500=0.057,
155.000=0.057,
155.500=0.057,
184.000=0.095,
184.750=0.095,
185.500=0.057,
186.000=0.284,
250.500=0.057,
251.000=0.057,
251.500=0.057,
282.500=0.057,
283.000=0.057,
283.500=0.057,
312.000=0.095,
312.750=0.095,
313.500=0.057,
324.000=0.284,
326.000=0.284;
#DELAYS:;
#WARPS:;
#TIMESIGNATURES:0.000=4=4;
#TICKCOUNTS:0.000=4;
#COMBOS:0.000=1;
#SPEEDS:0.000=1.000=0.000=0;
#SCROLLS:0.000=1.000;
#FAKES:;
#LABELS:0.000=Song Start;
#BGCHANGES:0.000=Trik or Treat (Protein of the Dead).mp4=1.000=0=0=0=StretchNoLoop====,
99999=-nosongbg-=1.000=0=0=0 // don't automatically add -songbackground-
;
#KEYSOUNDS:;
#ATTACKS:
;

//---------------dance-single - GalaxyStar----------------
#NOTEDATA:;
#CHARTNAME:GalaxyStar;
#STEPSTYPE:dance-single;
#DESCRIPTION:GalaxyStar;
#CHARTSTYLE:;
#DIFFICULTY:Hard;
#METER:13;
#RADARVALUES:0.619865,0.686940,0.037007,0.573607,0.333062,469.000000,465.000000,4.000000,62.000000,0.000000,0.000000,11.000000,0.000000,0.000000,0.619865,0.686940,0.037007,0.573607,0.333062,469.000000,465.000000,4.000000,62.000000,0.000000,0.000000,11.000000,0.000000,0.000000;
#CREDIT:GalaxyStar;
#DISPLAYBPM:198.000000;
#NOTES:
// measure 0
0000
0000
0000
0000
,  // measure 1
0000
0000
0000
0000
,  // measure 2
0000
0000
0000
0000
,  // measure 3
0000
0000
0000
0000
,  // measure 4
0000
0000
0000
0000
,  // measure 5
0000
0000
0000
0000
,  // measure 6
1000
0000
0000
0000
0001
0000
0000
0000
1000
0100
0010
0001
0010
0000
0000
0000
,  // measure 7
0001
1000
0100
1000
0010
0001
0010
0100
,  // measure 8
0010
0100
0001
1000
0010
0100
0001
0010
,  // measure 9
0100
1000
0010
0100
0010
0001
0010
0100
,  // measure 10
1000
0100
0010
1000
0001
0000
0000
0000
,  // measure 11
1000
0000
0010
0000
0001
0000
0010
0000
1000
0000
0200
0000
0000
0300
0010
0000
,  // measure 12
0001
1000
0100
0001
0100
1000
0001
0010
,  // measure 13
0001
0000
0010
0000
0100
0000
1000
0000
0100
0000
0020
0000
0000
0030
0100
0000
,  // measure 14
0010
0000
0000
0000
0001
0000
0000
0000
0100
0000
0000
0000
1000
0000
0000
0000
0400
0000
0000
0000
0000
0000
0000
0000
0000
0000
0000
0000
0000
0000
0000
0300
,  // measure 15
0001
0000
0100
0000
0010
0000
0100
0000
1000
0000
0200
0000
0000
0300
0010
0000
,  // measure 16
0100
0001
0100
0001
0010
0100
0010
0001
,  // measure 17
0100
0000
0000
0000
1000
0000
0000
0000
0000
0001
0000
0000
0100
0000
0000
0000
0010
0000
0000
0000
0000
1000
0000
0000
,  // measure 18
0100
0000
0001
0000
0100
0010
0010
0010
,  // measure 19
0000
0100
1000
0010
0100
0010
0000
0100
,  // measure 20
0001
0100
0010
0100
0001
0100
0010
1000
,  // measure 21
0010
0000
0001
0000
0010
0000
0100
0000
1000
0000
0200
0000
0000
0300
0010
0000
,  // measure 22
0100
0001
0100
0010
1000
0100
0100
0100
,  // measure 23
1000
0100
0010
0001
0100
0010
0000
0100
,  // measure 24
0010
1000
0100
0010
0001
0100
0010
1000
,  // measure 25
0010
0000
0100
0000
0010
0000
1000
0000
0001
0000
0020
0000
0000
0030
0100
0000
,  // measure 26
1000
0001
0010
0100
0040
0000
0000
1030
,  // measure 27
0002
0000
0000
0000
0000
0000
0000
0003
1000
0000
0000
0000
0002
0000
0000
0000
0000
0000
0000
0003
0010
0000
0000
0000
0001
0000
0000
0000
1000
0000
0000
0000
,  // measure 28
0020
0000
0000
0000
0000
0000
0000
0030
0100
0000
0000
0000
0002
0000
0000
0000
0000
0000
0000
0003
1000
0000
0000
0000
0010
0000
0000
0000
1000
0000
0000
0000
,  // measure 29
0200
0000
0000
0300
0010
0000
0100
0000
1000
0000
0001
0000
0100
0000
0010
0000
,  // measure 30
2000
0000
0000
3000
0020
0000
0000
0030
0100
0000
0010
0000
0010
0000
0010
0000
,  // measure 31
0010
0000
0000
0000
1000
0000
0000
0000
0001
0000
0000
0000
2000
0000
0000
0000
0000
0000
0000
3000
0100
0000
0000
0000
1000
0000
0000
0000
0020
0000
0000
0000
,  // measure 32
0000
0000
0000
0030
0100
0000
0000
0000
0001
0000
0000
0000
2000
0000
0000
0000
0000
0000
0000
3000
0001
0000
0000
0000
0100
0000
0000
0000
0010
0000
0000
0000
,  // measure 33
1000
0010
0100
0010
0100
0001
0100
0040
,  // measure 34
0000
0000
0000
0000
0000
0000
0000
0000
0000
0000
0000
0000
0000
0000
0000
0000
0000
0000
0000
0030
0100
0000
0000
0000
0001
0000
0000
0000
0200
0000
0000
0000
,  // measure 35
0000
0300
0010
0000
1000
0000
0200
0000
0000
0300
0010
0000
0001
0000
0200
0000
,  // measure 36
0000
0300
0010
0000
1000
0000
0002
0000
0000
0003
1000
0000
0010
0000
0200
0000
,  // measure 37
0000
0300
0010
0000
0100
0000
0002
0000
0000
0003
0100
0000
0010
0000
4000
0000
,  // measure 38
0000
0000
0000
0000
3000
0100
0100
0100
,  // measure 39
0100
0000
0000
0000
1000
0000
0000
0000
0010
0000
0000
0000
0200
0000
0000
0000
0000
0000
0000
0300
0010
0000
0000
0000
1000
0000
0000
0000
0200
0000
0000
0000
,  // measure 40
0000
0000
0000
0300
0010
0000
0000
0000
0001
0000
0000
0000
0020
0000
0000
0000
0000
0000
0000
0030
0100
0000
0000
0000
0010
0000
0000
0000
0100
0000
0000
0000
,  // measure 41
1000
0100
1000
0010
0100
0001
0010
0400
,  // measure 42
0000
0000
0300
0000
0000
0010
1000
0020
,  // measure 43
0000
0030
0100
0000
0001
0000
0020
0000
0000
0030
0100
0000
0010
0000
0002
0000
,  // measure 44
0000
0003
0010
0000
0100
0000
2000
0000
0000
3000
0001
0000
0100
0000
0020
0000
,  // measure 45
0000
0030
0010
0000
1000
0000
0002
0000
0000
0003
0010
0000
0100
0000
1000
0000
,  // measure 46
0001
0000
0000
1000
0000
0000
1000
0000
0001
0000
0000
0000
0000
0000
0000
0000
,  // measure 47
1000
0000
0010
0000
0001
0000
0010
0000
1000
0000
0200
0000
0000
0300
0010
0000
,  // measure 48
0001
1000
0100
0001
0100
1000
0001
0010
,  // measure 49
0001
0000
0010
0000
0100
0000
1000
0000
0100
0000
0020
0000
0000
0030
0100
0000
,  // measure 50
0010
0000
0000
0000
0001
0000
0000
0000
0100
0000
0000
0000
1000
0000
0000
0000
0400
0000
0000
0000
0000
0000
0000
0000
0000
0000
0000
0000
0000
0000
0000
0300
,  // measure 51
0001
0000
0100
0000
0010
0000
0100
0000
1000
0000
0200
0000
0000
0300
0010
0000
,  // measure 52
0100
0001
0100
0001
0010
0100
0010
0001
,  // measure 53
0100
0000
0000
0000
1000
0000
0000
0000
0000
0001
0000
0000
0100
0000
0000
0000
0010
0000
0000
0000
0000
1000
0000
0000
,  // measure 54
0100
0000
0001
0000
0100
1000
0010
0100
,  // measure 55
0010
0100
0001
0000
0000
0100
0010
2000
,  // measure 56
0000
3000
0100
0000
0001
0000
0200
0000
0000
0300
1000
0000
0010
0000
0002
0000
,  // measure 57
0000
0003
0010
0000
0100
0000
0020
0000
0000
0030
1000
0000
0010
0000
4000
0000
,  // measure 58
0000
0000
3000
0000
0000
0001
0010
0002
,  // measure 59
0000
0003
0100
0000
0010
0000
0002
0000
0000
0003
0010
0000
0001
0000
0020
0000
,  // measure 60
0000
0030
1000
0000
0100
0000
0020
0000
0000
0030
0001
0000
0010
0000
0100
0000
,  // measure 61
1000
0000
0100
0000
0010
0000
0020
0000
0000
0030
0100
0000
1000
0000
0040
0000
,  // measure 62
0000
0000
0000
0000
0030
0100
0100
0100
,  // measure 63
0010
0000
0000
0000
1000
0000
0000
0000
0001
0000
0000
0000
0020
0000
0000
0000
0000
0000
0000
0030
0100
0000
0000
0000
1000
0000
0000
0000
0020
0000
0000
0000
,  // measure 64
0000
0000
0000
0030
0100
0000
0000
0000
0001
0000
0000
0000
2000
0000
0000
0000
0000
0000
0000
3000
0001
0000
0000
0000
0100
0000
0000
0000
0010
0000
0000
0000
,  // measure 65
1000
0010
0100
0010
0100
0001
0100
0004
,  // measure 66
0000
0000
0003
0000
0000
0100
0001
0200
,  // measure 67
0000
0300
0010
0000
1000
0000
0200
0000
0000
0300
0010
0000
0100
0000
2000
0000
,  // measure 68
0000
3000
0010
0000
0100
0000
0002
0000
0000
0003
2000
0000
0000
3000
0010
0000
,  // measure 69
0100
0000
0001
0000
0100
0000
0020
0000
0000
0030
0100
0000
0010
0000
4000
0000
,  // measure 70
0000
0000
0000
0000
3000
0100
0100
0100
,  // measure 71
0100
0000
0000
0000
1000
0000
0000
0000
0010
0000
0000
0000
0200
0000
0000
0000
0000
0000
0000
0300
0010
0000
0000
0000
1000
0000
0000
0000
0200
0000
0000
0000
,  // measure 72
0000
0000
0000
0300
0010
0000
0000
0000
0001
0000
0000
0000
0020
0000
0000
0000
0000
0000
0030
0000
0100
0000
0000
0000
0010
0000
0000
0000
0001
0000
0000
0000
,  // measure 73
0100
0010
1000
0010
0100
0001
0010
0400
,  // measure 74
0000
0000
0300
0000
0000
0010
1000
0020
,  // measure 75
0000
0030
0100
0000
0001
0000
0020
0000
0000
0030
0001
0000
0010
0000
0200
0000
,  // measure 76
0000
0300
0010
0000
0001
0000
2000
0000
0000
3000
0001
0000
0100
0000
0020
0000
,  // measure 77
0000
0030
0010
0000
1000
0000
0002
0000
0000
0003
0010
0000
0100
0000
1000
0000
,  // measure 78
0001
0000
0000
1000
0000
0000
1000
0000
0001
0000
0000
0000
0100
0000
0010
0000
,  // measure 79
1000
1000
0001
1000
,  // measure 80
0001
0010
0010
0100
,  // measure 81
0101
0000
1010
0000
,  // measure 82
0022
0000
0000
0000
0000
0000
0000
0033
1001
0000
0000
0000
0000
0000
0000
0000
;

//---------------dance-single - GalaxyStar----------------
#NOTEDATA:;
#CHARTNAME:GalaxyStar;
#STEPSTYPE:dance-single;
#DESCRIPTION:GalaxyStar;
#CHARTSTYLE:;
#DIFFICULTY:Challenge;
#METER:17;
#RADARVALUES:0.737494,0.877757,0.305307,0.777145,0.573607,558.000000,525.000000,33.000000,84.000000,0.000000,5.000000,15.000000,0.000000,0.000000,0.737494,0.877757,0.305307,0.777145,0.573607,558.000000,525.000000,33.000000,84.000000,0.000000,5.000000,15.000000,0.000000,0.000000;
#CREDIT:GalaxyStar;
#DISPLAYBPM:198.000000;
#NOTES:
0000
0000
0000
0000
,
0000
0000
0000
0000
,
0000
0000
0000
0000
,
0000
0000
0000
0000
,
0000
0000
0000
0000
,
0000
0000
0000
0000
,
2000
3000
0000
0000
0000
0000
0000
0000
0002
0003
0000
0000
0000
0000
0000
0000
1000
0000
0100
0000
0010
0000
0001
0000
0100
0000
0000
0000
0000
0000
0000
0000
,
0010
0000
0100
0100
0010
0000
0001
0000
1000
0000
0010
0000
0001
0000
1000
0000
,
0200
0000
0001
0000
0301
0000
0010
0000
0001
1000
0100
0000
0001
0000
0100
0000
,
1000
0000
0010
0010
0001
0000
0100
0000
0001
0000
0010
0000
1000
0000
0001
0000
,
0400
0040
0000
0000
0000
0000
0000
0330
1001
0000
0000
0000
0000
0000
0000
0000
,
1000
0000
0010
0001
0010
0000
0100
0000
1000
0000
0200
0000
0000
0300
0010
0001
,
0010
0000
1000
0010
0100
0000
0001
0000
0010
0000
0100
1000
0001
0000
0010
0000
,
0001
0000
0010
1000
0010
0000
0001
0000
1000
0000
0020
0000
0000
0030
0100
1000
,
0100
0000
0000
0000
0001
0000
0010
0000
0100
0000
0000
0000
1000
0000
0000
0000
0040
0000
0000
0000
0000
0000
0000
0000
0000
0000
0000
0000
0000
0000
0000
0030
,
1000
0000
0010
0001
0010
0000
0100
0000
1000
0000
0200
0000
0000
0300
0010
0001
,
0010
0000
1000
0010
0100
0000
0001
0000
0010
0000
0100
1000
0001
0000
0010
0000
,
0001
0000
0000
0000
1000
0000
0000
0000
0000
0001
0000
0000
0100
0000
0000
0000
0010
0000
0000
0000
0000
1000
0000
0000
,
0100
0000
0001
0000
0100
0010
0010
0010
,
0001
0000
0100
0010
1000
0000
0010
0000
0100
0000
0010
0000
0000
0000
0100
0010
,
0001
0000
0010
0100
1000
0000
0100
0000
0001
0010
0100
1000
0010
0100
0001
0010
,
0100
0000
0010
0001
0010
0000
0100
0000
1000
0000
0200
0000
0000
0300
0010
0001
,
0010
0000
1000
0010
0100
0000
0010
0000
0001
0000
0100
0000
0100
0000
0100
0000
,
1000
0000
0100
0010
0001
0000
0010
0000
1000
0000
0100
0000
0000
0000
0010
0100
,
1000
0000
0100
0010
0001
0000
0010
0000
1000
0010
0100
1000
0100
0010
0001
0100
,
0010
0000
0100
1000
0100
0000
0010
0000
0001
0000
0020
0000
0000
0030
0100
1000
,
0100
0000
0001
0100
0010
0000
0100
0000
0004
0000
0000
0000
0000
0000
1003
0000
,
0022
0000
0000
0000
1000
0000
0000
0033
1000
0000
0000
0000
0202
0000
0000
0000
0010
0000
0000
0303
0010
0000
0000
0000
0001
0000
0000
0000
1000
0000
0000
0000
,
0022
0000
0000
0000
0100
0000
0000
0033
0100
0000
0000
0000
0202
0000
0000
0000
1000
0000
0000
0303
1000
0000
0000
0000
0010
0000
0000
0000
1000
0000
0000
0000
,
0202
0000
0010
0303
0010
0000
0100
0000
1000
0000
0001
0000
0100
0000
0010
0000
,
2000
0000
0000
3000
0020
0000
0000
0030
0001
0000
0010
0000
0010
0000
0010
0000
,
0010
0000
0000
0000
1000
0000
0000
0000
0001
0000
0000
0000
2020
0000
0000
0000
0000
0000
0000
3030
0100
0000
0000
0000
1000
0000
0000
0000
0022
0000
0000
0000
,
0000
0000
0000
0033
0100
0000
0000
0000
0001
0000
0000
0000
2200
0000
0000
0000
0000
0000
0000
3300
0001
0000
0000
0000
0100
0000
0000
0000
0010
0000
0000
0000
,
1000
0010
0001
1000
0100
1000
0100
0044
,
0000
0000
0000
0000
0000
0000
0000
0000
0000
0000
0000
0000
0000
0000
0000
0000
0000
0000
0000
0033
0100
0000
0000
0000
1000
0000
0000
0000
0200
0000
0000
0000
,
0000
0300
0010
0000
1000
0000
0200
0000
0000
0300
0010
0000
1000
0000
0002
0000
,
0000
0003
0100
0000
0010
0000
0002
0000
0000
0003
1000
0000
0010
0000
0200
0000
,
0000
0300
0100
0000
0001
0000
2000
0000
0000
3000
0100
0000
0010
0000
0004
0000
,
0000
0000
0000
0000
0003
0100
0100
0100
,
0100
0000
0000
0000
0001
0000
0000
0000
1000
0000
0000
0000
0202
0000
0000
0000
0000
0000
0000
0303
0010
0000
0000
0000
0001
0000
0000
0000
2200
0000
0000
0000
,
0000
0000
0000
3300
0010
0000
0000
0000
1000
0000
0000
0000
0022
0000
0000
0000
0000
0000
0000
0033
1000
0000
0000
0000
0010
0000
0000
0000
0100
0000
0000
0000
,
0001
0100
1000
0100
0010
0001
0010
4000
,
0000
0000
3000
0000
0000
0010
1000
0020
,
0000
0030
0100
0000
0001
0000
0020
0000
0000
0030
0100
0000
0001
0000
2000
0000
,
0000
3000
0010
0000
0100
0000
2000
0000
0000
3000
0001
0000
0100
0000
0020
0000
,
0000
0030
0010
0000
1000
0000
0002
0000
0000
0003
0010
0000
0100
0000
1000
0000
,
0011
0000
0000
1100
0000
0000
1001
0000
1001
0000
0000
0000
0000
0000
0000
0000
,
1000
0000
0010
0001
0010
0000
0100
0000
1000
0000
0200
0000
0000
0300
0010
0001
,
0010
0000
1000
0010
0100
0000
0001
0000
0010
0000
0100
1000
0001
0000
0010
0000
,
0001
0000
0010
1000
0010
0000
0001
0000
1000
0000
0020
0000
0000
0030
0100
1000
,
0100
0000
0000
0000
0001
0000
0010
0000
0100
0000
0000
0000
1000
0000
0000
0000
0040
0000
0000
0000
0000
0000
0000
0000
0000
0000
0000
0000
0000
0000
0000
0030
,
1000
0000
0010
0001
0010
0000
0100
0000
1000
0000
0200
0000
0000
0300
0010
0001
,
0010
0000
1000
0010
0100
0000
0001
0000
0010
0000
0100
1000
0001
0000
0010
0000
,
0001
0000
0000
0000
1000
0000
0000
0000
0000
0001
0000
0000
0100
0000
0000
0000
0010
0000
0000
0000
0000
1000
0000
0000
,
0100
0000
0000
0000
0001
0000
0000
0000
0100
0000
1000
0000
0010
0000
0100
0001
,
0010
0000
0100
0000
1000
0000
0002
0000
0000
0003
0100
0000
0010
0000
2000
0000
,
0000
3000
0100
0000
0001
0000
0200
0000
0000
0300
1000
0000
0010
0000
0002
0000
,
0000
0003
0010
0000
0100
0000
0020
0000
0000
0030
1000
0000
0010
0000
0004
0000
,
0000
0000
0003
0000
0000
0001
0010
2000
,
0000
3000
0100
0000
0010
0000
0002
0000
0000
0003
0010
0000
0001
0000
2000
0000
,
0000
3000
0010
0000
0100
0000
0002
0000
0000
0003
1000
0000
0010
0000
0100
0000
,
1000
0000
0100
0000
0001
0000
0020
0000
0000
0030
0100
0000
1000
0000
0040
0000
,
0000
0000
0000
0000
0030
0100
0100
0100
,
0010
0000
0000
0000
1000
0000
0000
0000
0001
0000
0000
0000
2020
0000
0000
0000
0000
0000
0000
3030
0100
0000
0000
0000
1000
0000
0000
0000
0022
0000
0000
0000
,
0000
0000
0000
0033
0100
0000
0000
0000
0001
0000
0000
0000
2200
0000
0000
0000
0000
0000
0000
3300
0001
0000
0000
0000
0100
0000
0000
0000
0010
0000
0000
0000
,
1000
0010
0001
0010
0100
1000
0100
0004
,
0000
0000
0003
0000
0000
0100
0001
0200
,
0000
0300
0010
0000
1000
0000
0200
0000
0000
0300
0010
0000
1000
0000
0002
0000
,
0000
0003
0100
0000
0010
0000
0002
0000
0000
0003
2000
0000
0000
3000
0010
0000
,
0100
0000
1000
0000
0100
0000
0022
0000
0000
0033
0100
0000
0010
0000
4400
0000
,
0000
0000
0000
0000
3300
0100
0100
0100
,
0100
0000
0000
0000
0001
0000
0000
0000
1000
0000
0000
0000
0202
0000
0000
0000
0000
0000
0000
0303
0010
0000
0000
0000
0001
0000
0000
0000
2200
0000
0000
0000
,
0000
0000
0000
3300
0010
0000
0000
0000
1000
0000
0000
0000
0022
0000
0000
0000
0000
0000
0000
0033
1000
0000
0000
0000
0010
0000
0000
0000
0100
0000
0000
0000
,
0001
0100
1000
0100
0010
0001
0010
4000
,
0000
0000
3000
0000
0000
0010
1000
0020
,
0000
0030
0100
0000
0001
0000
0020
0000
0000
0030
0100
0000
0001
0000
2000
0000
,
0000
3000
0010
0000
0100
0000
2000
0000
0000
3000
0001
0000
0100
0000
0020
0000
,
0000
0030
0010
0000
1000
0000
0002
0000
0000
0003
0010
0000
0100
0000
1000
0000
,
0011
0000
0000
1100
0000
0000
1001
0000
1001
0000
0000
0000
0100
0000
0010
1000
,
0001
0010
1000
0010
0001
0100
1000
0100
,
0001
1000
0010
0001
0010
1000
0100
0010
,
0101
0000
1010
0000
,
0022
0000
0000
0000
0000
0000
0000
0033
1001
0000
0000
0000
0000
0000
0000
0000
;
