#TITLE:Tout Petit Moineau;
#SUBTITLE:;
#ARTIST:Igorr;
#TITLETRANSLIT:;
#SUBTITLETRANSLIT:;
#ARTISTTRANSLIT:;
#GENRE:;
#CREDIT:;
#MUSIC:Igorr - Tout Petit Moineau x GHOST ADD.ogg;
#BANNER:banner.jpg;
#BACKGROUND:bg.jpg;
#CDTITLE:;
#SAMPLESTART:108.962;
#SAMPLELENGTH:27.972;
#SELECTABLE:YES;
#OFFSET:0.000;
#BPMS:0.000=212.000;
#STOPS:;
#BGCHANGES:;
#FGCHANGES:;

//--------------- dance-single - SPACE GOBLIN!!! ----------------
#NOTES:
     dance-single:
     SPACE GOBLIN!!!:
     Hard:
     13:
     0,0,0,0,0:
0000
0000
0000
0000
,
0000
0000
0000
0000
,
0000
0000
0000
0000
,
0000
0000
0000
0000
,
0000
0000
0000
0000
,
0000
0000
0000
0000
,
0000
0000
0000
0000
,
0000
0000
0000
0000
,
0000
0000
0000
0000
,
0000
0000
0000
0000
,
0000
0000
0000
0000
,
0000
0000
0000
0000
,
4000
0000
0000
3001
,
0400
0300
0040
0030
1000
0001
0010
0100
,
2000
0000
3000
0000
0000
0000
0002
0000
0003
0000
0000
0000
4000
0000
0000
3000
0000
0000
0020
0000
0000
0000
0000
0000
,
0100
1000
1000
1000
,
1030
0000
0020
0030
2000
3000
1000
0100
,
0010
0000
0000
0000
0000
0000
0001
0000
0000
2000
3000
0000
0020
0030
0000
0200
0300
0000
2000
3000
0000
0002
0003
0000
,
2000
3000
0000
0200
0300
0000
0020
0030
0000
0002
0003
0000
2000
3000
0000
0020
0030
0000
0200
0300
0000
0002
0003
0000
,
2000
3000
0000
0002
0003
0000
0020
0030
0000
0000
0000
0000
0100
0000
0000
2000
3000
0000
0002
0003
0000
0000
0000
0000
,
0100
0000
0000
0020
0030
0000
2000
3000
0000
0002
0003
0000
1000
0000
0000
0000
0000
0000
0100
0000
0000
0010
0000
0000
,
2000
0000
0000
0100
0100
0000
0100
3000
,
0000
0001
1000
0100
0010
0001
1000
0010
,
0100
0000
0001
0000
2000
3000
0000
0000
0200
0300
0000
0000
0002
0003
0000
0000
,
0100
1000
0001
0100
0010
1000
0010
0100
,
0001
1000
0001
1000
0100
0010
0001
1000
,
0010
1000
0001
0010
0001
1000
0100
0010
,
0002
0000
0000
0000
1000
0000
0003
0000
1000
0000
0001
0000
0020
0030
0001
0000
,
1000
0000
0010
0000
0100
0001
1000
0010
,
0100
0000
0000
0000
2002
3000
0000
0000
0200
0300
0000
0000
2000
3000
0000
0000
,
0103
0000
1000
0100
0010
0001
1000
0010
,
0100
0002
2000
0000
0010
0000
0100
0000
,
0010
0100
0010
0100
,
3223
0000
0000
0000
,
0000
0000
0000
0000
,
0000
0000
0000
0000
0000
0000
0000
0000
0000
0000
0000
0000
0000
0000
0000
0000
0000
0000
0000
0000
0000
0000
0000
0000
0000
0000
0000
0000
0000
0000
0000
0000
0000
0030
0300
0000
0000
0000
0000
0000
0000
0000
0000
0000
0000
0000
0000
0000
,
2002
0000
0000
0000
0000
0000
0000
3003
,
2001
0000
0000
0000
0000
0000
0010
0000
0000
0000
0000
3000
0002
0000
0000
0000
0000
0000
0100
0000
0000
0000
0000
0003
,
2000
0000
0000
0000
0000
0000
0010
0000
0000
0000
0000
3000
0002
0000
0000
0000
0000
0000
0100
0000
0000
0000
0000
0000
,
1003
0000
0000
0000
0000
0000
0000
0000
0000
0000
0000
0000
2000
0000
0000
0000
0000
0000
0000
0000
3000
0000
0000
0000
0020
0000
0000
0000
0030
0000
0000
0000
0000
0000
0100
0000
0020
0000
0000
0030
0000
0000
0000
0000
0000
0000
1000
0000
,
0002
0000
0000
0003
0000
0000
0000
0000
0000
0000
0010
0000
0200
0000
0000
0300
0000
0000
0000
0000
0000
0000
1000
0000
0002
0000
0000
0003
0000
0000
0000
0000
0000
0000
0100
0000
0020
0000
0000
0030
0000
0000
0000
0000
0000
0000
1000
0000
,
0002
0000
0000
0003
0000
0000
0000
0000
0000
0000
0010
0000
0200
0000
0000
0300
0000
0000
0000
0000
0000
0000
0001
0000
2000
0000
0000
3000
0000
0000
0000
0000
0000
0000
0100
0000
0020
0000
0000
0030
0000
0000
0000
0000
0000
0000
1000
0000
,
0002
0000
0000
0000
,
0000
0000
0000
0000
0000
0000
0000
0000
0000
0000
0000
0000
0000
0000
0000
0000
0000
0000
0000
0000
0000
0000
0000
0003
,
2000
3000
0000
0000
0001
0000
0000
0000
0200
0300
0000
0000
0010
0000
0000
0000
2000
3000
0000
0000
0001
0000
0000
0000
0010
0000
0000
0000
0001
0000
0000
0000
,
0010
0000
0000
0000
0001
0000
0000
0000
0100
0000
0000
0000
0010
0000
0000
0000
1000
0000
0000
0000
0001
0000
0000
0000
2000
3000
0000
0000
0001
0000
0000
0000
,
0010
0000
0000
0000
0100
0000
0000
0000
2000
3000
0000
0000
0001
0000
0000
0000
1000
0000
0000
0000
0010
0000
0000
0000
0100
0000
0000
0000
0001
0000
0000
0000
,
1000
0000
0100
0010
0001
1000
0010
0100
,
0010
0000
0001
0000
1000
0000
0002
0000
0000
0000
0000
0000
1003
0000
0000
0000
0000
0000
0200
0000
0000
0000
0000
0300
,
0010
0000
0001
0000
1000
0000
0002
0000
0000
0000
0000
0000
0103
0000
0000
0000
0000
0000
0020
0000
0000
0000
0000
0030
,
0100
0000
0001
0000
1000
0000
0200
0000
0000
0000
0000
0300
0010
0000
0100
0000
0010
0000
0100
0000
1000
0000
0100
0000
,
0010
0000
0000
0000
0000
0000
0001
0000
1000
0000
0001
0000
0100
0000
0000
0010
0000
0000
1000
0000
0001
0000
1000
0000
,
0001
0000
0000
0000
0000
0000
0000
0000
0010
0000
0000
0000
0000
0000
0000
0000
0100
0000
0000
0000
0000
0000
0000
0000
2000
0000
0000
3000
0000
0000
0000
0000
0000
0000
0000
0000
0001
0000
0000
0000
0000
0000
0000
0000
0000
0000
0000
0000
2000
0000
0000
3000
0000
0000
0000
0000
0010
0000
0000
0000
0000
0000
0000
0000
0100
0000
0000
0000
0000
0000
0000
0000
0002
0000
0000
0003
0000
0000
0000
0000
1000
0000
0000
0000
0000
0000
0000
0000
0100
0000
0000
0000
0000
0000
0000
0000
,
2000
0000
0000
3000
0000
0000
0000
0000
0100
0000
0000
0000
0000
0000
0000
0000
0010
0000
0000
0000
0000
0000
0000
0000
0002
0000
0000
0003
0000
0000
0000
0000
0000
0000
0000
0000
1000
0000
0000
0000
0000
0000
0000
0000
0000
0000
0000
0000
0002
0000
0000
0003
0000
0000
0000
0000
0100
0000
0000
0000
0000
0000
0000
0000
0010
0000
0000
0000
0000
0000
0000
0000
2000
0000
0000
3000
0000
0000
0000
0000
0002
0000
0000
0000
0000
0000
0000
0000
0000
0000
0000
0000
0000
0000
0000
0000
,
1000
0000
0100
0000
0100
0000
0100
0003
,
1000
0010
0100
0001
1000
0100
0010
0001
1000
0010
0100
0010
,
1000
0001
1000
0001
1000
0001
1000
0001
1000
0000
0001
0000
0100
0000
0010
0000
,
1000
0001
0010
0100
1000
0001
0100
0010
,
0100
0000
0000
0010
0000
0000
1000
0000
0000
0001
0000
0000
1000
0000
0100
0000
0010
0000
0100
0000
0010
0000
0001
0000
,
1000
0010
0100
0010
0100
0010
0100
0001
1000
0001
1000
0100
,
0010
0100
1000
0001
0100
0001
0100
0001
1000
0100
0010
0100
,
0010
0100
0010
0001
1000
0001
0040
0030
0000
0400
0300
0000
,
0040
0030
0000
0004
0003
0000
4000
3000
0000
0010
0100
0010
,
1000
0000
0000
0000
0000
0001
1000
0000
0000
0000
0000
0001
1000
0000
0000
0000
0000
0100
0010
0000
0000
0000
0000
1000
,
0001
0000
1000
0001
1000
0100
0001
0100
,
1000
0000
0000
0100
0000
0000
0010
0000
0000
0001
0000
0000
1000
0000
0001
0000
0100
0000
0010
0000
0100
0000
0020
0000
,
0000
0001
1000
0001
,
1000
0000
0000
0001
0000
0000
1000
0000
0000
0001
0000
0030
,
0012
1000
0010
1000
0010
1000
0003
2000
,
0001
0000
0100
0000
0100
0000
0100
3000
,
0000
0001
1000
0001
0001
1000
1000
0000
,
0010
0100
0001
1000
0100
0010
0001
1000
,
0001
0000
0100
0000
0002
0003
0000
0000
2000
3000
0000
0000
0200
0300
0000
0000
,
0020
0030
0001
0000
2000
3000
0001
0000
2000
3000
0010
0000
0200
0300
0001
0000
,
1000
0000
0100
0000
0010
0000
0000
0000
0002
0000
0000
0003
2000
0000
0000
3000
,
0001
0000
0100
0010
0100
0000
0001
1000
0001
0000
1000
0100
1000
0000
0001
0100
,
0001
0000
1000
0001
1000
0000
0010
0000
0100
0000
0010
0100
0010
0000
1000
0000
,
0001
0010
0100
1000
0001
0100
0001
1000
,
0001
1000
0000
0001
1000
0000
0001
1000
0001
1000
0001
1000
0001
1000
0001
1000
,
0001
1000
0010
0100
0001
1000
0100
0010
,
0001
0000
1001
0000
0001
1000
0010
0100
,
2000
0001
0000
0100
0001
3000
0100
0000
,
0010
0000
0000
0000
2002
3003
0000
0000
0220
0330
0000
0000
0000
0000
0000
0000
,
2002
3003
0000
0000
0000
0000
0000
0000
2002
3003
0000
0000
0002
0003
1000
0000
,
0200
0300
0000
0000
0001
0000
0000
0000
0100
0000
1000
0000
0001
0000
0000
0000
,
1000
0000
0001
0000
1000
0000
0010
0000
0100
0010
0100
0000
0002
0003
0000
0000
,
0200
0300
0000
0000
2000
3000
0000
0000
0200
0300
0000
0000
0002
0003
0000
0000
,
1000
0001
0010
0100
1000
0000
0001
0100
,
0010
0000
1000
0001
1000
0000
0200
0000
0000
0000
0000
0000
0310
0000
0000
0000
,
0000
0000
0002
0000
0003
0000
2000
0000
0000
0000
3000
0000
0001
0000
0100
0010
,
0200
0000
0300
0000
0001
0000
0000
0000
1000
0000
0100
0000
0020
0000
0000
0030
,
0002
0000
0000
0000
2000
0000
0000
0000
0000
0000
0000
3000
0003
0000
0000
0000
,
0000
0000
0000
0000
2000
3000
0000
0000
0200
0300
0000
0000
0000
0000
0000
0000
0020
0030
0000
0000
0000
0000
0000
0000
0002
0003
0000
0000
0000
0000
0000
0000
,
0200
0300
0000
0000
0000
0000
0000
0000
0010
0000
0000
0000
1000
0000
0000
0000
0001
0000
0000
0000
0010
0000
0000
0000
0100
0000
0000
0000
1000
0000
0000
0000
,
0002
0100
0100
0103
,
1000
0002
1000
1000
,
1003
0000
0000
0000
0002
0003
0000
0000
0020
0030
0000
0000
0200
0300
0000
0000
,
2000
3000
0000
0000
0002
0003
0100
0000
0020
0030
0000
0000
2000
3000
0000
0000
,
0001
0000
1000
0000
0200
0300
0000
0000
1000
0000
0001
0000
0200
0300
0000
0000
,
2000
3000
0000
0000
0200
0300
0000
0000
0020
0030
0000
0000
2000
3000
0000
0000
,
0002
0003
0000
0000
0020
0030
0000
0000
0200
0300
0000
0000
0002
0003
0000
0000
,
0200
0300
0000
0000
2000
0000
3000
0000
0100
0000
00M0
0000
0100
0000
0000
0000
,
2000
3000
0000
0000
0200
0300
0000
0000
0002
0003
0000
0000
0100
0000
00M0
0000
,
0100
0000
0000
0000
0002
0003
0000
0000
0200
0300
0000
0000
2000
3000
0000
0000
,
0200
0300
0000
0000
1000
0000
0000
0000
0001
0000
0100
0000
0020
0030
0000
0000
,
2000
3000
0000
0000
0020
0030
0000
0000
0002
0003
0000
0000
0020
0030
0000
0000
,
2000
3000
0000
0000
0200
0300
0000
0000
0002
0003
0000
0000
0200
0300
0000
0000
,
1000
0000
0001
0000
0200
0300
0000
0000
0100
0000
2000
3000
0000
0000
0001
0000
,
0010
0000
0002
0003
4000
0000
0000
0000
0004
0000
0000
0000
0000
0000
0000
3003
,
0000
0000
0001
0000
2020
0030
0000
0000
0002
0003
0000
0000
3200
0300
0000
0000
,
2002
3000
0000
0000
0200
0300
0000
0000
2000
3000
0003
0000
0002
0003
0200
0300
,
0020
0030
0000
0000
2000
3000
0000
0000
0002
0003
0000
0000
0020
0030
0000
0000
,
0200
0300
0000
0000
0002
0003
0000
0000
4002
0000
0000
0000
3003
0000
0000
0000
,
0002
0003
0000
0000
2020
0030
0000
0000
0002
0003
0000
3000
0020
0000
0000
0030
,
2000
0000
0000
0000
3002
0003
0000
0000
2000
3000
0000
0000
0200
0300
0000
0000
,
0002
0003
0000
0000
0200
0300
0000
0000
2000
3000
0000
0000
0020
0030
0000
0000
,
0002
0003
0000
0000
0020
0030
0000
0000
2000
3000
0000
0000
0200
0300
0000
0000
,
0002
0003
0000
0000
0200
0300
0000
0000
2000
3000
0000
0000
0002
0003
0000
0000
,
2000
3000
0000
0000
0200
0300
0000
0000
0020
0030
0000
0000
0002
0003
0000
0000
,
2000
3000
0000
0000
0020
0030
0000
0000
0200
0300
0000
0000
0002
0003
0000
0000
,
2002
0000
0000
0000
,
0000
0000
0000
0000
,
0000
0000
0000
0000
,
0000
0000
0000
0000
,
0000
3003
0000
0000
;

//--------------- dance-single - SPACE GOBLIN!!! ----------------
#NOTES:
     dance-single:
     SPACE GOBLIN!!!:
     Challenge:
     18:
     0,0,0,0,0:
0000
0000
0000
0000
,
0000
0000
0000
0000
,
0000
0000
0000
0000
,
0000
0000
0000
0000
,
0000
0000
0000
0000
,
0000
0000
0000
0000
,
0000
0000
0000
0000
,
0000
0000
0000
0000
,
0000
0000
0000
0000
,
0000
0000
0000
0000
,
0000
0000
0000
0000
,
0000
0000
0000
0000
,
4000
0000
0000
3001
,
0400
0300
0040
0030
1000
0001
0010
0100
,
2000
0000
3000
0000
0000
0000
0002
0000
0003
0000
0000
0000
4000
0000
0000
3000
0000
0000
0020
0000
0000
0000
0000
0000
,
0100
0000
0000
0000
0000
0000
1000
0M00
1000
0000
1000
0M00
1000
0000
1000
0M00
1000
0000
1000
0M00
1000
0000
1000
0M00
,
1030
0000
0020
0030
2000
3000
1000
0100
,
0010
0000
0000
0100
0000
0000
0010
0000
0000
0000
0000
0000
0001
0000
0000
0000
0000
0000
2000
0000
3000
0000
0000
0000
0020
0000
0030
0000
0000
0000
0200
0000
0300
0000
0000
0000
2000
0000
3000
0000
0000
0000
0002
0000
0003
0000
0000
0000
,
2000
3000
0000
0200
0300
0000
0020
0030
0000
0002
0003
0000
2000
3000
0000
0020
0030
0000
0200
0300
0000
0002
0003
0000
,
2000
0000
3000
0000
0000
0000
0002
0000
0003
0000
0000
0000
0020
0000
0030
0000
0000
0000
0100
0000
0000
0010
0000
0000
0100
0000
0000
0000
0000
0000
2000
0000
3000
0000
0000
0000
0002
0000
0003
0000
0000
0000
0100
0000
0000
0010
0000
0000
,
0100
0000
0000
0000
0000
0000
0020
0000
0030
0000
0000
0000
2000
0000
3000
0000
0000
0000
0002
0000
0003
0000
0000
0000
1000
0000
0000
0000
0000
0000
0010
0000
0000
0M00
0000
0000
0010
0000
0000
0000
0000
0000
0001
0000
0000
0000
0000
0000
,
2000
0000
0100
0000
00M0
0000
0100
00M0
0101
0000
00M0
0000
0100
00M0
3101
0000
,
0000
0000
1000
0001
1000
0000
0100
0000
0010
0000
0001
0000
1000
0000
0010
0000
,
0100
0000
0000
0000
0000
0000
0001
0000
0000
0000
0000
0000
2000
0000
0000
3000
0000
0000
0000
0000
0000
0000
0000
0000
0200
0000
0000
0300
0000
0000
0000
0000
0000
0000
0000
0000
0022
0033
0000
0000
0000
0000
0000
0000
0000
0000
0000
0000
,
0100
1000
0001
0100
0010
0001
0010
0100
,
0001
0000
1000
0000
0001
1000
0001
0000
0010
0001
0010
0000
0001
1000
0100
0000
,
1000
0000
0001
0000
0100
0000
0001
0100
0001
0000
1000
0000
0100
0000
0010
0M00
,
0020
0000
1000
0001
1000
0000
0031
0000
1000
0000
0001
0000
0020
0030
0001
0000
,
1000
0000
0100
0000
1000
0000
0100
0000
1000
0000
0001
0000
0100
0000
0000
0001
0000
0000
0100
0000
0001
0000
1000
0000
,
0001
0000
0000
2000
0000
0000
3021
0000
0000
1000
0001
1030
,
0001
0000
1000
0000
0010
0000
0100
0010
0100
0010
1000
0000
0001
0000
0010
0000
,
0100
0000
0000
0002
0000
0000
2100
0000
0000
0000
0000
0000
0100
0000
0010
0000
0100
0000
0010
0000
0100
0000
0010
0000
,
0100
0010
0100
0010
0100
0010
0100
0010
0100
0010
0100
0010
,
3203
0000
0000
0000
,
0020
0000
0000
0000
,
0000
0000
0000
0000
0000
0000
0000
0000
0000
0000
0000
0000
0000
0000
0000
0000
0000
0330
0000
0000
0000
0000
0000
0000
,
2002
0000
0000
3003
4004
0000
0000
0000
0000
0000
0000
0000
0000
0000
0003
0000
,
0002
0000
0003
0000
0000
0000
0040
0000
0030
0000
0000
0000
0004
0000
0003
0000
0000
0000
0400
0000
0000
0300
0000
0000
,
0004
0000
0003
0000
0040
0000
0030
0000
0004
0000
0003
0000
0400
0000
0300
3000
,
0002
0000
0000
0000
0000
0000
0000
0000
0003
0000
0000
0000
2000
0000
0000
0000
0000
0000
0000
0000
3000
0000
0000
0000
0020
0000
0000
0000
0030
0000
0000
0000
0000
0000
0100
0000
0020
0000
0000
0030
0000
0000
0000
0000
0000
0000
1000
0000
,
0002
0000
0000
0003
0000
0000
0000
0000
0000
0000
0010
0000
0200
0000
0000
0300
0000
0000
0000
0000
0000
0000
1000
0000
0002
0000
0000
0003
0000
0000
0000
0000
0000
0000
0100
0000
0020
0000
0000
0030
0000
0000
0000
0000
0000
0000
1000
0000
,
0002
0000
0000
0003
0000
0000
0000
0000
0000
0000
0010
0000
0200
0000
0000
0300
0000
0000
0000
0000
0000
0000
0001
0000
2000
0000
0000
3000
0000
0000
0000
0000
0000
0000
0100
0000
0020
0000
0000
0030
0000
0000
0000
0000
0000
0000
1000
0000
,
0002
M000
00M0
0M00
,
M000
0000
0000
0000
0000
0000
0M00
0000
0000
0000
0000
0000
00M0
0000
0000
0000
0000
0000
M000
0000
0000
0000
0000
0003
,
2000
3000
0000
0000
0001
0000
0000
0000
0200
0300
0000
0000
0010
0000
0000
0000
2000
3000
0000
0000
0001
0000
0010
0000
0001
0000
0000
0000
0001
0000
0010
0000
,
0001
0000
0000
0000
1000
0000
0000
0000
0010
0000
1000
0000
0010
0000
0000
0000
0001
0000
1000
0000
0001
0000
0000
0000
2000
3000
0000
0000
0001
0000
0100
0000
,
0002
0003
0000
0000
2000
3000
0000
0000
0002
0003
0000
0000
1000
0000
0000
0000
0002
0003
0000
0000
1000
0000
0100
0000
1000
0000
0000
0000
0001
0000
0000
0000
,
0001
0100
0000
0001
0100
0000
0001
0000
1000
0001
1000
0000
0010
0100
0010
0100
,
0002
0000
0000
0003
0000
0000
0000
0000
1000
0000
0000
0000
0000
0000
0000
0000
0001
0000
0000
0000
0000
0000
0000
0000
2000
0000
0000
3000
0000
0000
0000
0000
0100
0000
0000
0000
0000
0000
0000
0000
0010
0000
0000
0000
0000
0000
0000
0000
0200
0000
0000
0300
0000
0000
0000
0000
0010
0000
0000
0000
0000
0000
0000
0000
0001
0000
0000
0000
0000
0000
0000
0000
0020
0000
0000
0030
0000
0000
0000
0000
0100
0000
0000
0000
0000
0000
0000
0000
0010
0000
0000
0000
0000
0000
0000
0000
,
0002
0000
0000
0003
0000
0000
0000
0000
1000
0000
0000
0000
0000
0000
0000
0000
0001
0000
0000
0000
0000
0000
0000
0000
2000
0000
0000
3000
0000
0000
0000
0000
0010
0000
0000
0000
0000
0000
0000
0000
0100
0000
0000
0000
0000
0000
0000
0000
0020
0000
0000
0030
0000
0000
0000
0000
0100
0000
0000
0000
0000
0000
0000
0000
0010
0000
0000
0000
0000
0000
0000
0000
2000
0000
0000
3000
0000
0000
0000
0000
0010
0000
0000
0000
0000
0000
0000
0000
0100
0000
0000
0000
0000
0000
0000
0000
,
0020
0000
0000
0030
0000
0000
0000
0000
0100
0000
0000
0000
0000
0000
0000
0000
0010
0000
0000
0000
0000
0000
0000
0000
2000
0000
0000
3000
0000
0000
0000
0000
0001
0000
0000
0000
0000
0000
0000
0000
0100
0000
0000
0000
0000
0000
0000
0000
0020
0000
0000
0030
0000
0000
0000
0000
0100
0000
0000
0000
0000
0000
0000
0000
0010
0000
0000
0000
0000
0000
0000
0000
2000
0000
0000
3000
0000
0000
0000
0000
0001
0000
0000
0000
0000
0000
0000
0000
0010
0000
0000
0000
0000
0000
0000
0000
,
0200
0000
0000
0300
0000
0000
0000
0000
0010
0000
0000
0000
0000
0000
0000
0000
0001
0000
0000
0000
0000
0000
0000
0000
2000
0000
0000
3000
0000
0000
0000
0000
0001
0000
0000
0000
0000
0000
0000
0000
0010
0000
0000
0000
0000
0000
0000
0000
0100
0000
0000
0000
0000
0000
0010
0000
0000
0000
0000
0000
0100
0000
0000
0000
0000
0000
0001
0000
0000
0000
0000
0000
0010
0000
0000
0000
0000
0000
0000
0000
0001
0000
0000
0000
0000
0000
0000
0000
1000
0000
0000
0000
0000
0000
0000
0000
,
0002
0000
0000
0003
0000
0000
0000
0000
0100
0000
0000
0000
0000
0000
0000
0000
0010
0000
0000
0000
0000
0000
0000
0000
2000
0000
0000
3000
0000
0000
0000
0000
0000
0000
0000
0000
0001
0000
0000
0000
0000
0000
0000
0000
0000
0000
0000
0000
2000
0000
0000
3000
0000
0000
0000
0000
0010
0000
0000
0000
0000
0000
0000
0000
0100
0000
0000
0000
0000
0000
0000
0000
0002
0000
0000
0003
0000
0000
0000
0000
1000
0000
0000
0000
0000
0000
0000
0000
0100
0000
0000
0000
0000
0000
0000
0000
,
2000
0000
0000
3000
0000
0000
0000
0000
0100
0000
0000
0000
0000
0000
0000
0000
0010
0000
0000
0000
0000
0000
0000
0000
0002
0000
0000
0003
0000
0000
0000
0000
0000
0000
0000
0000
1000
0000
0000
0000
0000
0000
0000
0000
0000
0000
0000
0000
0002
0000
0000
0003
0000
0000
0000
0000
0100
0000
0000
0000
0000
0000
0000
0000
0010
0000
0000
0000
0000
0000
0000
0000
2000
0000
0000
3000
0000
0000
0000
0000
0002
0000
0000
0000
0000
0000
0000
0000
0000
0000
0000
0000
0000
0000
0000
0000
,
1000
0000
0000
0000
0100
00M0
0100
0000
0100
00M0
0100
0000
0100
00M0
0100
0000
0100
00M0
0100
0000
0100
00M3
0100
0000
,
1000
0010
0100
0001
1000
0100
0010
0001
1000
0010
0100
0010
,
2000
0000
0000
000M
0100
0000
0100
000M
0100
0000
0100
000M
0100
0000
0100
000M
3100
0000
0000
0000
0001
0000
0000
0000
0100
0000
0000
0000
0010
0000
0000
0000
,
1000
0001
0010
0100
1000
0001
0100
0010
,
0100
0000
0000
0000
0000
0000
0010
0000
0000
0000
0000
0000
1000
0000
0000
0001
0000
0000
1000
0000
0000
0001
0000
0000
1000
0000
0000
0000
0100
0000
0000
0000
0010
0000
0000
0000
0100
0000
0000
0000
0010
0000
0000
0000
0001
0000
0000
0000
,
1000
0010
0100
0010
0100
0010
0100
0001
1000
0001
1000
0100
,
0010
0100
1000
0001
0100
0001
0100
0001
1000
0100
0010
0100
,
0010
0100
0010
0001
1000
0001
0040
0030
0000
0400
0300
0000
,
0040
0030
0000
0004
0003
0000
4000
3000
0000
0010
0100
0010
,
1000
0000
0000
0000
0000
0001
1000
0000
0000
0000
0000
0001
1000
0000
0000
0000
0000
0100
0010
0000
0000
0000
0000
1000
,
0001
0000
0000
0000
1000
0000
0001
0000
1000
0100
1000
0000
0001
0100
0001
0000
,
1000
0000
0000
0100
0000
0000
0010
0000
0000
0001
0000
0000
1000
0000
0001
0000
0100
0000
0010
0000
0100
0000
0020
0000
,
0100
0001
1000
0001
1000
0001
1000
0001
1000
0001
1000
0001
,
1000
0000
0000
0001
0000
0000
1000
0000
0000
1000
0000
0030
,
0012
1000
0010
1000
0010
1000
0003
2000
,
0001
0000
0100
00M0
0100
0000
0100
00M0
0100
0000
0100
00M0
0100
0000
3100
0000
,
0000
0000
0001
0000
1000
0000
0001
1000
0001
0000
1000
0001
1000
0000
0000
0000
,
0010
0100
0001
1000
0100
0010
0001
1000
,
0001
0000
0100
0000
0002
0003
0000
0000
2000
3000
0000
0000
0200
0300
0000
0000
,
0020
0030
0001
0000
2000
3000
0001
0000
2000
3000
0010
0000
0200
0300
0001
0000
,
1000
0000
0100
0000
0010
0000
0000
0000
0002
0000
0000
0003
2000
0000
0000
3000
,
0001
0000
0100
0010
0100
0000
0001
1000
0001
0000
1000
0100
1000
0000
0001
0100
,
0001
0000
1000
0001
1000
0000
0010
0000
0100
0000
0010
0100
0010
0000
1000
0000
,
0001
0010
0100
1000
0001
0100
0021
1000
,
0001
1000
0000
0001
1000
0000
0001
1000
0001
1000
0001
1000
0001
1000
0001
1000
,
0031
1000
0010
0100
0001
1000
0100
0010
,
0001
0000
0100
00M0
0100
0000
0000
0000
1000
0000
0001
0000
0010
0M00
0010
0000
,
2000
0000
0001
0000
0000
0000
0100
0000
0001
0000
3000
0000
0100
0000
0010
0100
,
0010
0000
0000
0000
22M2
3303
0000
0000
2M22
3033
0000
0000
0010
0000
0000
0000
,
2MM2
3003
0000
0000
0100
0000
0000
0000
2M22
3033
0000
0000
0002
0003
1000
0000
,
0200
0300
0000
0000
0011
0000
0000
0000
0100
0000
1000
0000
0001
0000
0000
0000
,
1000
0000
0001
0000
1000
0000
0010
0000
0100
0010
0100
0000
0002
0003
0000
0000
,
0200
0300
0000
0000
2020
3030
0000
0000
0200
0300
0000
0000
0002
0003
0000
0000
,
1000
0001
0010
0100
1000
0000
0001
0100
,
0010
0000
1000
0001
1000
0000
0200
0000
0000
0000
0000
0000
0310
0000
0000
0000
,
0000
0000
0002
0000
0003
0000
2000
0000
0000
0000
3000
0000
0001
0000
0100
0010
,
0200
0000
0300
0000
0001
0000
0000
0000
1000
0000
0100
0010
0200
0000
0000
0300
,
2000
0000
0000
3000
4004
0000
0000
0000
0000
0000
0000
0000
0000
0000
0000
3003
,
0000
0000
0000
0000
2000
3000
0000
0000
0200
0300
0000
0000
0000
0000
0000
0000
0020
0030
0000
0000
0000
0000
0000
0000
0002
0003
0000
0000
0000
0000
0000
0000
,
0200
0300
0000
0000
0000
0000
0000
0000
0010
0000
0000
0000
1000
0000
0000
0000
0001
0000
0000
0000
0010
0000
0000
0000
0100
0000
0000
0000
1000
0000
0000
0000
,
0002
0000
0000
0000
1000
0000
0000
0000
0000
0000
0000
0000
0100
M000
0100
0000
0100
0000
0000
0000
0100
M000
0100
0000
0100
0000
0000
0000
0100
M000
0100
0000
,
0100
0000
0000
0000
0100
0000
0003
0000
0020
0000
0000
0000
1000
0M00
1000
0000
1000
0000
0000
0000
1000
0M00
1000
0000
1000
0000
0000
0000
1000
0M00
1000
0000
,
1030
0000
0000
0000
0002
0003
0000
0000
0020
0030
0000
0000
0200
0300
0000
0000
,
2000
3000
0000
0000
0002
0003
0100
0000
0020
0030
0000
0000
2000
3000
0000
0000
,
0001
0000
1000
0000
0200
0300
0000
0000
1000
0000
0001
0000
0200
0300
0000
0000
,
2000
3000
0000
0000
0200
0300
0000
0000
0020
0030
0000
0000
2000
3000
0000
0000
,
0002
0003
0000
0000
0020
0030
0000
0000
0200
0300
0000
0000
0002
0003
0000
0000
,
0200
0300
0000
0000
2000
0000
3000
0000
0100
0000
00M0
0000
0100
0000
0000
0000
,
2000
3000
0000
0000
0200
0300
0000
0000
0002
0003
0000
0000
0100
0000
00M0
0000
,
0100
0000
0000
0000
0002
0003
0000
0000
0200
0300
0000
0000
2000
3000
0000
0000
,
0200
0300
0000
0000
1000
0000
1000
0000
0001
0000
0100
0000
0020
0030
0000
0000
,
2000
3000
0000
0000
0020
0030
0000
0000
0002
0003
0000
0000
0020
0030
0000
0000
,
2000
3000
0000
0000
0200
0300
0000
0000
0002
0003
0000
0000
0200
0300
0000
0000
,
1000
0000
0001
0000
0200
0300
0000
0000
0100
0000
2000
3000
0000
0000
0001
0000
,
0010
0000
0002
0003
4000
0000
0000
0000
0004
0000
0000
0000
0000
0000
0000
3003
,
0000
0000
0001
0000
2020
0030
0000
0000
0002
0003
0000
0000
3200
0300
0000
0000
,
2002
3000
0000
0000
0200
0300
0000
0000
2000
3000
0003
0000
0002
0003
0200
0300
,
0020
0030
0000
0000
2000
3000
0000
0000
0002
0003
0000
0000
0020
0030
0000
0000
,
0200
0300
0000
0000
0002
0003
0000
0000
4002
0000
0000
0000
3003
0000
0000
0000
,
0002
0003
0000
0000
2020
0030
0000
0000
0002
0003
0000
3000
0020
0000
0000
0030
,
2000
0000
0000
0000
3002
0003
0000
0000
2000
3000
0000
0000
0200
0300
0000
0000
,
0002
0003
0000
0000
0200
0300
0000
0000
2000
3000
0000
0000
0020
0030
0000
0000
,
0002
0003
0000
0000
0020
0030
0000
0000
2000
3000
0000
0000
0200
0300
0000
0000
,
0002
0003
0000
0000
0200
0300
0000
0000
2000
3000
0000
0000
0002
0003
0000
0000
,
2000
3000
0000
0000
0200
0300
0000
0000
0020
0030
0000
0000
0002
0003
0000
0000
,
2000
3000
0000
0000
0020
0030
0000
0000
0200
0300
0000
0000
0002
0003
0000
0000
,
2002
0000
0000
0000
,
0200
0000
0000
0000
,
0020
0000
0000
0000
,
0000
0000
0000
0000
,
0000
3333
0000
0000
;
