#VERSION:0.83;
#TITLE:The Creeps (That Kid Chris Remix);
#SUBTITLE:;
#ARTIST:Camille Jones;
#TITLETRANSLIT:;
#SUBTITLETRANSLIT:;
#ARTISTTRANSLIT:;
#GENRE:;
#ORIGIN:;
#CREDIT:;
#BANNER:The Creeps (That Kid Chris Remix).png;
#BACKGROUND:The Creeps (That Kid Chris Remix)-bg.png;
#PREVIEWVID:;
#JACKET:The Creeps (That Kid Chris Remix)-jacket.png;
#CDIMAGE:;
#DISCIMAGE:;
#LYRICSPATH:;
#CDTITLE:;
#MUSIC:The Creeps (That Kid Chris Remix).ogg;
#OFFSET:0.000000;
#SAMPLESTART:39.685001;
#SAMPLELENGTH:15.000000;
#SELECTABLE:YES;
#BPMS:0.000=127.000;
#STOPS:;
#DELAYS:;
#WARPS:;
#TIMESIGNATURES:0.000=4=4;
#TICKCOUNTS:0.000=4;
#COMBOS:0.000=1;
#SPEEDS:0.000=1.000=0.000=0;
#SCROLLS:0.000=1.000;
#FAKES:;
#LABELS:0.000=Song Start;
#BGCHANGES:3.750=The Creeps (That Kid Chris Remix).mp4=1.000=0=0=1=====,
99999=-nosongbg-=1.000=0=0=0 // don't automatically add -songbackground-
;
#KEYSOUNDS:;
#ATTACKS:
;

//---------------dance-single - ----------------
#NOTEDATA:;
#CHARTNAME:;
#STEPSTYPE:dance-single;
#DESCRIPTION:;
#CHARTSTYLE:;
#DIFFICULTY:Hard;
#METER:13;
#RADARVALUES:0.396588,0.825645,0.053682,0.076688,0.509977,362.000000,355.000000,7.000000,10.000000,144.000000,2.000000,0.000000,0.000000,0.000000,0.396588,0.825645,0.053682,0.076688,0.509977,362.000000,355.000000,7.000000,10.000000,144.000000,2.000000,0.000000,0.000000,0.000000;
#CREDIT:RaverAce;
#NOTES:
// measure 0
0000
0000
0000
0000
,  // measure 1
0000
0000
0000
0000
,  // measure 2
0000
0000
0000
0000
,  // measure 3
0000
0000
0000
0000
,  // measure 4
0000
0000
0000
0000
,  // measure 5
0001
0000
0100
0000
0010
1000
0000
0001
0100
0000
0000
0001
0000
0000
1000
0000
,  // measure 6
0001
0000
0010
0000
0100
1000
0000
0001
0100
0000
0000
0100
0000
0000
0001
0000
,  // measure 7
1000
0000
0100
0000
0010
0001
0000
1000
0100
0000
0000
1000
0000
0000
0001
0000
,  // measure 8
1000
0000
0010
0000
0100
0001
0000
1000
0100
0000
1000
0001
0000
0001
1000
0000
,  // measure 9
0001
0000
0100
0000
0000
0001
0000
1000
0001
0000
0000
0000
MMMM
0000
0000
0000
,  // measure 10
1000
0000
0100
0000
0000
1000
0000
0001
1000
0000
0000
0000
MMMM
0000
0000
0000
,  // measure 11
0001
0000
0010
0000
0000
0001
0000
1000
0001
0000
0000
0000
MMMM
0000
0000
0000
,  // measure 12
1000
0000
0100
0000
0000
0010
0000
0100
1000
0000
0000
0000
1000
0002
0000
0000
,  // measure 13
0103
0000
0010
0000
0000
1000
0000
0001
1000
0000
0000
0000
MMMM
0000
0000
0000
,  // measure 14
0001
0000
0010
0000
0000
0001
0000
1000
0001
0000
0000
0000
MMMM
0000
0000
0000
,  // measure 15
1000
0000
0010
0000
0000
1000
0000
0001
1000
0000
0000
0000
MMMM
0000
0000
0001
,  // measure 16
1000
0000
0100
0000
0000
0010
0000
0001
1000
0000
0000
1000
0001
1000
0000
0000
,  // measure 17
0010
0000
0010
0000
0000
0010
0000
0010
0010
0000
0000
0000
MMMM
0000
0000
0000
,  // measure 18
0100
0000
0100
0000
0000
0100
0000
0100
0100
0000
0000
0000
MMMM
0000
0000
0000
,  // measure 19
0001
0000
0001
0000
0000
0001
0000
0001
0001
0000
0000
0000
MMMM
0000
0000
0001
,  // measure 20
1000
0000
1000
0000
0000
1000
0000
1000
1000
0000
0000
0000
1000
0001
0000
0000
,  // measure 21
1001
0000
1000
0000
0010
0100
0000
0010
0100
0000
0001
0000
1000
0000
0000
0000
,  // measure 22
0001
0000
0010
0000
0001
1000
0000
0001
1000
0000
0010
0000
0100
0000
0000
0000
,  // measure 23
0001
0000
0010
0000
0100
0010
0000
0100
0010
0000
0001
0000
1000
0000
0000
0000
,  // measure 24
0001
0000
0100
0000
0010
1000
0000
0001
1000
0000
0010
0100
0001
0000
0000
0000
,  // measure 25
1000
0000
0100
0000
0000
0010
0000
0001
1000
0000
0000
MMMM
MMMM
0000
0000
1000
,  // measure 26
0001
0000
0100
0000
0000
0010
0000
1000
0001
0000
0000
MMMM
MMMM
0000
0000
0001
,  // measure 27
1000
0000
0010
0000
0000
0100
0000
0001
1000
0000
0000
0000
MMMM
0000
0000
1000
,  // measure 28
0100
0000
0010
0000
0000
0001
0000
0010
0100
0000
1000
0000
0001
1000
0000
0000
,  // measure 29
0001
0000
0010
0000
0000
0100
0000
1000
0001
0000
0000
0000
MMMM
0000
0000
0001
,  // measure 30
1000
0000
0000
0000
0000
0100
0000
0010
0100
0000
0000
0000
MMMM
0000
0000
0000
,  // measure 31
1000
0000
0002
0000
0000
0000
0003
0200
1000
0000
0000
M0MM
M0MM
0000
0000
0000
,  // measure 32
0301
0000
2000
0000
0000
0000
0000
3200
0001
0000
0000
0000
1300
0001
0000
0000
,  // measure 33
0010
0000
0010
0000
0000
0010
0000
0010
0010
0000
0100
0000
MMMM
0000
0000
0000
,  // measure 34
0100
0000
0100
0000
0000
0100
0000
0100
0100
0000
0010
0000
MMMM
0000
0000
0000
,  // measure 35
1000
0000
1000
0000
0000
1000
0000
1000
1000
0000
0001
0000
MMMM
0000
0000
1000
,  // measure 36
0001
0000
0001
0000
0000
0001
0000
0001
0001
0000
0000
0000
MMMM
0000
0000
0000
,  // measure 37
0010
0000
0010
0000
0000
0010
0000
0010
0010
0000
0100
0000
MMMM
0000
0000
0000
,  // measure 38
0100
0000
0100
0000
0000
0100
0000
0100
0100
0000
0010
0000
MMMM
0000
0000
0000
,  // measure 39
0001
0000
0001
0000
0000
0001
0000
0001
0001
0000
1000
0000
MMMM
0000
0000
0001
,  // measure 40
1000
0000
1000
0000
0000
1000
0000
1000
1000
0000
0000
0000
1000
0001
0000
0000
,  // measure 41
2002
0000
0000
0000
,  // measure 42
0000
0000
0000
0000
,  // measure 43
0000
0000
0000
0000
,  // measure 44
0000
0000
0000
0000
0000
0000
0000
0000
0000
0000
0000
0000
0000
0000
0000
0100
,  // measure 45
0010
0000
0000
0000
,  // measure 46
3003
0000
0000
0000
,  // measure 47
0000
0000
0000
0000
,  // measure 48
0000
0000
0000
0000
,  // measure 49
MM11
MM00
MM10
MM00
,  // measure 50
11MM
00MM
01MM
00MM
,  // measure 51
1M1M
0M0M
1M0M
0M0M
,  // measure 52
M1M1
M0M0
M0M1
MMMM
,  // measure 53
0010
0000
0010
0000
0000
0010
0000
0010
0010
0000
0000
0000
MMMM
0000
0000
0000
,  // measure 54
0100
0000
0100
0000
0000
0100
0000
0100
0100
0000
0000
0000
MMMM
0000
0000
0000
,  // measure 55
1000
0000
1000
0000
0000
1000
0000
1000
1000
0000
0000
0000
MMMM
0000
0000
1000
,  // measure 56
0001
0000
0001
0000
0000
0001
0000
0001
0001
0000
1000
0000
0001
1000
0000
0000
,  // measure 57
1001
0000
0001
0000
0100
0001
0000
1000
0100
0000
0001
0000
0100
0000
1000
0000
,  // measure 58
0001
0000
0010
0000
0100
1000
0000
0001
0100
0000
1000
0000
0100
0000
0001
0000
,  // measure 59
1000
0000
0001
0000
0010
0001
0000
1000
0010
0000
0001
0000
0010
0000
1000
0000
,  // measure 60
0001
0000
0100
0000
0010
1000
0001
0000
0010
0000
0100
1000
0001
0000
0100
0000
,  // measure 61
0001
0010
0001
0010
0001
0010
0001
0010
0001
0010
0001
0010
0001
0010
0001
0010
,  // measure 62
0100
1000
0100
1000
0100
1000
0100
1000
0010
1000
0010
1000
0010
1000
0010
1000
,  // measure 63
0001
0000
1000
0000
0001
0010
0000
0100
1000
0000
0010
0000
0001
0000
0010
0000
,  // measure 64
1000
0000
0100
0000
0001
0000
0100
1000
0020
0000
0000
0001
0000
0000
2030
0000
,  // measure 65
3002
1003
0000
0000
;
