#TITLE:The Black Cat Nero;
#SUBTITLE:;
#ARTIST:BXB;
#TITLETRANSLIT:;
#SUBTITLETRANSLIT:;
#ARTISTTRANSLIT:;
#GENRE:;
#CREDIT:;
#BANNER:The Black Cat Nero-bn.png;
#BACKGROUND:The Black Cat Nero-bg.png;
#LYRICSPATH:;
#CDTITLE:;
#MUSIC:The Black Cat Nero.ogg;
#OFFSET:-0.093000;
#SAMPLESTART:29.417000;
#SAMPLELENGTH:16.000000;
#SELECTABLE:YES;
#DISPLAYBPM:135.000000;
#BPMS:0.000000=135.000000
,31.000000=137.000000
,32.000000=136.000000
,33.000000=135.000000
,97.000000=133.000000
,98.500000=135.000000
,98.750000=134.000000
,101.000000=137.000000
,102.000000=136.000000
,103.000000=137.000000
,104.000000=136.000000
,105.000000=135.000000
,165.000000=137.000000
,167.000000=136.000000
,167.500000=135.000000
,233.000000=132.000000
,234.500000=135.000000
;
#STOPS:251.000000=-3.555556
;
#BGCHANGES:0.000=The Black Cat Nero-bg.png=1.000=0=0=0=StretchNoLoop====,
0.001=The Black Cat Nero.avi=1.000=0=0=1=====,
251.000=The Black Cat Nero-bg.png=1.000=0=0=1=====,
99999=-nosongbg-=1.000=0=0=0 // don't automatically add -songbackground-
;
#KEYSOUNDS:;
#ATTACKS:;

//---------------dance-single - ----------------
#NOTES:
     dance-single:
     :
     Beginner:
     3:
     0.131275,0.191170,0.000000,0.009377,0.000000,98.000000,98.000000,0.000000,1.000000,0.000000,0.000000,0.131275,0.191170,0.000000,0.009377,0.000000,98.000000,98.000000,0.000000,1.000000,0.000000,0.000000:
0000
0000
0000
0000
,
0000
0000
0000
0000
,
0000
0000
0000
0000
,
0000
0000
0000
0000
,
0000
1000
0000
0010
,
0010
0000
0000
0100
,
0100
0000
0000
0001
,
0001
1000
1000
1000
,
0000
0100
0000
0100
,
0000
0010
0000
0010
,
0000
0001
0000
0001
,
0000
1000
0000
0010
,
0000
0100
0000
0100
,
0000
0001
0000
0010
,
0000
0100
0000
0100
,
0000
1000
0000
0000
,
0000
0000
0000
0000
,
0000
0001
0000
0001
,
0000
0001
0000
1000
,
0000
0010
0000
0100
,
0000
0010
0000
1000
,
0000
0100
0000
0100
,
0000
0100
0000
0010
,
0000
0001
0000
1000
,
0000
0010
0000
0000
,
0000
0000
0000
0000
,
0000
0100
0000
0100
,
0000
0010
0000
1000
,
0000
0001
0000
0010
,
0000
0001
0000
1000
,
0000
0010
0000
0100
,
0000
0010
0000
1000
,
0000
0001
0000
0010
,
0000
0100
0000
0100
,
0000
0010
0000
0010
,
0000
0001
0000
0001
,
0000
1000
0000
0010
,
0000
0100
0000
0020
,
0000
0030
0100
0000
,
0010
0000
1000
0000
,
0001
0000
0010
0000
,
0100
0000
0000
0000
,
0000
0000
0000
0000
,
0000
0010
0000
0010
,
0000
0010
0000
0001
,
0000
1000
0000
0010
,
0000
0100
0000
0000
,
0000
0010
0000
0010
,
0000
0010
0000
1000
,
0000
0001
0000
0010
,
0000
0100
0000
0000
,
0000
0010
0000
0010
,
0000
0010
0000
0001
,
0000
1000
0000
0010
,
0000
0100
0000
0000
,
0000
0010
0000
0010
,
0000
0010
0000
1000
,
0000
0001
0000
0010
,
0000
0100
0000
0000
;

//---------------dance-single - ----------------
#NOTES:
     dance-single:
     :
     Easy:
     5:
     0.222365,0.245790,0.000000,0.196913,0.000000,166.000000,166.000000,0.000000,21.000000,0.000000,0.000000,0.222365,0.245790,0.000000,0.196913,0.000000,166.000000,166.000000,0.000000,21.000000,0.000000,0.000000:
// measure 0
0000
0000
0000
0000
,  // measure 1
0000
0000
0000
0000
,  // measure 2
0000
0000
0000
0000
,  // measure 3
0000
0000
0000
0000
,  // measure 4
0000
1000
0000
0010
,  // measure 5
0100
0001
0000
0010
,  // measure 6
0100
1000
0000
0001
,  // measure 7
1000
0010
0010
0010
,  // measure 8
0000
0100
0000
0010
,  // measure 9
0000
1000
0100
0010
,  // measure 10
0000
0100
1000
0001
,  // measure 11
0000
1000
1000
0010
,  // measure 12
0000
0100
0010
1000
,  // measure 13
0000
0001
0010
0100
,  // measure 14
0000
0010
0001
1000
,  // measure 15
0010
0100
0100
0010
,  // measure 16
0000
0000
0000
0000
,  // measure 17
0000
0200
0301
2000
,  // measure 18
3100
2000
3010
0100
,  // measure 19
0010
1000
0000
0001
,  // measure 20
0010
0100
0000
0010
,  // measure 21
0001
2000
3010
2000
,  // measure 22
3100
0020
0031
1000
,  // measure 23
0010
0100
0000
0010
,  // measure 24
1000
0001
0000
0000
,  // measure 25
0000
0000
0000
0000
,  // measure 26
0000
1000
0100
0010
,  // measure 27
0000
0010
0001
1000
,  // measure 28
0000
0010
0100
0010
,  // measure 29
0000
0010
1000
0002
,  // measure 30
0003
0010
0100
0010
,  // measure 31
0000
0001
1000
0010
,  // measure 32
0000
0100
0010
1000
,  // measure 33
1000
0001
0010
0100
,  // measure 34
0000
0010
0001
1000
,  // measure 35
1000
0010
0100
0001
,  // measure 36
0001
0000
1000
0100
,  // measure 37
0100
0000
0010
0002
,  // measure 38
0000
0003
1000
0000
,  // measure 39
0010
0000
0100
0010
,  // measure 40
1000
0000
0001
0010
,  // measure 41
0100
0010
0000
0000
,  // measure 42
0000
0000
0000
0000
,  // measure 43
0000
0200
1300
0020
,  // measure 44
0130
0002
0013
0100
,  // measure 45
1000
0001
1000
0010
,  // measure 46
0100
0010
0000
0100
,  // measure 47
0001
0020
0130
2000
,  // measure 48
3010
0200
0301
1000
,  // measure 49
0100
1000
0000
0010
,  // measure 50
0100
0001
0010
0001
,  // measure 51
1000
0200
1300
0020
,  // measure 52
0130
0002
0013
0100
,  // measure 53
0010
0001
1000
0010
,  // measure 54
0100
0010
0000
0100
,  // measure 55
0001
0020
0031
0200
,  // measure 56
0310
2000
3100
0010
,  // measure 57
0100
2000
3000
0001
,  // measure 58
0100
0010
0000
0000
;

//---------------dance-single - ----------------
#NOTES:
     dance-single:
     :
     Medium:
     7:
     0.300058,0.355030,0.168783,0.206290,0.028130,224.000000,206.000000,18.000000,22.000000,0.000000,0.000000,0.300058,0.355030,0.168783,0.206290,0.028130,224.000000,206.000000,18.000000,22.000000,0.000000,0.000000:
0000
0000
0000
0000
,
0000
0000
0000
0000
,
0000
0000
0000
0000
,
0000
0000
0000
0000
,
0000
0000
1000
0000
0000
0000
0001
0100
,
0001
0000
0010
0000
0000
0000
0100
1000
,
0100
0000
0010
0000
0000
0000
0001
0100
,
0001
0000
2000
0000
3002
0000
2003
3000
,
0000
0001
0010
0100
,
0010
0001
1000
0010
,
0100
0010
1000
0100
,
0010
0000
0100
0000
1000
0001
1000
0000
,
0000
0010
0100
0010
,
1000
0000
0100
0000
0010
0001
0010
0000
,
0000
0100
1000
0001
,
0100
0010
1000
0001
,
0000
0000
0000
0000
,
0000
1002
0013
2001
,
3010
2001
3100
0010
,
0100
1000
0010
0100
,
0001
1000
0001
0000
0000
0000
1000
0000
,
0100
0120
0031
0210
,
1300
0120
0031
1000
,
0010
0100
0010
0000
0000
0000
0100
0000
,
0001
1000
0001
0000
0000
0000
0000
0000
,
0000
0000
0000
0000
,
0000
0000
0001
0000
0010
0100
0010
0000
,
0001
1000
0010
0010
,
0100
0010
1000
1000
,
0001
0000
0010
0000
0100
0010
0100
0000
,
0000
0010
0001
1000
,
0010
1000
0010
0000
0100
0000
0100
0000
,
0001
1000
0001
0000
0010
0000
0100
0000
,
0010
0001
1000
0010
,
0000
0000
0000
0000
0100
0000
0000
0000
0010
0000
0000
0000
1000
0000
0000
1000
,
0000
0000
1000
0000
0001
0000
0000
0000
0010
0000
0000
0000
0100
0000
0000
0100
,
0000
0000
0100
0000
0000
0000
0000
0000
0010
0000
0000
0000
0001
0000
0000
0001
,
0000
0000
0001
0000
0000
0000
0000
0000
1000
0000
0000
0000
0010
0000
0000
0010
,
0000
0010
0000
0000
0100
0010
0000
0000
,
0010
0100
0000
0000
0010
0000
1000
0000
,
0001
0000
0000
0001
0000
0000
0000
0000
1000
0000
0000
0000
0100
0000
0000
0000
,
0010
0000
0000
0001
0000
0000
0000
0000
0000
0000
0000
0000
0000
0000
0000
0000
,
0000
0000
0000
0000
,
0000
1002
0013
2001
,
3010
1002
0103
0001
,
0010
0100
0010
0000
0001
0000
1000
0000
,
0010
0100
0010
0000
0000
0000
1000
0000
,
0001
0012
0103
0102
,
0013
1002
0103
0001
,
0010
0100
0010
0000
0001
0000
1000
0000
,
0010
0100
0010
0000
0100
0000
0001
0000
,
0010
0012
0103
2010
,
3100
0012
1003
0001
,
1000
0010
1000
0000
0100
0000
0010
0000
,
0001
1000
0001
0000
0000
0000
1000
0000
,
0010
0210
0301
0021
,
0130
1020
0130
0001
,
1000
0001
2000
0000
3000
0000
0100
0000
,
0010
0100
0010
0000
0000
0000
0000
0000
;

//---------------dance-single - ----------------
#NOTES:
     dance-single:
     :
     Hard:
     11:
     0.425975,0.444461,0.037507,0.403203,0.032819,318.000000,314.000000,4.000000,43.000000,0.000000,0.000000,0.425975,0.444461,0.037507,0.403203,0.032819,318.000000,314.000000,4.000000,43.000000,0.000000,0.000000:
0000
0000
0000
0000
,
0000
0000
0000
0000
,
0000
0000
0000
0000
,
0000
0000
0000
0000
,
0000
0000
2000
0000
3000
0001
0010
0001
,
0200
0000
0320
0000
0030
1000
0100
1000
,
0020
0000
0230
0000
0300
0001
0010
0001
,
0200
0000
0320
0000
2030
0000
3200
0300
,
0000
0000
1000
0000
0001
0100
0020
0000
,
0130
0001
1000
0100
0010
0001
2000
0000
,
3010
0100
0001
0100
0010
1000
0002
0000
,
0013
0100
1000
0100
0010
0001
0200
0000
,
0300
0010
0100
0001
2000
0000
3002
0000
,
0013
0100
0010
0001
1000
0010
0100
0000
,
0010
0100
0001
1000
0001
0100
0001
0010
,
0100
1000
0020
0000
2030
0000
0002
0000
,
3003
0000
0000
0000
,
0000
0000
1000
0100
0020
0030
0001
0100
,
0020
0030
0100
0001
1000
0100
1000
0001
,
0100
0010
1000
0000
0001
0010
0001
1000
,
0010
0100
0001
0000
0000
1000
0001
1000
,
0001
0010
0100
1000
0001
0000
0100
0001
,
1000
0000
0001
1000
0010
0100
0010
1000
,
0001
0010
0200
0300
0000
0010
0001
1000
,
0010
0100
0001
0000
0000
1000
0100
1000
,
0001
1000
0010
0000
0000
0000
0000
0000
,
0000
0000
2000
0000
3001
0010
0100
0000
,
0010
0001
2000
0000
3020
0000
0230
0300
,
0010
1000
0002
0000
0023
0000
0230
0300
,
0010
0001
0200
0300
0010
1000
0200
0000
,
0300
0000
1001
0000
1000
0100
0010
0000
,
0001
0100
0020
0000
2030
0000
3002
0003
,
1000
0001
0200
0000
0320
0000
1030
0001
,
1000
0100
0020
0000
0032
0000
0203
0000
,
0300
0000
0010
0000
0010
0000
0100
0000
0001
0000
1000
0000
0100
0000
0000
0100
,
0000
0000
0100
0000
0010
0000
0001
0000
1000
0000
0010
0000
0100
0000
0000
0100
,
0000
0000
0100
0000
0000
0000
0001
0000
1000
0000
0001
0000
0010
0000
0000
0010
,
0000
0000
0010
0000
0000
0000
0100
0000
1000
0000
0000
0000
1001
0000
0000
0110
,
0000
1001
0000
1000
0100
0010
0000
0010
,
0100
0000
1000
0000
0000
0000
0001
0000
0100
0000
0001
0000
1000
0000
0000
0010
,
0000
0000
0100
0000
0001
0000
1000
0000
0100
0000
0000
0010
0000
0000
0001
0000
,
1000
0000
0000
0010
0000
0000
0000
0000
0000
0000
0000
0000
0000
0000
0000
0000
,
0000
0000
0000
0000
,
0000
0000
1000
0100
0010
0000
0001
0100
,
0010
0000
0100
0001
1000
0100
0010
0100
,
1000
0001
0100
0000
0010
0100
0001
1000
,
0100
0010
0001
0000
0000
1000
0010
1000
,
0100
0000
0010
0001
1000
0000
0010
1000
,
0001
0000
0010
0001
0100
0010
0100
0001
,
1000
0100
2000
0000
3000
0001
0100
0001
,
0010
0100
1000
0000
0001
0100
0010
1000
,
0100
0000
0010
0001
0100
0000
0010
1000
,
0100
0000
0100
1000
0010
0100
0010
1000
,
0001
0010
0200
0000
0310
0001
1000
0010
,
1000
0001
0200
0000
0300
0010
0100
0001
,
1000
0100
0010
0001
0100
0000
0010
1000
,
0100
0000
0100
1000
0010
0100
0001
1000
,
0001
0100
0020
0100
0030
0010
1000
0001
,
0010
0100
2000
3000
0000
0001
0010
0001
,
1000
0001
0100
0000
0000
0000
0000
0000
;

//---------------dance-single - XJ XO DS----------------
#NOTES:
     dance-single:
     :
     Challenge:
     13:
     0.558590,0.708887,0.196913,0.506348,0.234420,417.000000,396.000000,21.000000,54.000000,0.000000,0.000000,0.558590,0.708887,0.196913,0.506348,0.234420,417.000000,396.000000,21.000000,54.000000,0.000000,0.000000:
0000
0000
0000
0000
,
0000
0000
0000
0000
,
0000
0000
0000
0000
,
0000
0000
0000
0000
,
0000
0000
2000
0000
3000
0001
0010
0100
,
0001
0100
2000
0000
3000
0001
0100
0010
,
0002
0000
0023
0000
0030
1000
0100
0010
,
2000
0000
3020
0000
0032
0000
0203
0300
,
0000
0000
0000
0000
1001
0000
1000
0000
0100
0000
0010
0000
0002
0000
0000
0100
,
0000
0000
1003
0000
0010
0000
0100
0000
0001
0000
1000
0000
0200
0000
0000
0010
,
0000
0000
1300
0000
0010
0000
0100
0000
0010
0000
1000
0000
0002
0000
0000
0010
,
0000
0000
0103
0000
0010
0000
1000
0000
0001
0000
1000
0010
0100
0000
0000
0010
,
0000
0000
1000
0000
0001
0000
0010
0000
0200
0000
0000
0000
2300
0000
0000
0010
,
0000
0000
3001
0000
0100
0000
1000
0000
0100
0000
0001
1000
0100
0000
0000
0010
,
0000
0001
1000
0100
0001
0100
1000
0010
,
0100
1000
0200
0000
0302
0000
2000
0000
,
3003
0000
0000
0000
0001
1000
0001
0100
,
1000
0000
0000
0000
1200
0000
0010
0000
0301
0000
1000
0001
0020
0000
0100
0000
,
0031
0000
0010
0000
1020
0000
0100
0000
0031
0000
1000
0001
0100
0000
0000
0010
,
1000
0000
0001
0000
0021
0000
0000
0000
0130
0000
1000
0000
0001
0000
0100
0010
,
1000
0010
1010
0000
1000
0001
1000
0100
,
0010
0000
0100
0000
0201
0000
0010
0000
1300
0000
0001
1000
0020
0000
0100
0000
,
1030
0000
0010
0000
0021
0000
0100
0000
1030
0000
0001
0000
0010
0000
0100
1000
,
0001
0000
0100
0000
0020
0000
0000
0000
1030
0000
0001
0010
0001
0000
1000
0000
,
0010
0100
1001
0000
0000
0001
0100
1000
,
0100
0001
1000
0000
0000
0000
0000
0000
,
0000
0000
0002
0000
1003
0100
0002
0000
,
0103
1000
0002
0000
0203
0000
2300
0000
,
3100
0010
1000
0001
0020
0000
0130
0000
,
1000
0010
0002
0000
1003
0100
0002
0000
,
1003
0100
1000
0000
0002
0000
0000
0000
0203
0000
0000
0000
2300
0000
0000
0000
,
3100
0010
2000
0000
3200
0000
0302
0000
,
0103
0010
0001
0100
0010
0000
1000
0001
,
0010
0000
0100
0000
2000
0000
0000
0000
3002
0000
0000
0000
0103
0010
1000
0000
,
0000
0000
0001
0000
0001
0000
0010
0000
0100
0000
1000
0000
0010
0000
0100
0010
,
0000
0000
1000
0000
0001
0000
1000
0100
0010
0000
0100
1000
0001
0000
1000
0010
,
0000
0100
0001
0000
0000
0000
1000
0100
1000
0001
0100
0010
1000
0000
0001
0010
,
0000
0001
0100
0000
0010
0000
1000
0000
0200
0000
0000
0000
0001
0000
0000
1000
,
0000
0301
0100
1000
0010
0001
1000
0001
,
0010
0000
1000
0000
0001
0000
0010
0100
0010
0000
0001
1000
0001
0100
0010
1000
,
0100
0000
0010
0001
0000
0000
1000
0000
0001
0000
0100
0010
0000
0100
0001
1000
,
0100
0000
0010
0001
2000
0000
0000
0000
0000
0000
3000
0000
0000
0000
0000
0000
,
0000
0000
0000
0000
1000
0001
1000
0100
,
0001
0000
0000
0000
0201
0000
0010
0000
1300
0000
0001
1000
0020
0000
0100
0000
,
1030
0000
0010
0000
0021
0000
0100
0000
1030
0000
0001
1000
0100
0000
0000
0010
,
0001
0000
1000
0000
1020
0000
0000
0000
0130
0000
0001
0000
1000
0000
0100
0010
,
0001
0010
0011
0000
0001
1000
0001
0100
,
0010
0000
0100
0000
1200
0000
0010
0000
0301
0000
1000
0001
0020
0000
0100
0000
,
0031
0000
0010
0000
1020
0000
0100
0000
0031
0000
1000
0000
0010
0000
0100
0001
,
1000
0000
0100
0000
0020
0000
0000
0000
0031
0000
1000
0010
1000
0000
0001
0000
,
0010
0100
2000
0000
3001
1000
0100
0010
,
0100
0000
0001
0000
0101
0000
0100
1000
0001
0000
0100
0000
1100
0000
0100
0001
,
1000
0000
0010
0000
0011
0000
0010
1000
0001
0000
0010
0000
0100
0000
0001
0000
,
0100
1000
1010
0010
0100
0001
0100
0010
,
0001
0010
2000
0000
3000
0001
1000
0010
,
0100
0000
0010
0000
0011
0000
0010
1000
0001
0000
0010
0000
1010
0000
0010
0001
,
1000
0000
0100
0000
0101
0000
0100
1000
0001
0000
0100
0000
0010
0000
1000
0000
,
0001
0100
2000
3200
0300
0001
0010
0100
,
0001
0100
1000
0000
0000
0001
0100
1000
,
0100
0001
0010
0000
0000
0000
0000
0000
,
0000
0000
0000
0000
,
0000
0000
0000
0000
,
0000
0000
0000
0000
,
0M00
0000
0000
0000
;
