#VERSION:0.83;
#TITLE:Terror Squad;
#SUBTITLE:;
#ARTIST:Zomboy;
#TITLETRANSLIT:;
#SUBTITLETRANSLIT:;
#ARTISTTRANSLIT:;
#GENRE:;
#CREDIT:LuckJury;
#MUSIC:Terror Squad.ogg;
#BANNER:Terror Squad-bn.jpg;
#BACKGROUND:Terror Squad-bg.png;
#CDTITLE:;
#SAMPLESTART:0.000;
#SAMPLELENGTH:0.000;
#SELECTABLE:YES;
#OFFSET:-0.032;
#BPMS:0.000=140.000;
#STOPS:;
#SPEEDS:0.000=1.000=0.000=0,
124.000=2.000=1.500=0,
125.500=1.000=1.500=0
;
#SCROLLS:0.000=1.000,
60.000=0.000,
60.500=2.000,
61.000=0.000,
61.500=2.000,
62.000=0.000,
62.500=2.000,
63.000=0.000,
63.500=2.000,
64.000=1.000
;
#BGCHANGES:;
#FGCHANGES:;

//--------------- dance-single - LuckJury ----------------
#NOTEDATA:;
#STEPSTYPE:dance-single;
#DESCRIPTION:LuckJury;
#DIFFICULTY:Hard;
#METER:13;
#RADARVALUES:0,0,0,0,0;
#NOTES:
0000
0000
0000
0000
,
0000
0000
0000
0000
,
0000
0000
0000
0000
,
0000
0000
0000
0000
0000
0000
0000
0000
0000
0000
0001
0000
0010
0202
0000
0303
,
1000
0000
0010
1000
0010
0000
0010
1000
0010
0000
1000
0000
0100
0000
0010
0000
,
0001
0000
0001
0010
0001
0000
0001
0010
0001
0000
0100
0000
0010
0000
1000
0000
,
0001
0000
0001
1000
0001
0000
0001
1000
0001
0000
0010
0000
0100
0000
1000
0000
,
0001
0000
0100
0010
0100
0000
0001
1000
0100
0010
0001
1000
0010
0000
0000
0000
,
0400
0000
0000
0000
0301
0000
1000
0010
1000
0010
1000
0000
0001
0000
0010
0100
,
0400
0000
0000
0000
1300
0000
0001
0010
0001
0010
0001
0000
1000
0000
0001
0000
,
4000
0000
0000
0000
3100
0000
1000
0000
0001
0000
1000
0000
0100
0000
0010
0001
,
0004
0000
0000
0000
1003
0000
0100
0000
0010
0000
0100
0000
1000
0101
0000
1000
,
0011
1000
0101
1000
0011
1000
0100
0100
,
1010
0001
1100
0001
1010
0001
1000
1000
,
0010
0000
0010
0000
0100
0000
0100
0000
0001
0100
0001
0100
0010
1000
0010
1000
,
0000
0000
MMMM
000M
000M
0000
00M0
00M0
0M00
0M00
M000
M000
M000
MMMM
0000
0000
,
2022
0000
0000
0000
3133
00M0
0100
0000
2000
0000
0000
0000
3100
00M0
0100
0000
,
0002
0000
0000
0000
0103
00M0
0100
0000
2000
0000
0000
0000
3100
0000
1010
0000
,
0004
0000
0000
0000
0103
00M0
0100
0000
2000
0000
0000
0000
3001
0000
1000
0000
,
0001
0000
0100
00M0
0100
0000
0100
0000
0001
0000
0000
0000
0001
0000
1000
0000
,
2002
0000
3003
0000
1000
0000
0100
0000
0010
0000
0001
0000
1000
0000
0001
1000
,
0001
0000
0100
0000
0010
0000
1000
0001
0000
0100
0010
0000
1000
0000
0404
0000
,
0343
0030
0000
0000
0220
0330
0220
0330
,
0000
MMMM
0101
1000
0011
1000
0202
0303
,
2022
0000
0000
3033
0100
00M0
0100
0000
2000
0000
0000
0000
3010
0M00
0010
0000
,
0002
0000
0000
0000
0013
0M00
0010
0000
2000
0000
0000
0000
3100
0000
1010
0000
,
0002
0000
0000
0000
0013
0M00
0010
0000
2000
0000
0000
0000
3100
0000
1000
0000
,
0001
0000
0010
0M00
0010
0000
0010
0000
0001
0000
0000
0000
0001
0000
0010
0000
,
0022
0000
0033
0000
0001
0000
0100
0000
0001
0000
1000
0000
0100
0000
1000
0001
,
1000
0000
0100
0000
0010
0000
0104
M003
0100
0010
1000
0000
0001
0000
0100
0000
,
2002
0000
3003
0000
0220
0330
0220
0330
,
0000
MMMM
0000
M00M
M00M
0MM0
0MM0
M00M
M00M
0000
MMMM
0000
1000
0100
0010
0001
,
1000
0000
0001
0000
0000
0001
0000
0000
0200
0000
0300
0000
0020
0000
0030
0000
,
2000
3000
0200
0300
0020
0030
0200
0300
,
4000
0000
3000
0000
0100
0020
0030
0000
0001
0000
0100
0000
1M00
0000
0001
0000
,
1000
0000
0100
0000
0M01
0000
1000
0001
0100
0000
1M00
0000
0001
0000
1000
0000
,
0100
0000
0010
0000
0000
0010
0000
0000
0200
0000
0300
0000
2000
0000
3000
0000
,
0200
0300
0020
0030
0200
0300
2000
3000
,
4400
0000
3300
0000
0100
0010
0000
0100
1000
0000
1000
0000
0100
00M0
0100
0000
,
0001
0000
0001
0000
0010
0M00
0010
0000
1100
0000
0011
0000
1100
0000
0001
0001
,
0100
0000
0010
0000
0000
0010
0000
0000
1000
0000
0000
0000
0100
0000
0M01
0000
,
1000
0000
0010
00M1
0100
0000
0001
010M
,
4000
0000
3000
0000
0100
0020
0030
0000
0002
0000
0003
0000
0010
0000
10M0
0000
,
0002
0000
0000
0003
0100
0000
1M00
0000
0020
0000
0000
0030
0100
0000
1M00
0000
,
0200
0000
0010
0300
0000
0010
0000
0000
0002
0000
0003
0000
0020
0000
0030
0000
,
0200
0300
2000
3000
4400
3300
0020
0030
,
0002
0003
0202
0303
0202
0303
0202
0303
,
MMMM
0000
0011
1000
0101
1000
0011
0000
,
2222
3333
0000
0000
0000
0000
0000
0000
;
