#VERSION:0.83;
#TITLE:天庭 おとこのこ編;
#SUBTITLE:;
#ARTIST:あさき;
#TITLETRANSLIT:Tentei otoko no ko hen;
#SUBTITLETRANSLIT:;
#ARTISTTRANSLIT:Asaki;
#GENRE:DAIUCHUU NO HOUTEN;
#ORIGIN:;
#CREDIT:;
#BANNER:Tentei otoko no ko hen.png;
#BACKGROUND:Tentei otoko no ko hen-bg.png;
#PREVIEWVID:;
#JACKET:Tentei otoko no ko hen-jacket.png;
#CDIMAGE:;
#DISCIMAGE:;
#LYRICSPATH:;
#CDTITLE:;
#MUSIC:Tentei otoko no ko hen.ogg;
#OFFSET:1.024000;
#SAMPLESTART:71.013000;
#SAMPLELENGTH:12.000000;
#SELECTABLE:YES;
#BPMS:0.000=209.000;
#STOPS:;
#DELAYS:;
#WARPS:;
#TIMESIGNATURES:0.000=4=4;
#TICKCOUNTS:0.000=4;
#COMBOS:0.000=1;
#SPEEDS:0.000=1.000=0.000=0;
#SCROLLS:0.000=1.000;
#FAKES:;
#LABELS:0.000=Song Start;
#BGCHANGES:0.000=Tentei otoko no ko hen.mp4=1.000=0=0=1===CrossFade_Faster==,
99999=-nosongbg-=1.000=0=0=0 // don't automatically add -songbackground-
;
#KEYSOUNDS:;
#ATTACKS:
;

//---------------dance-single - ----------------
#NOTEDATA:;
#CHARTNAME:;
#STEPSTYPE:dance-single;
#DESCRIPTION:;
#CHARTSTYLE:;
#DIFFICULTY:Beginner;
#METER:4;
#RADARVALUES:0.277046,0.339567,0.000000,0.066873,0.000000,261.000000,261.000000,0.000000,9.000000,0.000000,0.000000,0.000000,0.000000,0.000000,0.277046,0.339567,0.000000,0.066873,0.000000,261.000000,261.000000,0.000000,9.000000,0.000000,0.000000,0.000000,0.000000,0.000000;
#CREDIT:chrononical & BlindedVanguard573;
#NOTES:
0000
0000
0000
0000
,
0000
0000
0000
0000
,
0000
0000
0000
0000
,
0000
0000
0000
0000
,
0000
0000
0000
0000
,
0001
0000
0000
0000
,
0010
0010
0010
0000
,
0000
0000
0100
0100
,
0100
0000
0000
0000
,
1000
1000
1000
0000
,
0000
0010
0010
0000
,
0100
0100
0000
0001
,
0001
0000
1000
1000
,
1000
0000
0010
0010
,
0010
0000
0100
0000
,
0001
0001
0000
0000
,
0000
1000
1000
1000
,
0000
0100
0000
0010
,
0000
0001
0001
0001
,
0000
0100
0000
0010
,
0000
1000
1000
1000
,
0000
0001
0001
0001
,
0000
0010
0000
1000
,
0000
0010
0010
0010
,
0000
0100
0000
1000
,
0000
0001
0001
0001
,
0000
1000
1000
1000
,
0000
0010
0010
0020
,
0000
0030
0000
0200
,
0000
0300
0000
0001
,
0000
0010
0000
0100
,
0000
1000
0000
0001
,
0001
0001
0001
0001
,
0000
0100
0000
0010
,
0000
1000
0000
0001
,
0001
0001
0000
0010
,
0000
0100
0000
1000
,
1000
1000
0000
0001
,
0001
0001
0000
0100
,
0100
0200
0000
0300
,
0000
0020
0000
0030
,
0000
1000
0000
0001
,
0000
0010
0000
0100
,
0000
1000
1000
1000
,
1000
1000
0000
0001
,
0000
0100
0100
0100
,
0000
0010
0000
1000
,
0000
0001
0001
0001
,
0000
0010
0010
0010
,
0000
0100
0100
0100
,
0000
1000
1000
2000
,
0000
0000
0000
3000
,
0000
1000
0000
0002
,
0000
0000
0000
0003
,
0000
0001
0000
0100
,
0100
0100
0000
0010
,
0010
0010
0000
1000
,
0000
0001
0000
0010
,
0000
0100
0000
0020
,
0000
0000
0000
0030
,
0000
0010
0000
0200
,
0000
0000
0000
0000
,
0000
0300
0000
0100
,
0000
1000
0000
0010
,
0000
0100
0100
0100
,
0000
0001
0000
1000
,
0000
0100
0100
0100
,
0000
0010
0000
0001
,
0000
1000
1000
1000
,
0000
0010
0000
0100
,
0000
0001
0001
0001
,
0000
0010
0000
0100
,
0000
1000
1000
1000
,
0000
0001
0000
0010
,
0000
0001
0001
0001
,
0000
0100
0000
0010
,
0000
1000
1000
1000
,
0000
0100
0000
0010
,
0000
0001
0001
0001
,
0001
0001
0000
0100
,
0000
0010
0000
1000
,
1000
1000
0000
0100
,
0000
0010
0000
0001
,
0001
0001
0000
1000
,
0000
0100
0000
1000
,
1000
1000
0000
0010
,
0000
0100
0000
0001
,
0001
0001
0000
0010
,
0000
1000
0000
0100
,
0100
0100
0000
0001
,
0000
0010
0000
0001
,
0001
0001
0000
1000
,
1000
1000
0000
0010
,
0010
0010
0000
0100
,
0000
0001
0000
1000
,
1000
1000
1000
0000
,
0100
0000
0010
0000
,
0001
0001
0001
0000
,
1000
0000
0010
0000
,
0100
0100
0100
0000
,
0010
0010
0010
0000
,
1000
0000
0001
0000
,
0010
0010
0010
0000
,
0100
0000
1000
0000
,
0001
0001
0001
0000
,
0100
0100
0100
0000
,
0010
0010
0010
0010
,
0010
0000
1000
0000
,
0001
0001
0001
0000
,
0010
0010
0010
0000
,
0100
0000
1000
0000
,
0001
0000
0100
0100
,
0100
0100
0100
0200
,
0000
0000
0000
0300
,
0000
0010
0000
0000
;

//---------------dance-single - ----------------
#NOTEDATA:;
#CHARTNAME:;
#STEPSTYPE:dance-single;
#DESCRIPTION:;
#CHARTSTYLE:;
#DIFFICULTY:Easy;
#METER:8;
#RADARVALUES:0.447945,0.509908,0.029721,0.081734,0.000000,422.000000,418.000000,4.000000,11.000000,0.000000,0.000000,0.000000,0.000000,0.000000,0.447945,0.509908,0.029721,0.081734,0.000000,422.000000,418.000000,4.000000,11.000000,0.000000,0.000000,0.000000,0.000000,0.000000;
#CREDIT:chrononical & BlindedVanguard573;
#NOTES:
// measure 0
0000
0000
0000
0000
,  // measure 1
0000
0000
0000
0000
,  // measure 2
0000
0000
0000
0000
,  // measure 3
0000
0000
0000
0000
,  // measure 4
0000
0000
0000
0000
,  // measure 5
0001
0000
0010
0000
,  // measure 6
0100
0100
1000
0000
,  // measure 7
0001
0000
0100
0100
,  // measure 8
0010
0000
1000
0000
,  // measure 9
0001
0010
0001
0000
,  // measure 10
1000
0010
0100
0001
,  // measure 11
0010
0000
0100
0000
0000
1000
0000
0100
,  // measure 12
0000
0010
0001
1000
,  // measure 13
0010
0000
0000
0100
0000
0000
0001
0000
,  // measure 14
0010
0100
1000
0001
,  // measure 15
0100
0010
0000
0000
,  // measure 16
1001
2000
0010
0010
,  // measure 17
0001
0001
0100
3100
,  // measure 18
0010
0002
0010
0010
,  // measure 19
1000
1000
0100
0103
,  // measure 20
0010
0000
1000
0001
1000
0000
0100
0000
,  // measure 21
0100
1000
0100
0010
,  // measure 22
0000
0001
0000
0100
0000
0010
0000
0000
,  // measure 23
1000
0001
0100
0010
,  // measure 24
1000
0001
0010
0100
,  // measure 25
1000
0000
0000
0010
0000
0100
0000
0001
,  // measure 26
0000
0020
0000
0000
,  // measure 27
0030
0100
1000
0001
,  // measure 28
0000
0010
0010
0100
,  // measure 29
0000
1000
1000
0001
,  // measure 30
0100
0010
0100
0001
,  // measure 31
0010
0100
0010
0001
,  // measure 32
1000
0100
0010
0001
,  // measure 33
0100
0000
0010
0000
0000
0100
0000
0001
,  // measure 34
0000
0010
0100
1000
,  // measure 35
0100
0010
0001
1000
,  // measure 36
0010
0100
0001
1000
,  // measure 37
0100
0001
0100
1000
,  // measure 38
0010
0001
0010
1000
,  // measure 39
0010
0100
0000
0001
,  // measure 40
0010
1000
0000
0010
,  // measure 41
0001
1000
0010
0100
,  // measure 42
0001
1000
0100
0010
,  // measure 43
0001
1000
0010
0100
,  // measure 44
1000
0100
0010
1000
,  // measure 45
0000
0100
0000
0010
0000
0000
0001
0000
,  // measure 46
0010
0001
0100
0010
,  // measure 47
1000
0001
0010
0100
,  // measure 48
1000
0001
0010
1000
,  // measure 49
0010
0001
0100
1000
,  // measure 50
0100
0010
1000
0001
,  // measure 51
0100
1000
0010
0001
,  // measure 52
0010
0200
0000
1300
,  // measure 53
0100
0001
0010
1000
,  // measure 54
0010
0200
0000
0301
,  // measure 55
0100
0000
0010
0000
0000
1000
0000
0010
,  // measure 56
0000
0100
0001
1000
,  // measure 57
0100
0100
0010
0001
,  // measure 58
0001
1000
0000
0001
,  // measure 59
0010
1000
0100
0001
,  // measure 60
0100
0020
0000
1030
,  // measure 61
0010
0001
0100
1000
,  // measure 62
0100
0010
0000
0001
,  // measure 63
0001
0000
1000
0001
1000
0000
0010
0000
,  // measure 64
0010
0000
1000
0010
1000
0000
1000
0000
,  // measure 65
1000
0000
0001
1000
0001
0000
0010
0000
,  // measure 66
0010
0000
0001
0010
0001
0000
0010
0000
,  // measure 67
0100
0000
1000
0001
1000
0000
0010
0000
,  // measure 68
0100
0000
0001
1000
0001
0000
0010
0000
,  // measure 69
0100
0000
1000
0001
1000
0000
0010
0000
,  // measure 70
0100
0000
0001
1000
0001
0000
1000
0000
,  // measure 71
1000
0000
0001
1000
0001
0000
0100
0000
,  // measure 72
0100
0000
0001
0100
0001
0000
0001
0000
,  // measure 73
0001
0000
1000
0001
1000
0000
0100
0000
,  // measure 74
0100
0000
1000
0100
1000
0000
0001
0000
,  // measure 75
0010
0000
0010
0100
0010
0000
0100
0000
,  // measure 76
1000
0000
1000
0100
1000
0000
0001
0000
,  // measure 77
0100
0000
0100
0010
0100
0000
0010
0000
,  // measure 78
1000
0001
0100
0001
,  // measure 79
0100
0010
0100
0001
,  // measure 80
1000
0100
0100
1000
,  // measure 81
0010
0100
0010
0001
,  // measure 82
0010
0100
0001
1000
,  // measure 83
0100
0010
0100
0001
,  // measure 84
0100
1000
0001
0100
,  // measure 85
0010
0100
0010
1000
,  // measure 86
0100
0010
0000
0001
,  // measure 87
0100
0010
0100
1000
,  // measure 88
0100
0010
1000
0001
,  // measure 89
0010
0100
0010
1000
,  // measure 90
0010
0001
0100
0010
,  // measure 91
1000
0100
1000
0001
,  // measure 92
0010
0001
0100
0010
,  // measure 93
1000
0100
0010
0002
,  // measure 94
0000
2003
0000
3010
,  // measure 95
2000
0100
0100
0001
,  // measure 96
0001
0010
3010
0100
,  // measure 97
0002
0100
0100
1000
,  // measure 98
1000
0010
0013
0100
,  // measure 99
1000
0001
1000
0000
0010
0100
0010
0000
,  // measure 100
1000
0000
0010
0000
0100
0000
0000
0001
,  // measure 101
0000
0010
0000
0100
0000
0000
1000
0000
,  // measure 102
0001
0010
0100
1000
,  // measure 103
0001
0100
0010
1000
,  // measure 104
0000
0100
0000
0010
0000
0001
0000
0000
,  // measure 105
0100
1001
0110
1001
,  // measure 106
0010
1000
0100
1000
,  // measure 107
0001
0000
0000
0100
0000
0000
0010
0000
,  // measure 108
1000
0000
0000
0001
0000
0010
0000
0100
,  // measure 109
0000
0000
0000
1000
0000
0000
0001
0000
,  // measure 110
0000
0100
0000
0000
0010
0000
1000
0000
,  // measure 111
0001
0010
1000
0010
,  // measure 112
0001
0100
1000
0200
,  // measure 113
0010
0000
0010
0000
,  // measure 114
0310
0000
0100
0100
0000
0000
0000
0000
;

//---------------dance-single - ----------------
#NOTEDATA:;
#CHARTNAME:;
#STEPSTYPE:dance-single;
#DESCRIPTION:;
#CHARTSTYLE:;
#DIFFICULTY:Medium;
#METER:13;
#RADARVALUES:0.653872,0.722370,0.341797,0.230341,0.011146,616.000000,570.000000,46.000000,31.000000,0.000000,0.000000,0.000000,0.000000,0.000000,0.653872,0.722370,0.341797,0.230341,0.011146,616.000000,570.000000,46.000000,31.000000,0.000000,0.000000,0.000000,0.000000,0.000000;
#CREDIT:chrononical & BlindedVanguard573;
#NOTES:
0000
0000
0000
0000
,
0000
0000
0000
0000
,
0000
0000
0000
0000
,
0000
0000
0000
0000
,
0000
0000
0000
0000
,
0001
0100
0000
0010
0000
0100
0001
0000
,
1000
0001
1000
0000
0001
0010
0000
0100
,
0000
0010
0001
0000
1000
0001
1000
0100
,
1000
0010
0000
0100
0000
0010
1000
0000
,
0001
1000
0001
0000
1000
0100
0000
0010
,
0000
0100
1000
0010
0100
0001
1000
0100
,
0010
0000
0110
0000
0100
1000
0000
1001
,
0000
0001
0100
0010
1000
0001
0010
0000
,
0110
0000
0100
1000
0001
1000
0100
0010
,
0000
0010
0000
0001
0000
1000
0000
0001
,
0100
1000
0000
0000
0000
0000
0000
0000
,
0110
0000
0020
0000
0100
0130
0010
0000
,
1000
0001
0000
0001
0010
0010
0100
0000
,
1000
0000
0200
0000
0010
0310
0100
0000
,
1000
0001
0000
0001
0100
0100
0020
0000
,
2030
0000
3010
1000
0100
0000
0010
0000
,
0001
0000
0010
0100
1000
0000
0010
0100
,
0000
0001
0000
0100
0000
2000
0000
0000
,
3100
0000
0010
0000
0100
0100
0001
0000
,
1000
0000
0001
0000
0010
0010
0100
0000
,
1000
0000
0100
1000
0000
0010
0000
0100
,
0010
0002
0013
0100
,
0001
1000
0001
1002
,
0100
1003
0001
2000
,
0100
0000
3001
0000
1000
0000
0001
0100
,
0000
0010
0000
0100
0001
0100
0000
0001
,
0000
1000
0100
0010
0001
0000
1000
0000
,
1010
0000
1001
0000
1100
0000
1000
0010
,
0100
0000
1010
0000
1000
0001
0000
1001
,
0000
0001
0010
0100
1000
0000
0101
0000
,
1010
0000
0010
1000
0001
0000
0010
0001
,
0100
0000
0010
1000
0100
0000
1000
0100
,
0000
0011
0000
0001
1000
0000
0001
1000
,
0010
0000
1000
0001
0100
0000
0001
0010
,
0100
1000
0002
0000
0100
0000
0013
0000
,
0001
2000
0100
3010
,
1000
0000
0001
0100
0000
0010
0000
1000
,
0100
1000
0000
0010
0000
0100
0001
0010
,
0100
1000
1010
0101
,
1001
0000
0001
0010
0100
0000
1100
0000
,
1000
0010
0000
0101
0000
0001
1000
0100
,
0010
0000
0011
0000
0001
0000
0100
0010
,
1000
0000
0001
0010
0100
1000
0001
1000
,
0100
0010
0001
0100
0010
0000
1000
0100
,
0010
0000
0001
1000
0010
0000
1000
0001
,
0100
0000
0001
0010
0100
1000
0020
0000
,
1000
0100
0001
0130
,
0010
0000
1000
0001
0010
0000
0200
0000
,
0001
0010
1000
0310
,
0100
0000
1000
0001
0100
0000
0001
0100
,
0010
0000
1001
0000
0010
0100
0000
1001
,
0000
0001
1000
0010
0100
0000
0001
0000
,
0100
0010
0000
1000
0000
0100
0000
0000
,
1000
0100
0010
0002
,
0010
1000
0103
0001
,
0100
0000
0001
1000
0010
0000
2000
0000
,
0010
0000
0001
0000
3100
0000
1000
0100
,
0010
0001
0100
0000
0000
0000
0101
0000
,
1100
0000
1010
0000
0011
0000
0001
0010
,
0100
0000
1000
0100
1000
0000
1100
0000
,
0101
0000
0011
0000
1010
0000
1000
0010
,
0100
0001
1000
0000
1001
0000
0101
0000
,
0001
0100
0010
1000
0001
1000
0100
0000
,
1000
0100
0010
0001
1000
0001
0100
0000
,
0001
0100
0010
1000
0001
0000
1000
0100
,
0010
0000
0001
0010
0001
0000
0011
0000
,
1010
0000
1100
0000
0101
0000
0001
0100
,
0010
0000
1000
0010
1000
0000
1010
0000
,
0011
0000
0101
0000
1100
0000
1000
0100
,
0010
0001
1000
0000
1001
0000
0021
0000
,
0001
0100
2030
3002
,
0203
2300
3002
2003
,
3100
1000
0100
0010
0001
0000
1000
0001
,
1000
0000
0010
0100
0010
1000
0001
0100
,
0010
0000
0010
0100
0001
1000
0000
1000
,
0100
0000
0010
0000
1001
0000
1000
0010
,
0100
0000
0100
0010
1000
0100
0000
0100
,
0010
0001
1001
1000
,
0010
0100
0000
0010
0000
0001
0000
0001
,
0010
0100
0001
2000
,
0100
0000
3001
0000
1000
0001
0000
0100
,
0000
0010
0000
0100
0001
0010
0100
0000
,
1000
0100
0000
0010
0100
0001
0000
0100
,
0000
0010
0000
0001
1000
0000
0010
0000
,
1000
0100
0000
0010
1000
0010
0000
0001
,
0000
1000
0000
0010
0100
0001
1000
0000
,
0100
0010
0000
0100
0000
1000
0000
1000
,
0010
0100
1000
0100
,
0010
0100
0000
0001
0010
0100
0000
1000
,
0001
0000
0000
1000
0000
1000
0100
0000
0100
0010
0000
0010
,
0002
0000
0103
0100
0010
0000
1000
0001
,
0000
0001
0010
0010
0100
0000
1000
0000
,
0200
0000
0010
0310
0100
0000
1000
0001
,
0000
0001
0100
0100
0020
0000
2030
0000
,
3010
1000
0100
0000
0010
0001
0010
0001
,
1000
0010
0100
0000
0010
0100
0000
0001
,
0000
0100
0000
0100
1000
0000
0100
0000
,
0010
0000
0100
0100
0001
0000
1000
0000
,
0001
0000
0010
0010
0100
0000
1000
0000
,
0100
1000
0000
0010
0000
0100
0010
0000
,
0002
0013
0100
0001
,
1001
0000
0110
0000
0001
0010
0100
0000
,
1000
0010
0100
1000
0000
0100
0010
0000
,
1000
0100
0010
1000
0000
0010
0000
0001
,
0000
1000
0001
0100
0000
0100
0010
0000
,
0010
1000
0000
1000
0001
0000
0021
0000
,
0230
0000
2300
0000
3001
0100
0100
0010
,
1000
1000
0001
0010
0100
0010
0002
0000
,
0010
0000
0010
0000
,
0013
0000
0001
1000
0000
0000
0000
0000
;

//---------------dance-single - ----------------
#NOTEDATA:;
#CHARTNAME:;
#STEPSTYPE:dance-single;
#DESCRIPTION:;
#CHARTSTYLE:;
#DIFFICULTY:Hard;
#METER:16;
#RADARVALUES:0.821585,1.019817,0.178329,0.304645,0.222911,774.000000,750.000000,24.000000,41.000000,10.000000,0.000000,0.000000,0.000000,0.000000,0.821585,1.019817,0.178329,0.304645,0.222911,774.000000,750.000000,24.000000,41.000000,10.000000,0.000000,0.000000,0.000000,0.000000;
#CREDIT:chrononical & BlindedVanguard573;
#NOTES:
0000
0000
0000
0000
,
0000
0000
0000
0000
,
0000
0000
0000
0000
,
0000
0000
0000
0000
,
0000
0000
0000
0000
,
0002
0100
0000
1003
0000
0001
0100
0000
,
0001
0001
0010
0000
0200
1000
0000
0310
,
0000
0100
1000
0000
0010
0010
0100
0001
,
2000
0100
0000
3001
0000
1000
0100
0000
,
1000
1000
0010
0000
0200
0001
0000
0310
,
0000
0100
0001
0010
0100
1000
0001
1000
,
0100
00M0
0101
0000
1000
0100
00M0
0101
,
0000
0001
0010
0100
1000
0001
0010
0M00
,
1010
0000
1000
0001
0010
0100
1000
0010
,
0100
0010
0100
0001
1000
0100
0010
0100
,
0001
1000
0000
0000
0000
0000
0000
0000
,
1001
0000
1000
0000
0100
0100
0010
0001
,
1000
0000
0010
0000
0000
0000
0010
0000
0100
0000
0100
0000
0001
0100
0001
0000
,
1000
0000
0001
0000
0100
0100
0010
1000
,
0001
0010
0000
0010
0100
0100
1000
0001
,
1000
0000
0000
0000
0001
1000
0001
1000
0010
0000
0000
0000
1000
0000
0010
0000
,
0100
0001
1000
0200
0010
0000
1300
0001
,
0100
0010
0000
0210
0000
1000
0000
0310
,
0100
0000
0001
1000
0100
0100
1000
0100
,
0010
0000
0000
0000
1100
0000
0000
0000
0100
0000
0100
0000
1000
0001
1000
0000
,
0001
0000
1000
0010
0000
0100
0000
0010
,
0100
0010
0002
0000
0013
1000
0001
0000
,
1001
0000
0001
1000
0100
0010
0001
0002
,
0100
0000
1003
0001
1000
0000
0100
0200
,
0010
0000
1300
0001
1000
0000
0001
0100
,
0000
1000
0000
0100
0010
0100
0000
0001
,
0000
1000
0100
0010
0001
0000
0100
0010
,
1000
0000
0001
1000
0001
1000
0001
0020
,
0100
0000
0031
0000
0020
0100
0000
0031
,
0000
0000
1000
0000
0001
0100
0001
0000
1000
0000
0000
0000
0001
0000
0100
0000
,
0010
0000
0000
0000
1000
0001
1000
0000
0100
0000
0000
0000
1000
0001
1000
0000
,
0010
0000
0001
0010
1000
0000
0200
1000
,
0000
0310
0000
0100
1000
1000
0001
0001
,
0010
0000
0100
0100
1000
0000
0001
0100
,
0010
0000
1000
0000
0100
1000
0100
0000
1000
0000
0000
0000
0100
00M0
0100
0000
,
0001
0000
0000
0000
0100
00M0
0100
0000
1000
0000
0000
0000
0001
1000
0001
0000
,
0100
0000
0001
0000
0010
0M00
0010
0000
1000
0000
0000
0000
0010
0M00
0010
0000
,
0001
0000
0000
0000
0100
0000
0000
0000
1001
0000
0000
0000
0001
0100
0002
0000
,
0010
0000
0000
0000
1003
0100
2000
0000
0010
0000
0000
0000
3001
1000
0001
0000
,
0100
0001
1000
0200
0010
0000
1300
0001
,
0100
0010
0000
0100
0000
0001
1000
1000
,
0100
0000
1000
0010
0100
0000
0001
0010
,
0100
0000
1000
0001
0010
0000
1000
0010
,
0001
0000
0010
0000
0001
0100
0001
0000
1000
0000
0000
0000
0001
0000
0002
0000
,
0010
0000
0000
0000
1003
0100
1000
0000
0001
0000
0000
0000
1000
0000
2000
0000
,
0010
0000
3001
0100
0010
0100
1000
0100
,
1000
0100
0010
0100
0010
0100
0001
0100
,
0001
0100
0001
0010
0100
0010
1000
0010
,
1000
0010
0100
0010
0100
0010
0001
0010
,
0001
0010
0001
0100
0010
1000
0001
1000
,
0010
0000
M012
1003
0001
0010
0000
201M
,
0000
3001
0100
0010
1001
0000
1000
0000
,
0100
0010
0000
0010
0001
0100
0000
0100
,
0001
0100
0010
1000
0001
0010
0100
1000
,
0100
1000
0100
0010
0100
0010
0001
0010
,
0001
1000
0001
0100
0010
0000
0110
0000
,
0100
0000
0000
0001
0000
0000
1000
0000
0000
0001
0000
0000
0010
0000
0000
0000
0000
0000
0001
0000
0010
0000
0001
0000
,
1000
0100
1000
0010
0000
0000
0000
0000
0000
1010
0000
0000
,
1000
0010
0100
0010
0001
1000
0100
0010
,
0100
0000
0001
0000
1000
0001
1000
0000
0001
0000
0010
0000
0011
0000
0000
0000
,
0001
0010
0100
0010
1000
0001
0100
0010
,
0100
0000
1000
0000
0001
1000
0001
0000
1000
0000
0010
0000
1010
0000
0000
0000
,
1000
0001
1000
0010
1000
0100
0010
0001
,
0010
0100
0001
0100
0010
0100
1000
0100
,
0010
0001
1000
0001
0100
0010
1000
0010
,
0100
0000
0001
0000
0100
0001
0100
0001
0100
0000
0010
0000
0110
0000
0000
0000
,
0100
0010
0100
1000
0001
0010
0100
0001
,
0010
0000
0100
0000
1000
0001
1000
0000
0100
0000
0010
0000
0110
0000
0000
0000
,
0100
0010
0100
0001
1000
0010
0100
1000
,
0010
0000
0100
0000
0001
1000
0001
0000
0100
0000
0010
0000
0110
0000
0000
0000
,
0100
0010
1000
0001
1000
0100
0010
0001
,
1000
0010
0100
0001
1000
0001
0010
0100
,
1000
0000
0100
0000
0010
0000
0001
0000
1000
0000
0001
0000
0010
0001
0010
0000
,
0100
1000
0001
1000
0010
0100
0001
0100
,
0110
0000
1000
0100
0010
0100
00M0
0100
,
0001
0000
0000
0000
1000
0001
1000
0001
0010
0000
0000
0000
1002
0000
0000
0000
,
0103
0000
0001
0010
0100
0001
0000
0100
,
1000
0000
0010
0010
1000
0001
1000
0000
,
0100
0100
0000
0010
0000
1000
0000
1000
,
0010
0000
0000
0000
0001
1000
0001
1000
0100
0000
0000
0000
0020
0000
0000
0000
,
0130
0000
0010
0001
0100
0010
0000
0100
,
0001
0000
1000
0001
0010
0100
2000
0000
,
0010
3010
0000
1000
0100
0002
0000
0100
,
0103
0000
0000
0000
0010
0001
0010
0001
1000
0000
0001
0000
2000
0000
0000
0000
,
0100
3100
0000
1000
0010
0002
0000
0010
,
0013
0000
0100
0000
0001
0000
0010
0100
0010
0000
0100
0000
1000
0000
0000
0000
,
0100
0100
0000
0001
0000
0100
0000
0100
,
0010
0000
1000
1000
0010
0000
0001
0000
,
0100
0100
0010
0100
0002
0010
0000
2003
,
0010
0000
0000
0000
0000
0000
0000
0000
0000
0000
0000
0000
3001
0000
0000
0000
0010
0000
0000
0000
0001
0000
0000
0000
1000
0000
0000
0000
0100
0000
0000
0000
1000
0000
0000
0000
0001
0000
0000
1000
0000
0000
0001
0000
0000
0000
0000
0000
,
1000
2000
0010
0000
3100
0001
0100
0010
,
0000
0000
0011
0000
0000
0000
0001
0000
1000
0001
1000
0001
0100
0000
0000
0000
,
0001
0100
0010
0000
0001
0010
0100
0001
,
1000
0100
0010
0000
1000
0010
0100
1000
,
0001
0100
0001
0100
0010
0000
0000
0000
1000
0000
0001
0000
1000
0000
0001
0000
,
1000
0200
0010
0000
1300
0010
0001
0010
,
0000
0100
0000
0001
0010
0001
1001
0000
,
1000
0010
0002
0000
2003
0000
3200
0000
,
0301
0000
0010
0000
0100
0000
0010
0000
0001
1000
0001
1000
0100
0000
0000
0000
,
2000
0010
0000
3001
0000
1000
0100
0010
,
0001
0100
0010
1000
1001
0000
1001
0000
,
0001
0010
0001
0000
1000
0010
1000
0000
0001
0000
0100
0000
0100
0000
0001
0000
,
1000
0100
0010
2000
0000
3010
0100
1000
,
0001
0100
0010
0002
0000
0023
0000
2030
,
0000
3010
2000
0100
0000
3002
0100
0000
,
2003
0000
0000
0010
0000
0000
0000
0000
0000
3001
0000
0000
1000
0000
0000
0001
0000
0000
0010
0000
0100
0000
0010
0000
,
0100
0000
0000
0000
1000
0000
0000
0000
0100
0000
0000
0000
1000
0000
0000
0000
0001
0000
0000
0000
1000
0000
0000
0000
0001
0000
0000
0100
0000
0000
0010
0000
0000
0000
0000
0000
0100
0000
0000
0000
0000
0000
0001
0000
0000
0010
0000
0000
,
0100
0000
0010
0000
0001
1000
0010
0000
1000
0001
0010
0000
0100
1000
0002
0000
,
0010
0000
0010
0000
,
0013
0000
0001
0100
0000
0000
0000
0000
;
