#VERSION:0.83;
#TITLE:THINGS WILL GET MUCH WORSE FROM HERE;
#SUBTITLE:;
#ARTIST:Kill Bill x Rav x Hatsune Miku;
#TITLETRANSLIT:;
#SUBTITLETRANSLIT:;
#ARTISTTRANSLIT:;
#GENRE:;
#ORIGIN:;
#CREDIT:HellKiteChaos+MrTwinkles;
#BANNER:THINGS WILL GET MUCH WORSE FROM HERE-banner.avi;
#BACKGROUND:THINGS WILL GET MUCH WORSE FROM HERE-bg.png;
#PREVIEWVID:;
#JACKET:THINGS WILL GET MUCH WORSE FROM HERE-jacket.png;
#CDIMAGE:;
#DISCIMAGE:;
#LYRICSPATH:;
#CDTITLE:;
#MUSIC:THINGS WILL GET MUCH WORSE FROM HERE.ogg;
#OFFSET:-0.231000;
#SAMPLESTART:58.301998;
#SAMPLELENGTH:20.570999;
#SELECTABLE:YES;
#BPMS:0.000=140.000;
#STOPS:;
#DELAYS:;
#WARPS:254.500=8.000;
#TIMESIGNATURES:0.000=4=4;
#TICKCOUNTS:0.000=4;
#COMBOS:0.000=1;
#SPEEDS:0.000=1.000=0.000=0;
#SCROLLS:0.000=1.000,
84.000=0.000,
87.000=0.100,
87.125=0.200,
87.250=0.300,
87.375=0.400,
87.500=0.500,
87.625=0.700,
87.750=0.800,
87.875=0.900,
88.000=1.000,
116.000=0.000,
119.000=0.100,
119.250=0.200,
119.500=0.400,
119.625=0.500,
119.688=0.600,
119.750=0.700,
119.812=0.800,
119.875=0.900,
119.938=1.000,
148.000=0.500,
184.000=1.000,
232.000=0.000,
247.250=0.250,
247.500=0.500,
247.750=0.750,
248.000=1.000,
249.500=0.000,
250.500=1.000,
262.500=0.000,
263.500=0.200,
264.000=1.000,
322.000=0.000,
323.500=1.000,
325.500=0.000,
326.500=1.000,
327.250=0.000,
327.750=1.000;
#FAKES:;
#LABELS:0.000=Song Start;
#BGCHANGES:0.453=THINGS WILL GET MUCH WORSE FROM HERE-bga.avi=1.000=1=0=0=StretchNoLoop==CrossFade==,
99999=-nosongbg-=1.000=0=0=0 // don't automatically add -songbackground-;
#KEYSOUNDS:;
#ATTACKS:;

//---------------dance-single - XMOD FS+ BR XO DS----------------
#NOTEDATA:;
#CHARTNAME:;
#STEPSTYPE:dance-single;
#DESCRIPTION:XMOD FS+ BR XO DS;
#CHARTSTYLE:;
#DIFFICULTY:Challenge;
#METER:16;
#RADARVALUES:0.600662,0.972154,0.093734,0.254421,0.719742,628.000000,614.000000,14.000000,38.000000,36.000000,0.000000,0.000000,0.000000,4.000000,0.600662,0.972154,0.093734,0.254421,0.719742,628.000000,614.000000,14.000000,38.000000,36.000000,0.000000,0.000000,0.000000,4.000000;
#CREDIT:HellKiteChaos;
#NOTES:
0000
0000
0000
0000
,
0000
0000
0000
0000
,
0000
0000
0000
0000
,
0000
0000
0000
0000
,
0000
0000
0000
0000
,
0000
0000
0000
0000
,
1000
0000
0001
1000
0100
0000
0010
0001
0100
00M0
0100
0000
1000
0001
0000
0000
,
1000
0000
0010
0000
1000
0000
0001
0010
0100
0000
1000
0001
1000
0000
0010
0100
,
0002
0000
0000
0000
0100
0000
0000
0000
1003
0000
0000
0000
0001
0000
0000
0000
0001
0000
0000
0000
1000
0000
0000
0000
2000
0000
0000
0000
0100
0000
0000
0000
3001
0000
0000
0000
1000
0000
0000
0000
0000
0000
0100
0000
0000
0010
0000
0000
,
0001
0000
0000
0000
0000
0000
0000
0000
0000
0000
0000
0000
0000
0000
0000
0000
0000
0000
0000
0000
0000
0000
0000
0000
0100
0000
0000
0000
0000
0000
00M0
0000
0000
0000
0000
0000
0100
0000
0000
0000
0000
0000
0000
0000
0000
0000
0000
0000
1000
0000
0000
0000
0000
0000
0000
0000
0000
0000
0000
0000
0000
0000
0000
0000
0000
0000
0000
0000
0000
0000
0000
0000
0001
0000
0000
0000
0000
0000
0000
0000
0000
0000
0000
0000
0100
0000
0000
0000
0000
0000
0000
0000
0000
0000
0000
0000
0010
0000
0000
0000
0000
0000
0000
0000
000M
0000
0000
0000
0000
0000
0000
0000
0010
0000
0000
0000
0000
0000
0000
0000
0000
0000
0000
0000
0000
0000
0000
0000
0001
0000
0000
0000
0000
0000
0000
0000
0000
0000
0000
0000
0000
0000
0000
0000
1000
0000
0000
0000
0000
0000
0000
0000
0000
0000
0000
0000
0000
0000
0000
0000
0100
0000
0000
0000
0000
0000
0000
0000
0000
0000
0000
0000
0000
0000
0000
0000
0010
0000
0000
0000
0000
0000
0000
0000
0000
0000
0000
0000
0000
0000
0000
0000
,
0001
0000
0100
00M0
0100
0000
1000
0000
1000
0000
1000
0000
0001
0000
0010
0M00
0010
0000
1000
0000
1000
0000
1000
0000
,
0001
0000
0000
0000
0010
0000
0M00
0000
0010
0000
0000
0000
0100
0000
0000
0000
0000
0000
0001
0000
0000
1000
0000
0000
0100
0000
0000
0000
0000
0000
0010
0000
0000
0000
0000
0000
0100
0000
0000
0000
0010
0000
0000
0000
0001
0000
0000
0000
,
1100
0000
0000
0010
0000
0000
0100
0000
0000
0001
0000
0000
1010
0000
0000
0100
0000
0000
1000
0000
0001
0000
1000
0000
,
0202
0000
0000
0303
,
0002
0000
0000
0000
0000
0000
0000
0000
0000
1003
0000
0000
0101
0000
0000
0000
0000
0000
0010
0000
0000
0000
0000
0000
0001
0000
0000
0000
0100
0000
0000
0000
0010
0000
0000
0000
1000
0000
0000
0000
0000
0000
0001
0000
0000
0000
0000
0000
,
1000
0000
0000
0000
0100
0000
0000
0000
0010
0000
0000
0000
0001
0000
0000
0000
0001
0000
0000
0000
0001
0000
0000
0000
1000
0000
0000
0000
0000
0000
0010
0000
0000
0100
0000
0000
0000
0000
0000
0000
0000
0000
0001
0000
0000
0000
0000
0000
,
2000
0000
0000
0000
0000
0000
0000
0000
0000
3001
0000
0000
1010
0000
0000
0000
0000
0000
0100
0000
0000
0000
0000
0000
1000
0000
0000
0000
0010
0000
0000
0000
0100
0000
0000
0000
0001
0000
0000
0000
0000
0000
1000
0000
0000
0000
0000
0000
,
0001
0000
0010
0000
0100
0000
1000
0000
1000
0000
1000
0000
0001
0000
0100
0000
0010
0000
0000
0000
0000
1000
0000
0000
,
0002
0000
0000
0000
0000
0000
0000
0000
0000
1003
0000
0000
0101
0000
0000
0000
0000
0000
0010
0000
0000
0000
0000
0000
0001
0000
0000
0000
0100
0000
0000
0000
0010
0000
0000
0000
1000
0000
0000
0000
0100
0000
0000
0000
0010
0000
0000
0000
,
0001
0000
0100
0000
0010
0000
00M1
0000
0100
0000
0010
0000
1000
0000
0000
0001
0000
0000
1000
0000
0000
0000
0000
0000
,
0002
0000
0000
1003
0011
0000
0000
1000
0001
0010
0100
0000
1000
0000
0001
0000
,
1000
0000
0000
0000
,
0021
0000
0000
0230
0000
0000
0301
0000
1020
0000
0000
0230
0000
0000
1300
0000
,
0021
0000
0000
0230
0000
0000
1300
0000
0100
0000
0000
0001
1000
0000
0000
0000
,
0001
0000
0000
0010
0000
0000
0M00
0000
0000
0020
0000
0000
0000
0000
0000
0030
0000
0000
1000
0000
0000
0100
0000
0000
00M0
0000
0000
0200
0000
0000
0000
0000
0000
0300
0000
0000
0001
0000
0000
0000
0100
0000
0000
0000
0001
0000
0000
0000
,
0010
0001
1000
0000
0010
0100
0001
0000
1000
0100
0000
0000
,
0020
0000
0000
0032
0000
0000
2003
0000
0000
3020
0000
0000
0230
0000
0000
0302
,
0000
0000
0000
0003
1000
0000
0000
0000
0100
0000
0000
0000
0010
0000
0000
0000
0001
0000
0000
0000
1000
0000
0000
0000
0010
0000
0000
0000
0000
0000
0000
0000
0100
0000
0000
0000
0001
0000
0000
0000
0000
0000
0000
0000
0000
0000
0000
0000
,
1000
0000
0000
0000
0100
0000
0000
0000
0000
1000
0000
0000
0000
0000
0000
0000
0001
0000
0000
0000
0100
0000
0000
0000
0010
0000
0000
0000
0000
0000
0000
0000
1000
0000
0000
0000
0001
0000
0000
0000
0000
0000
0000
0000
0000
0000
0000
0000
,
0000
0000
0000
0000
,
2100
0000
0000
3010
0000
0000
1000
0000
0102
0000
0000
0013
0000
0000
0001
0000
,
1000
0000
0001
0100
00M0
0100
1000
0000
0010
0000
0000
0100
0001
0000
0000
0000
,
1000
0000
0100
00M0
0100
0000
0001
0000
0100
00M0
0100
0000
1000
0000
0010
0000
0100
0000
0001
0000
0010
0000
0100
0000
,
1000
0000
0000
0000
1000
0000
0000
0000
0001
0000
0000
0000
0100
0000
0000
0000
0010
0000
0000
0000
1000
0000
0000
0000
0001
0000
0000
0000
0000
0000
0010
0000
0000
0100
0000
0000
0000
0000
0000
0000
0000
0000
0000
0000
0000
0000
0000
0000
,
2000
0000
0000
0000
0000
0000
3000
0000
0000
0100
0000
0000
00M0
0000
0100
0000
0000
0000
0002
0000
0000
0000
0000
0000
0000
0000
0000
0000
0000
0000
0013
0000
0000
0000
0000
0000
0100
0000
0000
0000
0000
0000
0010
0000
0000
0000
0000
0000
,
0002
0000
0000
0000
0000
0000
0000
0000
0000
0103
0000
0000
00M0
0000
0100
0000
0000
0000
2000
0000
0000
0000
0000
0000
0000
0000
0000
0000
0000
0000
3010
0000
0000
0000
0000
0000
0100
0000
0000
0000
0000
0000
0010
0000
0000
0000
0000
0000
,
1000
0000
0000
0000
0100
0000
00M0
0000
0100
0000
0000
0000
0001
0000
0000
0000
0010
0000
0M00
0000
0010
0000
0000
0000
1000
0000
0000
0000
0100
0000
00M0
0000
0100
0000
0000
0000
0001
0000
0000
0000
0000
0000
0010
0000
0000
0100
0000
0000
,
1000
0000
0000
0000
,
0001
0000
0000
0100
00M0
0000
0100
0000
0000
1000
0000
0000
0001
0000
0000
1000
0000
0000
0000
0000
0000
0000
0000
0000
0010
0000
0000
0000
0000
0000
0000
0000
,
1000
0000
0000
0100
0000
0000
0010
0000
0000
0001
0000
0000
1000
0000
0000
0000
0000
0000
0000
0000
0001
0000
0000
0000
0010
0000
0000
0000
0001
0000
0000
0000
,
1000
0000
0000
0100
00M0
0000
0100
0000
0000
0001
0000
0000
1000
0000
0000
0001
0000
0000
0000
0000
0000
0000
0000
0000
0010
0000
0000
0000
0000
0000
0000
0000
,
0001
0000
0000
0100
0000
0000
0010
0000
0000
1000
0000
0000
0001
0000
0000
0000
0000
0000
0000
0000
1000
0000
0000
0000
0010
0000
0000
0000
1000
0000
0000
0000
,
0001
0000
0000
0100
00M0
0000
0100
0000
0000
1000
0000
0000
0001
0000
0000
1000
0000
0000
0000
0000
0000
0000
0000
0000
0010
0000
0000
0000
0000
0000
0000
0000
,
1000
0000
0000
0100
0000
0000
0010
0000
0000
0001
0000
0000
1000
0000
0000
0000
0000
0000
0000
0000
0001
0000
0000
0000
0010
0000
0000
0000
0001
0000
0000
0000
,
1000
0100
0010
0100
1000
0010
0100
0010
,
0100
0001
0010
0100
1000
0001
0100
0010
,
1000
0000
0001
0100
0000
1M00
0100
0000
0010
0000
1000
0000
0010
0100
0010
0000
,
0001
0100
0010
0001
0010
0100
0001
0010
,
0001
0000
1000
0100
0000
0M01
0100
0000
0010
0000
0001
0000
0010
0100
0010
0000
,
1000
0100
0010
1000
0010
0100
1000
0010
,
1000
0000
0001
0010
0000
10M0
0010
0000
0100
0000
1000
0000
0100
0010
0100
0000
,
0001
0010
0100
0001
0100
0010
0001
0100
,
1000
0100
0010
0100
0001
0010
0100
0010
,
0100
0000
1000
0000
0010
0000
0100
0000
0001
0000
0000
1000
0100
00M0
0100
0000
,
0001
0001
1000
1000
0010
0100
0002
0003
,
0010
0100
1000
0001
0100
0010
1000
1000
,
0100
0100
0010
0100
1000
0001
0100
0010
,
0100
0100
0001
0001
1000
0100
0010
0110
,
1001
0000
0000
0000
,
0000
0000
0000
0000
,
0000
0000
0000
0000
,
0000
0000
0000
0000
,
1000
0000
0000
0001
0100
0000
0100
0000
0000
0000
0000
0000
0010
0000
0010
0000
,
0000
0000
0000
0000
0000
0000
1000
0000
0000
1000
0000
0000
0000
0000
0000
M000
0M00
00M0
000M
0000
0000
0000
0000
0000
,
0000
0000
0000
0000
,
0000
0000
0000
0000
,
1000
0000
0001
0000
0100
0000
0010
0000
1000
0000
0001
0000
1000
0000
0100
0000
0010
0000
0001
0000
1000
0000
0001
0000
0100
00M0
0100
0000
1000
0000
0100
0000
,
1000
0000
0001
0000
0100
0000
0010
0000
0100
0000
0001
0000
1000
0000
0100
0000
0010
0000
0100
0000
1000
0000
0001
0000
0100
00M0
0100
0000
1000
0000
0100
0000
,
1000
0000
0001
0000
0010
0000
0001
0000
1000
0000
0100
0000
0010
0000
0001
0000
1000
0000
0010
0000
1000
0000
0001
0000
0100
00M0
0100
0000
1000
0000
0001
0000
,
1000
0000
0010
0000
0100
0000
0001
0000
0010
0M00
0010
0000
1000
0000
0100
0000
1000
0000
0001
0000
0100
0000
0001
0000
0100
00M0
0100
0000
1000
0000
0001
0000
,
1000
0000
0100
00M0
0100
0000
0001
0000
1000
0000
0100
00M0
0100
0000
0001
0000
1000
0000
0100
00M0
0100
0000
0001
0000
1000
0000
0100
00M0
0100
0000
0001
0000
,
1000
0010
0100
0001
0010
0100
1000
0001
0100
0010
0100
0001
1000
0100
0010
0001
,
1000
0000
0000
0001
0000
0000
0100
0000
,
0010
0000
0000
1000
0100
0000
0000
0100
,
0010
0000
0000
0001
0000
0000
0001
0000
,
1000
0000
0000
1000
0000
0000
1000
0000
,
0010
0000
0000
0010
0000
0000
0100
0000
,
0100
0000
0000
0001
0000
0000
0001
0000
,
1000
0100
0M01
1000
0100
0M01
1000
0100
,
1000
0100
0M01
1000
0002
0000
0003
0000
,
1000
0010
0100
0001
0000
0000
0000
0000
,
1000
0100
0010
0001
0000
0000
1000
0000
,
0100
1000
0001
0100
0010
1000
0100
0010
,
0001
1000
0010
0100
0010
1000
0001
0010
,
0100
1000
0001
0100
0010
0100
0001
0010
,
0100
1000
0001
0100
0010
1000
0100
0010
,
0001
0100
0010
0100
0001
0010
0100
0010
,
0002
0203
0320
2030
3002
0023
0230
2300
,
3000
0000
0000
0000
;
