#TITLE:Suki Suki Daisuki;
#SUBTITLE:;
#ARTIST:Jun Togawa;
#TITLETRANSLIT:;
#SUBTITLETRANSLIT:;
#ARTISTTRANSLIT:;
#GENRE:;
#CREDIT:Evergreen;
#MUSIC:Suki-Suki-Daisuki-Edit.ogg;
#BANNER:ban.png;
#BACKGROUND:bg.png;
#CDTITLE:;
#SAMPLESTART:0.000;
#SAMPLELENGTH:0.000;
#SELECTABLE:YES;
#OFFSET:0.812;
#BPMS:0.000=140.386;
#STOPS:;
#BGCHANGES:;
#FGCHANGES:;

//--------------- dance-single - ----------------
#NOTES:
     dance-single:
     :
     Challenge:
     13:
     0,0,0,0,0:
0000
0000
0000
0000
,
0000
0000
0000
0000
,
0000
0000
0000
0000
,
0000
0000
0000
0000
,
0000
0000
0000
0000
,
0000
0000
0000
0000
0000
1000
0001
1000
,
0100
0010
0002
0010
1003
0000
0010
0100
,
0001
0001
1000
0000
0001
0020
0100
0031
,
1000
0010
0100
0001
0010
0000
0100
1000
,
0000
0001
0100
0000
0000
0001
1000
0001
,
0100
0010
2000
0010
3001
0000
0010
0100
,
1000
1000
0001
0000
1000
0020
0100
1030
,
0001
0010
0100
1000
0010
0000
0100
0001
,
0000
1000
0100
0000
1000
1001
0000
0000
,
0001
0000
0100
0000
0010
1000
0010
0100
,
0000
0001
0010
0100
1000
0100
0010
0001
,
1000
0100
1000
0000
0001
0100
0001
2000
,
0010
0000
0100
0000
3001
0100
0010
0100
,
0001
0000
0010
0000
0100
1000
0100
0010
,
0000
0001
0100
0010
1000
0010
0100
0001
,
1000
0000
0100
1000
0000
0001
0100
0010
,
1000
0000
0001
0000
0100
0000
0001
0000
0010
0100
0010
0000
0001
1000
0001
0000
,
1000
0100
0010
0000
0002
0000
0103
0010
,
0100
0001
1000
0001
0000
1000
0010
0100
,
0002
0010
2003
0010
,
3001
0010
0100
1000
0001
0000
1000
0001
,
1000
0010
0100
0000
0001
0000
1000
0100
,
0010
0001
0010
0100
0000
1000
0010
0100
,
0001
1000
0001
0000
1000
1000
0010
0100
,
0001
0010
0001
0000
1000
0010
1000
0000
,
0001
0010
0100
1000
0001
0100
0010
1000
0001
0010
0100
1000
0001
0100
0010
1000
,
0001
0000
0010
0001
0010
0000
0100
0000
1000
0000
0010
1000
0010
0000
1000
0000
,
0010
0000
0100
0010
0100
0000
0001
0000
1000
0000
0100
0000
0010
0000
0001
0000
,
1000
0000
0001
0100
0001
0000
1000
0000
0001
0000
1000
0100
1000
0000
0001
0000
,
0010
0001
0100
0010
0100
0100
0001
1000
,
0010
0000
1000
0100
1000
0000
0001
0000
0010
0000
0001
0100
0001
0000
1000
0000
,
0010
0100
0001
0010
0100
0100
1000
0001
,
1000
0000
0001
0010
0001
0000
1000
0000
0001
0000
1000
0010
1000
0000
0001
0000
,
0010
0100
0010
0100
1000
0001
1000
0001
,
0010
0001
0010
0001
2000
0000
3010
0100
,
0001
1000
0100
0010
0000
0001
1000
0000
,
0010
1000
0010
1000
0002
0000
0013
0100
,
1000
0001
0100
0010
0000
1000
0001
0000
,
0010
0100
0010
0100
2000
0000
3001
0100
,
0010
0100
0001
1000
0000
0001
1000
0001
,
0020
0000
0130
1000
0020
0000
0130
0001
,
1000
0100
0010
0001
1000
0010
0200
0000
,
0000
0000
0000
0000
0000
0301
1000
0001
,
0100
0010
2000
0010
3001
0000
0010
0100
,
1000
1000
0001
0000
1000
0020
0100
1030
,
0001
0010
0100
1000
0010
0000
0100
0001
,
0000
1000
0100
0000
0000
1000
0001
1000
,
0100
0010
0002
0010
1003
0000
0010
0100
,
0001
0001
1000
0000
0001
0020
0100
0031
,
1000
0010
0100
0001
0010
0000
0100
1000
,
0000
0001
0100
0000
0001
1001
0000
0000
,
0001
1000
0010
0100
0001
0000
0000
0000
;
