#VERSION:0.83;
#TITLE:SuddeNDeath;
#SUBTITLE:;
#ARTIST:xi vs. モリモリあつし;
#TITLETRANSLIT:;
#SUBTITLETRANSLIT:;
#ARTISTTRANSLIT:xi vs. Atsushi Morimori;
#GENRE:;
#CREDIT:Braeden, Evergreen;
#MUSIC:SuddeNDeath.ogg;
#BANNER:ban.png;
#JACKET:jacket.png;
#BACKGROUND:bg.png;
#CDTITLE:;
#SAMPLESTART:0.000;
#SAMPLELENGTH:0.000;
#SELECTABLE:YES;
#OFFSET:-0.139;
#BPMS:0.000=236.000
,45.000=118.000
,57.000=236.000
,185.000=118.000
,207.000=236.000
,311.000=118.000
,315.000=236.000
;
#STOPS:44.000=1.780
,197.000=1.017
;
#BGCHANGES:;
#FGCHANGES:;

//--------------- dance-single - ----------------
#NOTEDATA:;
#STEPSTYPE:dance-single;
#DESCRIPTION:;
#DIFFICULTY:Beginner;
#METER:9;
#RADARVALUES:0,0,0,0,0;
#CREDIT:Evergreen;
#NOTES:
0000
0000
0000
0000
,
1000
0000
0000
0000
,
0010
0000
0100
0001
,
0010
0000
0000
0000
,
0100
0000
1000
0001
,
0100
0000
0001
1000
,
0001
0000
0010
0100
,
0010
0000
0001
0000
,
1000
0000
0000
0010
0000
0000
0000
0100
,
0000
0001
1000
0002
,
0000
0023
0000
0130
,
1000
0001
0100
0001
,
0010
0100
1000
0000
0100
0000
1000
0000
,
0010
0100
0001
0000
1000
0000
0001
0000
,
0010
0100
1000
0000
0000
0001
0000
0000
,
1000
0010
0100
0001
,
1000
0100
0010
0001
,
0000
0100
0010
1000
,
0000
0001
0100
0001
,
0000
1000
0100
0010
,
0001
2000
3010
0100
,
0000
0001
0000
0010
0000
0100
0000
0000
,
2000
0000
3010
0000
0000
0100
0000
0000
,
0010
1000
0000
0001
,
0010
0001
0000
1000
,
0000
0100
0010
0100
,
0000
1000
0000
0001
,
0000
0100
0010
0100
,
0000
0001
0000
0010
,
0000
0100
1000
0100
,
0000
1000
0000
0010
,
0000
0100
0001
1000
,
0001
1000
0100
0010
,
0000
0100
0010
0001
,
1000
0001
0100
0010
,
0000
0100
0010
1000
,
0001
0010
0100
1000
,
0000
0010
0100
0001
,
0000
0010
0100
1000
,
0100
0010
0001
1000
,
0010
0000
0100
0000
0000
0001
0000
0000
,
1000
0000
0000
0100
0000
0000
0010
0000
,
0001
0020
0000
0000
,
0000
0130
1000
0001
,
0100
0000
0010
0000
0000
1000
0000
0000
,
0001
0000
0000
0010
0000
0000
0100
0000
,
1000
0200
0000
0000
,
0000
0310
0000
0001
,
1000
0020
0000
0000
,
0000
1030
0002
0013
,
0100
0000
1000
0000
0001
0100
0001
0000
,
1000
0000
0010
0000
0100
0001
1000
0000
,
0100
0010
0000
0001
,
1000
0001
0010
0002
,
0000
2003
0000
3010
,
0100
0010
2000
0000
,
3001
0010
0001
1000
,
0010
0100
0000
0001
,
0100
0001
1000
0010
,
0100
0001
1000
0000
,
0100
0010
0100
1000
,
0001
0100
0001
1000
,
0000
0010
0000
0000
0100
0000
0001
0000
,
1000
0100
1000
0002
,
0000
0000
0000
2003
,
0000
0000
0000
0000
0000
3000
0001
0000
,
0000
0000
0000
0010
,
0000
0100
1000
0010
,
0000
0000
0000
0100
,
0001
1000
0100
1000
,
0000
0010
0000
0000
0100
0000
0001
0000
,
0010
0100
1000
0001
,
0000
1000
0010
0100
,
0000
0001
0010
0100
,
0010
0001
1000
0010
,
0100
0001
1000
0001
,
0100
0010
0100
0001
,
1000
0100
0010
0002
,
0000
2003
0000
3010
,
0100
0010
1000
0001
,
0000
1000
0000
0100
0000
0010
0000
0000
,
0001
1000
0100
2000
,
0000
3020
0000
0230
,
0000
0302
0000
1003
,
0000
0000
0000
0020
,
0000
0000
0000
1030
,
0001
0100
0001
1000
,
0100
1000
0001
0100
,
0010
1000
0100
0010
,
0001
0010
0100
1000
,
0010
0100
0010
1000
,
0001
0010
0100
1000
,
0001
0100
0010
0100
,
0001
0010
0100
1000
,
0001
0100
0001
0010
,
0100
1000
0010
0100
,
0010
0100
0010
1000
,
0001
1000
0001
0010
,
0001
0010
0001
1000
,
0100
1000
0100
1000
,
0002
0000
0000
0000
,
0000
1003
0001
0100
,
0010
0100
0010
0100
,
0010
0100
0010
0000
,
2002
0000
3003
0000
;

//--------------- dance-single - ----------------
#NOTEDATA:;
#STEPSTYPE:dance-single;
#DESCRIPTION:;
#DIFFICULTY:Easy;
#METER:13;
#RADARVALUES:0,0,0,0,0;
#CREDIT:Evergreen;
#NOTES:
0000
0000
0000
0000
,
1000
0000
0000
0001
0000
0000
0010
0000
,
0100
0000
1000
0000
0010
0100
0001
1000
,
0001
0000
0000
1000
0000
0000
0010
0000
,
0100
0000
0001
0000
0010
0100
1000
0001
,
1000
0000
0100
0010
0000
0000
0001
1000
,
0001
0000
0100
0010
0000
1000
0001
0010
,
0001
0000
1000
0010
1000
0000
0001
0010
,
0001
0000
0010
0100
0000
1000
0000
0001
,
0000
0100
0000
0010
1000
0001
0010
0001
,
0100
0000
0010
1000
0100
0000
2000
0000
,
3001
0000
0000
0000
0010
0000
0000
0000
0100
0000
0000
1000
0000
0000
0010
0000
,
0100
0000
0001
0000
1000
0000
0000
0000
0010
0000
0000
0100
0000
0000
0001
0000
,
1000
0100
0010
0001
0010
0000
0001
1000
,
0100
0000
1000
0000
0010
0000
0100
0001
,
0100
0001
0000
0010
0000
0100
0000
1000
,
0001
0000
1000
0100
1000
0000
0001
0100
,
0001
0000
1000
0010
0100
0001
1000
0000
,
0001
1000
0001
0010
0001
0000
1000
0010
,
1000
0000
0001
0010
0100
1000
0001
0100
,
0001
0000
2000
0000
3010
0000
0100
0001
,
0100
0001
0000
0100
0000
0001
0000
1000
,
0100
0000
1000
0000
0001
0000
0010
0100
,
0010
0001
1000
0010
,
0100
0000
0001
0000
0010
0000
0001
1000
,
0001
1000
0010
0000
0100
0000
0001
0000
,
1000
0000
0100
0000
0010
0000
0001
1000
,
0001
0000
1000
0000
0010
0000
1000
0001
,
1000
0000
0002
0000
0103
0000
0010
0100
,
0010
0100
0001
1000
,
0000
0000
0100
0000
0010
0000
0100
0010
,
0000
0001
1000
0001
,
1000
0100
1000
0000
0010
0000
0100
0001
,
0100
0000
0000
0001
0000
0100
0000
0001
0000
1000
0000
0100
,
0000
0000
1000
0000
0000
0000
0001
0000
0000
0000
0000
0000
0010
0000
0000
0000
0000
0000
0100
0000
0000
1000
0000
0000
,
0001
0000
1000
0000
0010
0000
0100
0001
,
1000
0000
0001
0000
0020
0000
0000
0000
0130
0000
0000
0000
1000
0000
0000
0001
,
0000
0000
0100
0000
0010
0000
1000
0001
,
1000
0010
0100
0000
0001
0000
0010
0000
,
0100
0000
1000
0100
1000
0000
0001
0100
,
0001
0000
1000
0000
0000
0010
0000
0000
,
0100
0000
0000
0001
0000
0000
1000
0000
,
0001
0010
0001
0010
0001
0010
0001
0010
,
0001
0010
0100
1000
,
0001
0000
1000
0000
0000
0010
0000
0000
,
0100
0000
0000
0001
0000
0000
1000
0010
,
1000
0020
0000
0000
,
0030
0100
0000
0001
,
1000
0100
0000
0000
,
0000
0000
0010
0000
0002
0000
1003
0010
,
0100
0000
0001
0010
0100
1000
0001
0010
,
0100
0000
1000
0010
0100
0001
1000
0000
,
0100
0000
0010
0100
1000
0000
0001
0000
,
0100
0000
0010
0100
0001
1000
0200
0000
,
0000
2300
3002
0103
,
0001
0010
0001
0000
1000
0010
0100
0000
,
0001
0010
0100
0000
1000
0100
1000
0001
,
0010
0000
0001
1000
0010
0100
0001
0000
,
0010
0000
0100
1000
0001
0000
0100
0001
,
1000
0000
0001
0100
0001
1000
0100
1000
,
0001
0000
0100
0001
1000
0000
0010
0100
,
0001
0010
0100
1000
0001
0010
0001
0000
,
0010
0001
0000
1000
0010
1000
0001
0000
,
1000
0000
0100
0010
0002
2003
3001
0100
,
0001
0100
0001
0100
0001
0100
0010
1000
,
0010
1000
0010
1000
0010
1000
0001
0000
,
0000
1000
0000
0000
0010
0000
0100
0000
,
0001
0000
0010
0100
1000
0001
1000
0000
,
0000
0001
0000
0000
0010
0000
0100
1000
,
0001
0000
0100
0001
1000
0010
1000
0000
,
0100
0010
0000
0000
0001
1000
0001
0000
,
0010
0000
0100
0000
1000
0010
0100
0000
,
0001
0000
0010
0100
1000
0001
0000
0000
,
0100
0001
0010
0100
1000
0001
1000
0000
,
0000
0010
0000
0100
0001
0010
0100
1000
,
0010
0100
0001
0010
0100
1000
0001
0000
,
1000
0000
0010
1000
0100
0010
0001
0100
,
0010
1000
0001
0010
0001
1000
0010
0000
,
0100
0000
0001
0100
0010
1000
0001
0010
,
0001
0000
1000
0010
1000
0000
0001
0000
,
0100
0001
0000
0010
0000
0001
0000
1000
,
0001
0000
1000
0010
0100
0000
0001
0100
,
0001
0000
1000
0100
1000
0000
0001
0010
,
0001
0000
1000
0010
1000
0000
0001
0000
,
0000
0000
0000
0020
,
0000
0000
0000
0000
0000
0030
0100
0000
,
1000
0000
0001
0100
0001
0000
0010
0000
,
0100
0000
1000
0001
1000
0010
0100
0000
,
0001
0000
0010
0100
1000
0000
0001
0010
,
0001
0010
0001
0100
0001
1000
0010
0000
,
0100
0000
0001
0010
0001
1000
0100
1000
,
0010
0100
0001
0010
0100
1000
0001
0100
,
0001
0000
1000
0100
0010
0001
1000
0010
,
1000
0001
0010
0100
1000
0000
0001
0010
,
0001
1000
0001
0100
0001
0010
0100
1000
,
0001
1000
0100
1000
0010
1000
0001
0010
,
0001
0010
0001
1000
0001
1000
0010
1000
,
0010
1000
0010
0100
0010
0100
0001
0010
,
0100
1000
0010
0100
0010
1000
0100
0010
,
0001
0010
0100
1000
0001
0100
0001
1000
,
0200
0000
0000
0000
,
0000
0000
0310
0000
0100
0000
1000
0001
,
0010
0001
0100
0010
1000
0100
1000
0010
,
0100
0001
0010
0001
1000
0001
0000
0000
,
2002
0000
3003
0000
;

//--------------- dance-single - XMOD ----------------
#NOTEDATA:;
#STEPSTYPE:dance-single;
#DESCRIPTION:XMOD;
#DIFFICULTY:Medium;
#METER:15;
#RADARVALUES:0,0,0,0,0;
#CREDIT:Braeden;
#NOTES:
0000
0000
0000
0000
,
1001
0000
0000
0101
0000
0000
0001
0000
,
1000
0100
0010
0001
,
1001
0000
0000
1010
0000
0000
0010
0000
,
2000
3002
0203
0310
,
1000
0000
0000
2001
0000
0000
3001
0000
,
2000
0000
3001
0200
0000
0310
1000
0000
,
2001
0000
3001
1000
0100
0010
0001
0100
,
0001
0000
1000
0010
0000
1010
0000
0110
,
0000
0101
0000
0001
0010
0100
1000
0010
,
1000
0010
1000
0001
0010
0001
1001
0000
,
1M01
0000
0000
0000
0M01
0000
0000
0000
1000
0010
1000
0010
0000
0100
0001
0000
,
0010
0000
0000
0000
0100
0000
0000
0000
1000
0001
0000
1000
0000
0001
0100
0010
,
1000
0000
0001
0000
2001
0000
0000
0000
3010
0100
0000
0001
0000
1000
0000
0001
,
0000
0100
0001
0000
1M01
0000
0000
0000
1000
0000
0200
0000
0000
0000
0301
0000
,
0200
0000
1300
0020
0000
0130
0010
0000
,
1010
0000
0010
1000
0100
1000
0001
1000
,
0010
0100
0000
0100
0001
0100
0010
1000
,
0100
0000
0010
0000
0001
0000
0000
1000
0000
0000
0010
0000
0100
0000
0001
0000
,
0100
0010
0000
1000
0100
0010
0001
0010
,
0100
1000
0002
0000
1003
0010
1000
0010
,
0100
0001
0000
0101
0000
1020
0000
1030
,
0100
0010
0002
0000
1003
0010
0000
0100
,
0001
0000
0200
0000
0000
0000
0310
0000
0000
0000
1000
0000
0001
0000
0000
0100
,
0000
0001
2000
0000
3001
0100
0001
0010
,
0001
0000
1000
0000
0001
0000
0000
0010
0000
0000
0100
0000
1000
0000
0000
0010
,
0000
0100
0001
1000
0000
0010
1000
0100
,
0010
0001
0000
1000
0000
0001
0100
0010
,
0100
0001
1000
0000
1010
0000
0010
0100
,
0001
1000
0001
0100
0001
0100
0001
1000
,
0100
0010
0001
0000
1020
0000
1030
0002
,
0000
0013
0001
1000
0010
0000
1000
0100
,
0010
0001
1000
0010
0100
0001
0100
0001
,
0010
0000
0001
0000
1000
0000
0000
0010
0000
0000
0100
0000
0010
0000
1000
0000
,
0010
1000
0100
1000
0001
1000
0001
0010
,
0100
1000
0001
0100
0010
0100
0001
1000
,
0001
0000
1000
0000
1010
0000
0010
1000
,
0000
0010
0000
0100
0002
0000
1003
0100
,
0010
0001
1000
0010
1000
0001
0010
0001
,
1000
0010
0100
0001
0100
0001
1000
0000
,
0010
0000
2002
0000
3003
0001
0100
0001
,
0200
0000
0301
0020
0000
0031
0010
0100
,
1000
0010
1000
0001
1000
0001
1000
0001
,
0100
0010
0100
0010
0100
0010
1000
0100
,
0010
0001
1000
0000
0001
2000
0000
3010
,
1000
0002
0000
0203
0000
0310
1000
0100
,
0010
0001
2M01
0000
0000
0000
0000
0000
,
0000
3002
0000
0203
,
0320
2000
0000
0000
,
3030
0000
0000
0000
0M10
0000
0000
0000
1000
0100
0010
0001
1000
0000
0000
0000
,
0001
0000
0000
0100
0000
0000
0001
0000
1000
0000
0000
0100
0000
0000
1000
0000
0001
0000
0000
0000
0010
0000
0000
0000
0001
0000
0000
0000
0000
0000
0100
0000
,
0001
0000
0000
0100
0000
0000
0001
0000
1000
0000
0000
0100
0000
0000
0010
0000
0001
0000
0000
0000
1000
0000
0000
0000
2M01
0000
0000
0000
0000
0000
0000
0000
,
3001
0100
0001
0100
0010
0100
0001
0100
,
0010
1000
0200
0000
0320
0000
0031
0000
,
1000
0000
0010
1000
0010
0000
0210
0000
,
0301
0000
1000
0000
0200
0000
0000
0000
0310
0000
0000
0000
0001
0000
0000
1000
,
0000
0020
0000
1030
0100
0000
0010
0001
,
1000
0010
0100
0001
0010
0000
0120
0000
,
0130
1000
0001
0010
0001
1000
0010
1000
,
0100
0000
1000
0001
1000
0010
0100
0000
,
0001
0010
0100
1000
0001
0100
0010
1000
,
0001
0100
0001
0000
2000
0000
3001
0100
,
0001
0100
0010
1000
0010
1000
0001
0010
,
0100
1000
0100
0010
0001
1000
0020
0000
,
0000
0000
0000
0230
,
0000
0302
0003
1001
,
1000
0020
0000
0130
0000
0000
0001
0010
,
0001
1000
0000
0020
0000
1030
2000
0000
,
3010
2000
0000
3010
0100
0001
0010
0100
,
1000
0001
0100
0001
0100
0010
2000
0000
,
3001
0020
0000
0230
0000
0000
1300
0000
,
0001
1000
0010
0110
,
0100
0001
1000
0100
0000
2100
0000
3001
,
0010
0100
1000
0001
0100
0000
0210
0000
,
0310
0100
0000
0001
0010
0100
1000
0001
,
0100
0010
1000
0100
0010
0001
2000
0000
,
3001
0010
0100
2000
0000
3001
0100
0001
,
0100
0000
0000
0000
0101
0000
0000
0000
1000
0000
0001
0000
10M1
0000
0000
0101
,
0000
0100
0010
1000
0001
0000
0010
0100
0000
1000
0100
0010
M002
0000
0000
0000
,
0103
0010
0100
0001
0100
0010
1000
0000
,
0001
0100
0000
0110
0000
0210
0000
0310
,
0100
0001
0100
0000
0010
0000
0101
0001
,
0100
0010
0100
0001
1000
0100
0010
0001
,
1000
0010
0100
0001
0010
0100
2000
0000
,
3002
0000
0000
0203
0000
0000
0320
0000
,
0000
2030
0000
0000
3001
0000
0021
0000
,
0031
0010
0001
1000
0010
1000
0001
0010
,
0100
0000
1000
0010
1000
0001
0010
0001
,
0000
2000
3000
0002
0003
0001
1000
0100
,
0010
0001
1000
0100
0010
0100
1200
0000
,
1300
0001
0010
0001
1000
0010
0100
0001
,
1000
0100
0010
0001
0010
0000
0021
0000
,
0031
0000
1000
0010
0100
0001
1000
0100
,
0010
0100
1000
0000
0001
0100
0002
0000
,
1003
0100
0020
0000
0031
1000
0001
0010
,
0001
0010
0001
0100
0010
1000
1002
0000
,
1003
0100
0010
0100
1000
0001
0010
0001
,
0100
0010
1000
0001
0010
0001
1000
0100
,
0010
0001
0010
0001
1000
0010
0100
0001
,
1000
0100
0010
0100
1000
0001
0100
0000
,
2002
0000
3003
0000
1000
0100
1000
0001
,
0010
0001
0100
0010
1000
0001
2001
0000
,
3010
0000
0100
0000
0001
1000
0010
0100
,
0001
0010
0100
1000
0001
0010
0000
0000
,
2002
0000
3003
0000
;

//--------------- dance-single - XMOD XO- BU ----------------
#NOTEDATA:;
#STEPSTYPE:dance-single;
#DESCRIPTION:XMOD XO- BU;
#DIFFICULTY:Hard;
#METER:18;
#RADARVALUES:0,0,0,0,0;
#CREDIT:Braeden;
#NOTES:
0000
0000
0000
0000
,
1001
0000
0000
0101
0000
0000
0100
0000
,
0010
0000
1000
0000
0001
0000
1000
0001
,
1001
0000
0000
1020
0000
0000
1030
0100
,
1000
0100
0001
0100
1000
0010
0100
0010
,
1010
0000
0000
2001
0000
0000
3001
0100
,
0010
1000
0010
2010
0000
3001
0100
0010
,
1000
0000
0001
0000
1000
0000
0001
0010
0100
0000
1000
0000
0001
1000
0001
1000
,
0001
0000
0100
0100
0000
1010
0000
1001
,
0000
0101
0000
0100
0010
1000
0001
0010
,
0100
1000
0001
0100
0010
1000
1001
0000
,
1MM1
0000
0000
0000
1001
0000
0000
0000
0001
0100
0010
1000
0000
0001
0010
0100
,
1000
0100
0000
0000
0010
0000
0001
1000
0001
0100
0000
0110
0000
0010
0100
0010
,
1000
0001
0010
0001
2002
0000
3003
0000
1000
0010
0000
1010
0000
1001
0000
0100
,
0001
1000
0001
1000
0M02
0000
0000
0000
1003
0000
0100
0000
0000
0000
1000
0000
,
0001
1000
0000
0001
0000
0100
0001
0000
,
1001
0000
0120
0000
0130
0000
0001
0100
,
0010
0000
2000
0000
0000
0000
3001
0010
0001
1000
0100
1000
0001
0000
1000
0000
,
0001
0010
0001
0010
0001
0000
0000
1000
0000
0000
0010
0000
0010
0000
1000
0000
,
0001
0001
0000
1000
0100
0010
1000
0010
,
0001
0000
0001
0000
2000
0000
0000
0000
3001
0010
0001
0010
0100
1000
0100
1000
,
0001
0100
0000
0110
0000
2010
0000
3001
,
0100
0000
0010
0000
1000
0000
0001
0000
1000
0000
0001
0010
0001
0000
1000
0000
,
0010
0000
0020
0000
0000
0000
0100
0000
0000
0000
1030
0000
0001
0000
0000
0100
,
0000
0000
0010
0000
0020
0000
0000
0000
1030
0001
1000
0000
0001
0010
0001
0000
,
1000
0001
1000
0000
0001
0000
0000
0100
0000
0000
0010
0000
1000
0000
0000
0001
,
0000
0000
1000
0000
0001
0000
0100
0000
0010
0000
1000
0000
0001
0010
0001
1000
,
0100
0010
0001
1000
0001
0000
0100
0000
0000
0000
0100
0000
0010
0000
1000
0000
,
0001
1000
0020
0030
1010
1000
0001
0100
,
0010
0000
1000
0000
0001
1000
0001
1000
0001
1000
0001
1000
0001
0000
0010
0000
,
0100
1000
0000
0001
2001
0000
3010
2010
,
0000
0000
3001
0100
0001
0000
0010
0000
0100
0000
1000
0000
0010
1000
0010
1000
,
0010
1000
0010
1000
0010
0000
0100
0000
0001
0000
0010
0000
0100
0000
1000
0000
,
0001
0000
0100
0000
0001
0000
0000
0010
0000
0000
0001
0000
1000
0000
0000
0010
,
0000
1000
0001
0010
0001
1000
0010
0100
,
0001
0010
0100
1000
0001
0100
0001
0100
0001
0000
0100
0000
0010
1000
0010
0000
,
0100
0000
0001
0000
1000
0100
0010
0001
1000
0000
0010
0000
0010
0000
0100
0000
,
0000
0001
0000
0000
0100
0000
0010
0000
1000
0000
0001
0000
1000
0100
1000
0000
,
0001
0010
0001
0000
1000
0001
1000
0000
0010
0100
0010
0000
0100
0001
0100
0000
,
0001
0000
0000
1000
0000
0000
0001
0000
0000
0000
0000
0000
1000
0000
0000
0000
0000
0000
0100
0000
0000
0000
0000
0000
0010
0000
0000
0000
0000
0000
0001
0000
0000
0000
0000
0000
1000
0000
0000
0000
0100
0000
0000
0000
1000
0000
0000
0000
,
0001
0000
0010
0000
0001
0000
2000
0000
0000
0000
0000
0000
3010
0000
0000
0200
0000
0000
0000
0000
0000
0301
0000
0000
,
0020
0000
0031
0200
0000
0301
1000
0100
,
0010
0001
1000
0100
0001
0100
1000
0010
,
0100
0000
1000
0000
0100
0000
0010
0000
1000
0000
0100
0000
1000
0001
0010
0100
,
1000
0001
0100
0001
2000
0000
0000
0000
3001
0000
0020
0000
0000
0000
0130
0000
,
2000
0000
3001
2000
0000
3001
0010
0001
,
1000
0001
2M02
0000
0000
0000
0000
0000
,
0003
3002
0000
0103
,
0010
2000
0000
0000
,
3000
0000
0000
0000
1M01
0000
0000
0000
0001
0010
0100
1000
0001
0000
0000
1000
,
0100
0000
0000
0001
0000
0000
0100
0000
1000
0000
0000
0001
0000
0000
0100
0000
0001
0000
0000
0000
1000
0000
0000
0000
0100
0000
0000
0010
0000
0000
0001
0000
,
1000
0000
0000
0010
0000
0000
1000
0000
0001
0000
0000
1000
0000
0000
0010
0000
1000
0000
0000
0000
0001
0000
0000
0000
10M1
0000
0000
0000
1000
0000
0000
0000
,
0100
0010
1000
0010
0001
0100
0010
1000
,
0010
0000
1000
0000
0001
0010
0100
1000
0001
0100
0010
1000
0001
0000
0100
0000
,
0010
1000
0100
0100
0010
0000
0012
0000
,
1003
0000
0001
1000
0002
0000
0000
0000
0103
0000
0000
0000
0010
0000
1000
0000
,
0100
0000
1000
0010
0000
1000
0010
0000
0000
0000
1000
0001
1000
0000
0001
0000
,
0010
0000
0100
0000
1000
0001
1000
0000
0010
0100
0010
0000
1000
0000
0001
0010
,
0100
0000
1000
0000
0001
0010
0001
0010
0000
0000
0100
0000
1000
0000
0001
0100
,
0020
0000
0000
0000
1030
0001
1000
0001
1000
0001
1000
0001
1000
0000
0000
0000
,
0010
1000
0010
0000
0100
0000
0001
0000
0000
1000
0000
0000
0001
0000
0100
0000
,
0100
0000
0010
0000
1000
0000
0100
0000
0020
0000
0000
0000
0031
0000
1000
0100
,
1000
0100
1000
0000
0001
0100
0001
0000
1000
0000
0100
0000
0010
0000
0001
0000
,
1000
0000
0000
0000
0000
0000
0001
0000
0000
0000
0000
0000
1000
0000
0000
0010
0000
0000
1000
0000
0000
0001
0000
0000
0200
0000
0000
0000
0000
0000
0000
0000
0000
0000
0000
0000
0301
0000
0000
0000
1000
0000
0000
0000
0001
0000
0000
0000
,
0100
0010
0100
0001
0010
0100
1000
0010
0100
0001
1000
0100
,
0010
0000
0001
0000
1000
0000
0002
0000
0000
0000
0000
0000
0000
0000
0000
0003
0000
0000
1002
0000
0000
0000
0000
0000
,
1003
0020
0000
0130
0000
0000
0001
0010
,
0100
0000
1000
0001
0000
0000
1000
0000
0000
0000
0001
1000
0002
0000
0000
0000
,
1003
0000
2002
0000
0000
0000
0000
0000
3003
0000
0000
0000
0001
0000
1000
0100
,
2000
0000
3001
1000
0002
0000
1003
0010
0200
0000
0301
1000
0001
0000
0100
0000
,
0010
0000
0000
1010
0000
0000
0000
0000
0000
1000
0000
0000
0000
0000
0000
0001
0000
0000
1000
0000
0100
0000
0010
0000
,
0001
0000
0000
0000
0100
0000
0000
0000
0001
0000
0000
0000
1000
0000
0000
0000
0010
0000
0000
0000
1000
0000
0000
0000
0001
0000
0000
0000
0100
0000
0000
0000
0001
0000
0000
0000
1000
0000
0000
0000
0000
0000
0010
0000
0000
1000
0000
0000
,
0001
1000
0001
0001
0000
1002
0000
1003
,
0100
0010
0002
0003
1001
0000
1000
0001
,
0100
0000
0120
0000
0000
0000
1030
0000
0100
0010
0100
0000
0010
0001
0010
0000
,
0001
1000
0001
0000
1000
0000
0100
0000
0010
0000
0100
0000
0001
0000
0100
0000
,
1000
0000
0001
0000
0100
0000
0020
0000
0000
0000
1030
0000
0001
0010
0100
1000
,
0001
0000
0000
1000
0010
0000
0000
1000
0001
0000
0100
0000
10M1
0000
0001
0101
,
0000
0100
0010
1000
1001
0001
0010
0011
0000
0001
1000
0001
10M1
0000
0000
0000
,
1000
0001
1000
0000
0010
0100
0010
0000
1000
0001
1000
0000
0010
0000
0000
0000
,
0010
1010
0000
1001
0000
0101
0000
0001
,
0100
0000
0000
0001
0000
0000
1000
0000
0100
0000
0010
0000
0001
0000
0000
0000
0000
0000
0101
0000
0000
0100
0000
0000
,
0010
1000
1020
0000
1030
0100
0210
0000
,
0310
0001
2002
0000
3000
0000
2003
0000
,
3002
0000
0000
0203
0000
0000
0320
0000
,
0000
0000
2030
0000
0000
0000
0000
0000
3002
0000
0000
0000
1003
0000
0001
0100
,
0001
0000
1000
0010
0100
0000
0001
0100
0010
0000
1000
0100
0010
0000
0001
0000
,
1000
0000
0001
0000
1000
0000
0001
0000
0000
1000
0000
0000
0001
0000
0000
0010
0000
0000
0001
0000
0000
0010
0000
0000
,
0100
1000
0000
0100
1000
0000
0000
0001
1000
0000
0000
0010
1000
0001
1000
0001
,
1000
0001
1000
0001
1000
0000
0010
0000
0000
0100
0000
0000
0001
0000
0100
0000
,
0001
0010
0100
0000
1000
0100
0010
0000
0001
1000
0001
0000
1000
0000
0100
0000
,
0001
0100
0010
0001
1000
0000
2001
0000
,
3001
0100
0000
0000
0001
0000
0010
0000
1000
0000
0010
0000
0001
0000
0100
0000
,
0010
0000
0000
1000
0000
0000
0001
0000
1000
0000
0010
0000
1000
0000
0000
0000
0000
0000
1020
0000
0000
0000
0000
0000
,
0130
0001
0100
0000
0020
0000
0000
0000
1030
0001
1000
0000
0001
0000
0100
0000
,
1000
0100
0001
0010
0001
0100
0102
0000
,
1003
0100
0001
0100
1000
0010
1000
0001
,
1000
0000
0010
1000
0010
0000
0100
0000
0001
1000
0001
0000
1000
0000
1000
0000
,
0001
0010
0100
1000
0001
0100
0001
0100
0010
1000
0010
1000
0001
0000
0100
0000
,
0010
0000
0100
0000
0001
0010
0100
1000
0001
0010
0100
1000
0001
0000
0000
0000
,
2002
0000
3003
0000
1000
0010
0100
0001
,
0010
0001
1000
0100
0010
0001
1001
0000
,
1000
0010
0100
0001
0010
0001
1000
0100
,
0010
0001
1000
0010
1000
0001
0000
0000
,
2002
0000
3003
0000
;

//--------------- dance-single - XMOD STR FS ----------------
#NOTEDATA:;
#STEPSTYPE:dance-single;
#DESCRIPTION:XMOD STR FS;
#DIFFICULTY:Challenge;
#METER:19;
#RADARVALUES:0,0,0,0,0;
#CREDIT:Braeden & Evergreen;
#NOTES:
0000
0000
0000
0000
,
1001
0000
0000
0110
0000
0000
0010
1000
,
0001
0000
0100
0000
0010
0000
1000
0000
0001
0000
0010
0M00
0010
0000
0000
1000
,
0001
0010
0001
2001
0000
3001
0010
0001
,
1000
0010
1000
0000
0001
0100
0001
0000
1000
0100
1000
0000
0001
0010
0001
0000
,
1001
0000
0000
0210
0000
0301
0010
0001
,
1000
0000
0001
0010
0001
0000
2000
0000
0000
0000
3001
0100
0010
1000
0001
0010
,
0001
0000
1000
0010
0100
0001
1000
0001
0010
0000
0100
1000
0100
0010
0001
1000
,
0001
0010
0011
0011
0000
1001
0000
1100
,
0000
0000
1010
0000
0000
0000
1001
0000
0001
0000
0001
0000
1000
0010
0100
0001
,
1000
0100
0010
0001
1000
0010
0100
0001
1000
0001
0010
0001
1000
0000
0000
0000
,
1MM1
0000
0000
0000
0000
0000
0000
0000
22MM
0000
0000
0000
3300
0000
0000
0000
1000
0000
0001
0000
0010
0001
0010
0000
0001
0000
1000
0000
0010
0000
0100
0000
,
0001
0000
1000
0000
0000
0000
0000
0000
0001
1000
0000
0000
0001
0000
0100
0000
0001
0000
0001
0000
0000
0000
1000
0000
0100
0000
1000
0000
0010
0000
0100
0000
,
0001
0000
1000
0000
0001
1000
0001
0000
2002
0000
0000
0000
3003
0000
0000
0000
0001
0000
1000
0000
0010
0000
0010
0000
0000
0000
0110
0000
0000
0000
1001
0000
,
0000
0000
0001
1000
0001
1000
0001
1000
0MM1
0000
0000
0000
1000
0000
0000
0000
0001
0000
0000
0000
0010
0000
0000
0000
0000
0000
0000
0000
0100
0000
0000
0000
,
1000
0000
0100
0000
0000
0000
0010
0000
0000
0000
0001
0100
0010
0000
0000
0000
,
2010
0000
0000
0000
3001
0000
0000
0000
1000
0000
0001
0100
0010
0000
1000
0000
,
0001
0010
0100
0000
0000
0000
1000
0010
0100
0001
0100
0010
1000
0000
0001
0000
,
1000
0100
1000
0100
1000
0000
0000
0001
0000
0000
0010
0000
0001
0000
1000
0000
,
0100
1000
0200
0000
0300
0000
1000
0010
0100
0001
1000
0100
0010
0000
0001
0000
,
1000
0100
1000
0000
0004
0000
0000
0000
0013
0100
0010
0100
1000
0001
1000
0001
,
0100
0010
1000
0000
0000
0000
1010
0000
0000
0000
1002
0000
0000
0000
0103
0010
,
1000
0010
0100
0001
1000
0000
0000
0100
0000
0000
0010
0000
0000
0001
0000
0000
,
1000
0000
2001
0000
0000
0000
3100
0000
0000
0000
0010
0000
0020
0000
0000
0130
,
0000
0000
1000
0000
0002
0000
0000
0000
0013
0100
0010
0100
1000
0010
0100
0001
,
1000
0001
0010
0001
1000
0000
0000
0100
0000
0000
0010
0000
0001
0000
0000
0010
,
0000
0000
0001
0000
1000
0000
0010
0000
0100
0000
0001
0000
1000
0010
1000
0001
,
0010
0001
1000
0100
1000
0001
1000
0000
0001
0000
0100
0000
0010
0000
1000
0000
,
0001
0000
0010
0000
0001
1000
0001
1000
0001
0000
0000
0000
1001
0000
1000
0000
,
0100
0000
0010
0000
0001
0100
0001
0100
0001
0100
0001
0100
0001
0000
1000
0000
,
0100
0010
0001
1000
0000
0000
0001
0000
1001
0000
0000
1000
0000
0000
1100
0000
,
0000
0100
0010
0001
1000
0000
0010
0100
0001
0000
1000
0010
1000
0001
1000
0001
,
1000
0001
1000
0001
1000
0000
0010
0000
1000
0010
0100
0001
1000
0000
0100
0000
,
0010
0001
1000
0001
0010
0000
0000
0001
0000
0000
1000
0000
0001
0100
0010
1000
,
0001
0010
0100
1000
0001
0000
0100
0000
0010
0000
1000
0000
0001
0010
0001
1000
,
0010
1000
0001
0100
0010
1000
0010
0100
0001
1000
0100
0010
0001
1000
0010
0100
,
0001
1000
0010
1000
0002
0000
0003
0000
1001
0000
1000
0000
2200
0000
3300
0000
,
0100
0000
0010
0000
0100
0000
1000
0000
0001
0100
0010
1000
0001
0010
0100
1000
,
0001
0010
0001
0000
1000
0100
1000
0000
0001
0100
0010
0000
1000
0001
1000
0000
,
0001
0000
0000
0100
0000
0000
0010
0000
0000
0000
0000
0000
1000
0000
0000
0010
0000
0000
0100
0000
0000
0001
0000
0000
0010
0000
0000
0100
0000
0000
1000
0000
0000
0001
0000
0000
1000
0000
0000
0000
0001
0000
0000
0000
0010
0000
0000
0000
,
0001
0000
0000
0000
1000
0000
0000
0000
0001
0000
0000
0000
2000
0000
0000
0000
0000
0000
0000
0000
0000
0000
0000
0000
3010
0000
0000
0M00
0000
0000
0020
0000
0000
0000
0000
0000
0000
0000
0000
0000
0000
0000
0001
0000
0000
0000
0000
0000
,
0032
0000
0000
0000
0103
00M0
0200
0000
0000
0000
1300
0000
0001
0000
0100
0000
,
0001
0000
0100
0000
0001
0010
0001
0010
0100
1000
0100
1000
0001
0100
0010
1000
,
0001
0010
0100
1000
0001
0100
0001
1000
0100
1000
0001
0100
0001
1000
0100
0010
,
0100
1000
0001
0100
0002
0000
0000
0000
0103
00M0
0200
0000
0000
0000
1300
0000
,
2000
0000
0000
0000
3010
0M00
0020
0000
0000
0000
0031
0000
0100
0000
0010
0000
,
1000
0010
M22M
0000
0000
0000
0000
0000
,
0330
2000
0000
3002
,
0203
0320
0000
0000
,
0030
0000
0000
0000
0000
0000
0000
0000
M00M
0000
0000
0000
0000
0000
0000
0000
1000
0010
0100
0001
0010
0100
1000
0001
0100
0000
0000
0001
0000
0000
0010
0100
,
1000
0000
0000
0010
0000
0000
0100
0001
0010
0000
0000
0100
0000
0000
1000
0001
1000
0000
0010
0000
0100
0000
0010
0000
1000
0000
0000
0001
0000
0000
0010
0100
,
1000
0000
0000
0001
0000
0000
1000
0010
0100
0000
0001
0010
0000
0001
1000
0000
0010
0000
1000
0010
0100
0001
1000
0001
1000
0000
0000
0000
0100
0000
0000
0000
,
1000
0000
0001
0100
0001
0000
1000
0010
,
0100
0000
0001
0000
1000
0100
0010
0001
1000
0010
0100
0001
1000
0000
0100
1000
,
0100
0010
0001
0000
1000
0000
0001
0100
0010
1000
0001
0000
1001
0000
0000
0000
,
1000
0000
0000
0000
0100
0000
0000
0000
0010
0000
0000
0000
0001
0000
0000
0010
0000
0000
0100
0000
0000
1000
0000
0000
0010
0000
0000
0100
0000
0000
0001
0000
0000
1000
0000
0000
0010
0000
0000
0000
0000
0000
1000
0000
0000
0010
0000
0000
,
0100
0001
0010
0100
1000
0000
0010
1000
0000
0001
0010
0001
0100
0000
0010
1000
,
0010
0100
0001
0010
0100
1000
0001
0010
0001
0100
0010
1000
0001
0000
1000
0100
,
0010
0001
0100
0010
1000
0000
0001
0010
0100
1000
0001
1000
0100
0010
0001
1000
,
0010
0100
0001
1000
0100
0010
0100
0010
0100
0010
0100
0010
0001
0000
1000
0010
,
0100
0010
1000
0000
0001
0000
0010
0100
0000
1000
0001
0000
0100
0000
0001
0010
,
0100
0000
1000
0010
0100
0000
0001
0100
0010
0100
0001
1000
0100
0000
1000
0001
,
0100
0010
0100
0000
0010
0100
0001
1000
0001
0000
1000
0001
1000
0100
0010
0000
,
0100
0000
0000
0010
0000
0000
0001
0000
0000
1000
0000
0000
0010
0000
0000
0100
0000
0000
0001
0000
0000
1000
0000
0000
0100
0000
0000
0010
0000
0000
0001
0000
0000
1000
0000
0000
0001
0000
0000
0000
0010
0000
0000
0000
0001
0000
0000
0000
,
1000
0010
1000
0001
0100
0001
1000
0100
1000
0001
0010
0100
,
1000
0010
0100
0001
0100
0010
1000
0100
0010
1001
0000
0000
,
0000
0000
0110
0000
0000
0000
1000
0000
0010
0100
0001
0010
0100
1000
0001
0000
,
0100
0001
1000
0000
0001
0010
0100
1000
0010
0100
0001
0010
0001
0000
0000
0000
,
0000
0000
1100
0000
0000
0000
1000
0000
0010
1000
0001
0000
0010
0001
1000
0010
,
0100
0001
0010
0100
1000
0010
0100
0010
1000
0001
0100
0001
1000
0000
0000
0000
,
0000
0000
0000
0000
0000
0000
1010
0000
0000
0000
0000
0000
0000
0000
0000
0000
0000
0000
1000
0000
0000
0010
0000
0000
0100
0000
0000
0000
0000
0000
0001
0000
0000
0010
0000
0000
0100
0000
0000
0000
1000
0000
0000
0000
0001
0000
0000
0000
,
0100
0000
0000
0000
0001
0000
0000
0000
1000
0000
0000
0000
0010
0000
0000
0000
1000
0000
0000
0000
0001
0000
0000
0000
0010
0000
0000
0000
0001
0000
0000
0000
1000
0000
0000
0000
0010
0000
0000
0000
0000
0000
0100
0000
0000
0001
0000
0000
,
0100
0000
0001
0010
0001
0010
0100
1000
0010
0000
1000
0000
0010
0100
0001
0010
,
0001
0000
0100
0000
0010
0000
1000
0000
0100
0000
1000
0000
0001
0000
1000
0000
0020
0000
0000
0000
0130
0000
0000
0000
0001
0000
0000
0000
0010
000M
0010
0000
,
1000
0000
0001
0000
0000
0000
1000
0100
0010
0001
1000
0010
0100
0001
1000
0100
,
1000
0000
0001
0000
0100
0000
0001
0000
0010
0000
0100
0000
1000
0000
0001
0000
1000
0000
0010
0000
0100
0000
0001
0000
1000
0000
0000
0000
0010
M000
0010
0000
,
0001
0000
1000
0010
1000
0000
0001
0100
0001
0000
1000
0010
0100
0001
0010
0100
,
1000
0000
0010
0100
0001
0000
0010
0100
1000
0001
0100
0010
1000
0000
0001
0100
,
0000
0000
0001
0000
0010
0000
0100
0000
1000
0000
0000
0000
0100
0000
1000
0000
0000
0000
0010
0000
0100
0010
1000
0001
1000
0000
0100
0000
0010
0000
0001
0000
,
1000
0010
0100
0001
1000
0100
1000
0010
0100
0001
0010
0001
1000
0000
0000
0000
,
1001
0000
1010
0000
0000
0000
1100
0000
0000
0000
0101
0000
0000
0000
0001
0010
,
0100
0000
0000
1000
0000
0000
0010
0000
0000
0100
0000
0000
0010
0000
0000
0000
1000
0000
0000
0000
0001
0000
0000
0000
1000
0000
0000
0000
0000
0000
0000
0000
0100
0000
0000
0000
0010
0000
0000
0001
0000
0000
1000
0000
0000
0010
0000
0000
,
0100
0001
1000
0100
0010
0100
1000
0001
0100
0010
1000
0001
0100
0010
0100
0001
,
1000
0100
0010
0001
1000
0100
0010
0100
1000
0001
0100
0001
1000
0000
0000
0000
,
0000
0000
0000
0020
,
0000
0000
0000
0000
0000
0000
0130
0001
,
1000
0000
0100
0000
0010
0000
0001
0000
1000
0000
0010
1000
0001
0010
0100
0010
,
0001
0100
0010
0100
0001
0010
0100
1000
0010
0100
0001
1000
0001
0000
0010
0000
,
0100
0000
1000
0000
0001
0000
0100
0000
0010
0000
1000
0001
0010
0001
0010
0001
,
0010
0001
0010
0001
1000
0010
0100
0001
1000
0001
0100
0010
1000
0000
0001
0010
,
0100
1000
0100
0000
0010
0001
0010
0000
0001
1000
0001
1000
0001
0010
0100
1000
,
0010
1000
0100
0010
0001
0000
1000
0010
2000
0000
0000
0000
3001
0010
0001
0010
,
0100
1000
0010
0100
0001
1000
0010
1000
0010
1000
0001
0010
0001
0100
0010
1000
,
0010
1000
0100
0010
0001
0100
0010
1000
0001
0000
0010
0000
0100
1000
0001
0100
,
0010
1000
0010
1000
0001
0010
0001
0010
0100
1000
0100
1000
0001
0100
0010
1000
,
0100
0010
0001
0100
0010
1000
0100
1000
0001
0000
0010
0000
0100
1000
0010
0100
,
0001
0010
0100
1000
0010
1000
0001
0010
0100
0010
0001
1000
0010
0100
0001
0100
,
0010
1000
0100
0010
0001
1000
0100
1000
0001
0000
0000
0000
1000
0001
0010
0100
,
1000
0010
0100
0001
1000
0100
1000
0001
0100
0001
1000
0010
1000
0001
0010
0100
,
1000
0001
0100
0010
1000
0001
1000
0000
0001
0010
0100
1000
0001
0000
0010
0000
,
0012
0000
0000
0000
,
0000
0000
0000
0000
1003
0010
0100
0001
0010
0100
1000
0001
0100
0001
0100
0001
,
0010
0001
0010
0001
1000
0010
1000
0010
1000
0001
1000
0001
0100
0010
0100
0010
,
1000
0100
0010
0001
1000
0010
0100
0001
1000
0000
0001
0000
0000
0000
0000
0000
,
2002
0000
3003
0000
;

//--------------- dance-single - XMOD STR FS BU ----------------
#NOTEDATA:;
#STEPSTYPE:dance-single;
#DESCRIPTION:XMOD STR FS BU;
#DIFFICULTY:Edit;
#METER:19;
#RADARVALUES:0,0,0,0,0;
#CREDIT:Braeden & Evergreen;
#NOTES:
0000
0000
0000
0000
,
1001
0000
0000
0110
0000
0000
0100
1000
,
0001
0000
0100
0000
0010
0000
1000
0000
0001
0000
0010
0M00
0010
0000
0000
1000
,
0001
0010
0001
2001
0000
3001
0010
0001
,
1000
0010
1000
0000
0001
0100
0001
0000
1000
0100
1000
0000
0001
0010
0001
0000
,
1001
0000
0000
0120
0000
0130
1000
0001
,
1000
0000
0001
0010
0001
0000
2000
0000
0000
0000
3001
0100
0010
1000
0001
0010
,
0001
0000
1000
0010
0100
0001
1000
0001
0010
0000
0100
1000
0100
0010
0001
1000
,
0001
0010
0011
0011
0000
1001
0000
1100
,
0000
0000
1010
0000
0000
0000
1001
0000
0001
0000
0001
0000
1000
0010
0100
0001
,
1000
0100
0010
0001
1000
0010
0100
0001
1000
0001
0010
0001
1000
0000
0000
0000
,
1MM1
0000
0000
0000
0000
0000
0000
0000
22MM
0000
0000
0000
3300
0000
0000
0000
1000
0000
0001
0000
0010
0001
0010
0000
0001
0000
1000
0000
0010
0000
0100
0000
,
0001
0000
1000
0000
0000
0000
0000
0000
0001
1000
0000
0000
0001
0000
0100
0000
0001
0000
0001
0000
0000
0000
1000
0000
0100
0000
1000
0000
0010
0000
0100
0000
,
0001
0000
1000
0000
0001
1000
0001
0000
2002
0000
0000
0000
3003
0000
0000
0000
0001
0000
1000
0000
0010
0000
0010
0000
0000
0000
0110
0000
0000
0000
1001
0000
,
0000
0000
0001
1000
0001
1000
0001
1000
0MM1
0000
0000
0000
1000
0000
0000
0000
0001
0000
0000
0000
0010
0000
0000
0000
0000
0000
0000
0000
0100
0000
0000
0000
,
1000
0000
0100
0000
0000
0000
0010
0000
0000
0000
0001
0100
0010
0000
0000
0000
,
2010
0000
0000
0000
3001
0000
0000
0000
1000
0000
0001
0100
0010
0000
1000
0000
,
0001
0010
0100
0000
0000
0000
1000
0010
0100
0001
0100
0010
1000
0000
0001
0000
,
1000
0100
1000
0100
1000
0000
0000
0001
0000
0000
0010
0000
0001
0000
1000
0000
,
0100
1000
0200
0000
0300
0000
1000
0010
0100
0001
1000
0100
0010
0000
0001
0000
,
1000
0100
1000
0000
0004
0000
0000
0000
0013
0100
0010
0100
1000
0001
1000
0001
,
0100
0010
1000
0000
0000
0000
1010
0000
0000
0000
1002
0000
0000
0000
0103
0010
,
1000
0010
0100
0001
1000
0000
0000
0100
0000
0000
0010
0000
0000
0001
0000
0000
,
1000
0000
2001
0000
0000
0000
3100
0000
0000
0000
0010
0000
0020
0000
0000
0130
,
0000
0000
1000
0000
0002
0000
0000
0000
0013
0100
0010
0100
1000
0010
0100
0001
,
1000
0000
0000
0001
0000
0000
0010
0000
0000
0001
0000
0000
1000
0000
0000
0000
0000
0000
0000
0000
0100
0000
0000
0000
0000
0000
0000
0000
0010
0000
0000
0000
0000
0000
0000
0000
0001
0000
0000
0000
0000
0000
0000
0000
1000
0000
0000
0000
,
0000
0000
0000
0000
0100
0000
0000
0000
0000
0000
0000
0000
1000
0000
0000
0000
0000
0000
0010
0000
0000
0000
0000
0000
0100
0000
0000
0000
0000
0000
0001
0000
0000
0000
0000
0000
1000
0000
0000
0010
0000
0000
1000
0000
0000
0001
0000
0000
,
0010
0001
1000
0100
1000
0001
1000
0000
0001
0000
0100
0000
0010
0000
1000
0000
,
0001
0000
0010
0000
0001
1000
0001
1000
0001
0000
0000
0000
1001
0000
1000
0000
,
0100
0000
0010
0000
0001
0100
0001
0100
0001
0100
0001
0100
0001
0000
1000
0000
,
0100
0010
0001
1000
0000
0000
0001
0000
1001
0000
0000
1000
0000
0000
1100
0000
,
0000
0100
0010
0001
1000
0000
0010
0100
0001
0000
1000
0010
1000
0001
1000
0001
,
1000
0001
1000
0001
1000
0000
0010
0000
1000
0010
0100
0001
1000
0000
0100
0000
,
0010
0001
1000
0001
0010
0000
0000
0001
0000
0000
1000
0000
0001
0100
0010
1000
,
0001
0010
0100
1000
0001
0000
0100
0000
0010
0000
1000
0000
0001
0010
0001
1000
,
0010
1000
0001
0100
0010
1000
0010
0100
0001
1000
0100
0010
0001
1000
0010
0100
,
0001
1000
0010
1000
0002
0000
0003
0000
1001
0000
1000
0000
2200
0000
3300
0000
,
0100
0000
0010
0000
0100
0000
1000
0000
0001
0100
0010
1000
0001
0010
0100
1000
,
0001
0010
0001
0000
1000
0100
1000
0000
0001
0100
0010
0000
1000
0001
1000
0000
,
0001
0000
0000
0100
0000
0000
0010
0000
0000
0000
0000
0000
1000
0000
0000
0010
0000
0000
0100
0000
0000
0001
0000
0000
0010
0000
0000
0100
0000
0000
1000
0000
0000
0001
0000
0000
1000
0000
0000
0000
0001
0000
0000
0000
0010
0000
0000
0000
,
0001
0000
0000
0000
1000
0000
0000
0000
0001
0000
0000
0000
2000
0000
0000
0000
0000
0000
0000
0000
0000
0000
0000
0000
3010
0000
0000
0M00
0000
0000
0020
0000
0000
0000
0000
0000
0000
0000
0000
0000
0000
0000
0001
0000
0000
0000
0000
0000
,
0032
0000
0000
0000
0103
00M0
0200
0000
0000
0000
1300
0000
0001
0000
0100
0000
,
0001
0000
0100
0000
0001
0010
0001
0010
0100
1000
0100
1000
0001
0100
0010
1000
,
0001
0010
0100
1000
0001
0100
0001
1000
0100
1000
0001
0100
0001
1000
0100
0010
,
0100
1000
0001
0100
0002
0000
0000
0000
0103
00M0
0200
0000
0000
0000
1300
0000
,
2000
0000
0000
0000
3010
0M00
0020
0000
0000
0000
0031
0000
0100
0000
0010
0000
,
1000
0010
M22M
0000
0000
0000
0000
0000
,
0330
2000
0000
3002
,
0203
0320
0000
0000
,
0030
0000
0000
0000
0000
0000
0000
0000
M00M
0000
0000
0000
0000
0000
0000
0000
1000
0010
0100
0001
0010
0100
1000
0001
0100
0000
0000
0001
0000
0000
0010
0100
,
1000
0000
0000
0010
0000
0000
0100
0001
0010
0000
0000
0100
0000
0000
1000
0001
1000
0000
0010
0000
0100
0000
0010
0000
1000
0000
0000
0001
0000
0000
0010
0100
,
1000
0000
0000
0001
0000
0000
1000
0010
0100
0000
0001
0010
0000
0001
1000
0000
0010
0000
1000
0010
0100
0001
1000
0001
1000
0000
0000
0000
0100
0000
0000
0000
,
1000
0000
0001
0100
0001
0000
1000
0010
,
0100
0000
0001
0000
1000
0100
0010
0001
1000
0010
0100
0001
1000
0000
0100
1000
,
0100
0010
0001
0000
1000
0000
0001
0100
0010
1000
0001
0000
1001
0000
0000
0000
,
1000
0000
0000
0000
0100
0000
0000
0000
0010
0000
0000
0000
0001
0000
0000
0010
0000
0000
0100
0000
0000
1000
0000
0000
0010
0000
0000
0100
0000
0000
0001
0000
0000
1000
0000
0000
0010
0000
0000
0000
0000
0000
1000
0000
0000
0010
0000
0000
,
0100
0001
0010
0100
1000
0000
0010
1000
0000
0001
0010
0001
0100
0000
0010
1000
,
0010
0100
0001
0010
0100
1000
0001
0010
0001
0100
0010
1000
0001
0000
1000
0100
,
0010
0001
0100
0010
1000
0000
0001
0010
0100
1000
0001
1000
0100
0010
0001
1000
,
0010
0100
0001
1000
0100
0010
0100
0010
0100
0010
0100
0010
0001
0000
1000
0010
,
0100
0000
0000
0010
0000
0000
1000
0000
0000
0000
0000
0000
0001
0000
0000
0000
0000
0000
0010
0000
0000
0100
0000
0000
0000
0000
0000
1000
0000
0000
0001
0000
0000
0000
0000
0000
0100
0000
0000
0000
0000
0000
0001
0000
0010
0000
0100
0000
,
1000
0000
0000
0000
0000
0000
0001
0000
0100
0000
0010
0000
1000
0000
0000
0000
0000
0000
0001
0000
0000
0100
0000
0000
0010
0000
0000
0100
0000
0000
0001
0000
0000
1000
0000
0000
0100
0000
0000
0000
0000
0000
1000
0000
0000
0001
0000
0000
,
0100
0010
0100
0000
0010
0100
0001
1000
0001
0000
1000
0001
1000
0100
0010
0000
,
0100
0000
0000
0010
0000
0000
0001
0000
0000
1000
0000
0000
0010
0000
0000
0100
0000
0000
0001
0000
0000
1000
0000
0000
0100
0000
0000
0010
0000
0000
0001
0000
0000
1000
0000
0000
0001
0000
0000
0000
0010
0000
0000
0000
0001
0000
0000
0000
,
1000
0010
1000
0001
0100
0001
1000
0100
1000
0001
0010
0100
,
1000
0010
0100
0001
0100
0010
1000
0100
0010
1001
0000
0000
,
0000
0000
0110
0000
0000
0000
1000
0000
0010
0100
0001
0010
0100
1000
0001
0000
,
0100
0001
1000
0000
0001
0010
0100
1000
0010
0100
0001
0010
0011
0000
0000
0000
,
0000
0000
1100
0000
0000
0000
1000
0000
0010
1000
0001
0000
0010
0001
1000
0010
,
0100
0001
0010
0100
1000
0010
0100
0010
1000
0001
0100
0001
0101
0000
0000
0000
,
0000
0000
0000
0000
0000
0000
1010
0000
0000
0000
0000
0000
0000
0000
0000
0000
0000
0000
1000
0000
0000
0010
0000
0000
0100
0000
0000
0000
0000
0000
0001
0000
0000
0010
0000
0000
0100
0000
0000
0000
1000
0000
0000
0000
0001
0000
0000
0000
,
0100
0000
0000
0000
0001
0000
0000
0000
1000
0000
0000
0000
0010
0000
0000
0000
1000
0000
0000
0000
0001
0000
0000
0000
0010
0000
0000
0000
0001
0000
0000
0000
1000
0000
0000
0000
0010
0000
0000
0000
0000
0000
0100
0000
0000
0001
0000
0000
,
0100
0000
0001
0010
0001
0010
0100
1000
0010
0000
1000
0000
0010
0100
0001
0010
,
0001
0000
0100
0000
0010
0000
1000
0000
0100
0000
1000
0000
0001
0000
1000
0000
0020
0000
0000
0000
0130
0000
0000
0000
0001
0000
0000
0000
0010
000M
0010
0000
,
1000
0000
0001
0000
0000
0000
1000
0100
0010
0001
1000
0010
0100
0001
1000
0100
,
1000
0000
0001
0000
0100
0000
0001
0000
0010
0000
0100
0000
1000
0000
0001
0000
1000
0000
0010
0000
0100
0000
0001
0000
1000
0000
0000
0000
0010
M000
0010
0000
,
0001
0000
1000
0010
1000
0000
0001
0100
0001
0000
1000
0010
0100
0001
0010
0100
,
1000
0000
0010
0100
0001
0000
0010
0100
1000
0001
0100
0010
1000
0000
0001
0100
,
0000
0000
0001
0000
0010
0000
0100
0000
1000
0000
0000
0000
0100
0000
1000
0000
0000
0000
0010
0000
0100
0010
1000
0001
1000
0000
0100
0000
0010
0000
0001
0000
,
1000
0010
0100
0001
1000
0100
1000
0010
0100
0001
0010
0001
0011
0000
0000
0000
,
1001
0000
1010
0000
0000
0000
1100
0000
0000
0000
0101
0000
0000
0000
0001
0010
,
0100
0000
0000
1000
0000
0000
0010
0000
0000
0100
0000
0000
0010
0000
0000
0000
1000
0000
0000
0000
0001
0000
0000
0000
1000
0000
0000
0000
0000
0000
0000
0000
0100
0000
0000
0000
0010
0000
0000
0001
0000
0000
1000
0000
0000
0010
0000
0000
,
0100
0001
1000
0100
0010
0100
1000
0001
0100
0010
1000
0001
0100
0010
0100
0001
,
1000
0100
0010
0001
1000
0100
0010
0100
1000
0001
0100
0001
1000
0000
0000
0000
,
0000
0000
0000
0020
,
0000
0000
0000
0000
0000
0000
0130
0001
,
1000
0000
0100
0000
0010
0000
0001
0000
1000
0000
0010
1000
0001
0010
0100
0010
,
0001
0000
0000
0100
0000
0000
0010
0000
0000
0100
0000
0000
0001
0000
0000
0010
0000
0000
0100
0000
0000
1000
0000
0000
0010
0000
0000
0100
0000
0000
0001
0000
1000
0000
0001
0000
1000
0000
0000
0000
0000
0000
0010
0000
0000
0000
0000
0000
,
0100
0000
0001
0000
1000
0000
0100
0000
0010
0000
0001
1000
0010
1000
0010
1000
,
0010
1000
0010
1000
0001
0010
0100
1000
0001
1000
0100
0010
0001
0000
1000
0010
,
0100
0000
0001
0000
0100
0000
0001
0000
0000
0000
0000
0000
1000
0000
0100
0000
1000
0000
0100
0000
0000
0000
0000
0000
0010
0000
0001
0000
0010
0000
0001
0000
0000
0000
0000
0000
1000
0000
0000
0010
0000
0000
0100
0000
0000
0001
0000
0000
,
0010
0001
0100
0010
1000
0000
0001
0010
0002
0000
0000
0000
1003
0010
1000
0010
,
0100
0001
0010
0100
1000
0001
0010
0001
0010
0001
1000
0010
1000
0100
0010
0001
,
0010
0001
0100
0010
1000
0100
0010
0001
1000
0000
0010
0000
0100
0001
1000
0100
,
0010
0001
0010
0001
1000
0010
1000
0010
0100
0001
0100
0001
1000
0100
0010
0001
,
0100
0010
1000
0100
0010
0001
0100
0001
1000
0000
0010
0000
0100
0001
0010
0100
,
1000
0010
0100
0001
0010
0001
1000
0010
0100
0010
1000
0001
0010
0100
1000
0100
,
0010
0000
0000
0000
0000
0000
0000
0000
0000
0000
0000
0000
0001
0000
0000
0000
0000
0000
0000
0000
0000
0000
0000
0000
0100
0000
0000
0000
0000
0000
0000
0000
0000
0000
0000
0000
0010
0000
0000
0000
0000
0000
0000
0000
0000
0000
0000
0000
1000
0000
0000
0000
0000
0000
0000
0000
0000
0000
0000
0000
0001
0000
0000
0000
0000
0000
0000
0000
0000
0000
0000
0000
0100
0000
0000
0000
0000
0000
0000
0000
0000
0000
0000
0000
0001
0000
0000
0000
0000
0000
0000
0000
0000
0000
0000
0000
1000
0000
0000
0000
0000
0000
0000
0000
0000
0000
0000
0000
0000
0000
0000
0000
0000
0000
0000
0000
0000
0000
0000
0000
0000
0000
0000
0000
0000
0000
0000
0000
0000
0000
0000
0000
0000
0000
0000
0000
0000
0000
0000
0000
0000
0000
0000
0000
0001
0000
0000
0000
0000
0000
0000
0000
0000
0000
0010
0000
0000
0000
0000
0000
0000
0000
0000
0100
0000
0000
0000
0000
0000
0000
0000
0000
0000
1000
0000
0000
0000
0000
0000
0000
0000
0000
0001
0000
0000
0000
0000
0000
0000
0000
0000
0000
,
0100
0000
0000
0000
0000
0000
0000
0000
0000
0000
0010
0000
0000
0000
0000
0000
0000
0000
0000
1000
0000
0000
0000
0000
0000
0000
0000
0000
0000
0001
0000
0000
0000
0000
0000
0000
0000
0000
0010
0000
0000
0000
0000
0000
0000
0000
0000
0000
0001
0000
0000
0000
0000
0000
0000
0000
0000
0000
1000
0000
0000
0000
0000
0000
0000
0000
0000
0010
0000
0000
0000
0000
0000
0000
0000
0000
0000
1000
0000
0000
0000
0000
0000
0000
0000
0000
0001
0000
0000
0000
0000
0000
0000
0000
0000
0000
0100
0000
0000
0000
0000
0000
0000
0000
0000
0000
0001
0000
0000
0000
0000
0000
0000
0000
0000
0010
0000
0000
0000
0000
0000
0000
0000
0000
0000
0100
0000
0000
0000
0000
0000
0000
0000
0000
1000
0000
0000
0000
0000
0000
0000
0000
0000
0000
0010
0000
0000
0000
0000
0000
0000
0000
0000
0000
0100
0000
0000
0000
0000
0000
0000
0000
0000
0001
0000
0000
0000
0000
0000
0000
0000
0000
0000
1000
0000
0000
0000
0000
0000
0000
0000
0000
0100
0000
0000
0000
0000
0000
0000
0000
0000
0000
,
1000
0000
0000
0000
0000
0000
0000
0000
0000
0000
0010
0000
0000
0000
0000
0000
0000
0000
0000
0100
0000
0000
0000
0000
0000
0000
0000
0000
0000
0001
0000
0000
0000
0000
0000
0000
0000
0000
1000
0000
0000
0000
0000
0000
0000
0000
0000
0000
0100
0000
0000
0000
0000
0000
0000
0000
0000
0000
0010
0000
0000
0000
0000
0000
0000
0000
0000
0001
0000
0000
0000
0000
0000
0000
0000
0000
0000
1000
0000
0000
0000
0000
0000
0000
0000
0000
0100
0000
0000
0000
0000
0000
0000
0000
0000
0000
1000
0000
0000
0000
0000
0000
0000
0000
0000
0000
0000
0000
0010
0000
0000
0000
0000
0000
0000
0000
0000
0000
0000
0000
0100
0000
0000
0000
0000
0000
0000
0000
0000
0000
0000
0000
0001
0000
0000
0000
0000
0000
0000
0000
0000
0000
0000
0000
1000
0000
0000
0000
0000
0000
0000
0000
0000
0000
0000
0000
0000
0000
0000
0000
0000
0000
0000
0000
0000
0000
0000
0000
0010
0000
0000
0000
0000
0000
0000
0000
0000
0000
0000
0000
0000
0000
0000
0000
0000
0000
0000
0000
0000
0000
0000
0000
,
2010
0000
0000
0000
,
0000
0000
0000
0000
0000
0000
0000
0000
0000
0000
0000
0000
0000
0000
0000
0000
0000
0000
0000
0000
0000
0000
0000
0000
0000
0000
0000
0000
0000
0000
0000
0000
0000
0000
0000
0000
0000
0000
0000
0000
0000
0000
0000
0000
0000
0000
0000
0000
3001
0000
0000
0000
0000
0000
0000
0000
0000
0000
0000
0000
0010
0000
0000
0000
0000
0000
0000
0000
0000
0000
0000
0000
0100
0000
0000
0000
0000
0000
0000
0000
0000
0000
0000
0000
1000
0000
0000
0000
0000
0000
0000
0000
0000
0000
0000
0000
0010
0000
0000
0000
0000
0000
0000
0000
0000
0000
0000
0000
0100
0000
0000
0000
0000
0000
0000
0000
0000
0000
0000
0000
0001
0000
0000
0000
0000
0000
0000
0000
0000
0000
0000
0000
1000
0000
0000
0000
0000
0000
0000
0000
0000
0000
0000
0000
0100
0000
0000
0000
0000
0000
0000
0000
0000
0000
1000
0000
0000
0000
0000
0000
0000
0000
0000
0100
0000
0000
0000
0000
0000
0000
0000
0000
0000
1000
0000
0000
0000
0000
0000
0000
0000
0000
0010
0000
0000
0000
0000
0000
0000
0000
0000
0000
,
0100
0000
0000
0000
0000
0000
0000
0000
0000
0000
0010
0000
0000
0000
0000
0000
0000
0000
0000
0100
0000
0000
0000
0000
0000
0000
0000
0000
0000
0001
0000
0000
0000
0000
0000
0000
0000
0000
0010
0000
0000
0000
0000
0000
0000
0000
0000
0000
0001
0000
0000
0000
0000
0000
0000
0000
0000
0000
0010
0000
0000
0000
0000
0000
0000
0000
0000
0001
0000
0000
0000
0000
0000
0000
0000
0000
0000
1000
0000
0000
0000
0000
0000
0000
0000
0000
0001
0000
0000
0000
0000
0000
0000
0000
0000
0000
1000
0000
0000
0000
0000
0000
0000
0000
0000
0000
0100
0000
0000
0000
0000
0000
0000
0000
0000
0010
0000
0000
0000
0000
0000
0000
0000
0000
0000
0001
0000
0000
0000
0000
0000
0000
0000
0000
1000
0000
0000
0000
0000
0000
0000
0000
0000
0000
0010
0000
0000
0000
0000
0000
0000
0000
0000
0000
0100
0000
0000
0000
0000
0000
0000
0000
0000
0001
0000
0000
0000
0000
0000
0000
0000
0000
0000
1000
0000
0000
0000
0000
0000
0000
0000
0000
0100
0000
0000
0000
0000
0000
0000
0000
0000
0000
,
0010
0000
0000
0000
0000
0000
0000
0000
0000
0000
0100
0000
0000
0000
0000
0000
0000
0000
0000
1000
0000
0000
0000
0000
0000
0000
0000
0000
0000
0001
0000
0000
0000
0000
0000
0000
0000
0000
0100
0000
0000
0000
0000
0000
0000
0000
0000
0000
0001
0000
0000
0000
0000
0000
0000
0000
0000
0000
1000
0000
0000
0000
0000
0000
0000
0000
0000
0010
0000
0000
0000
0000
0000
0000
0000
0000
0000
0100
0000
0000
0000
0000
0000
0000
0000
0000
0010
0000
0000
0000
0000
0000
0000
0000
0000
0000
1000
0000
0000
0000
0000
0000
0000
0000
0000
0000
0000
0000
0000
0000
0000
0000
0000
0000
0000
0000
0000
0000
0000
0000
0001
0000
0000
0000
0000
0000
0000
0000
0000
0000
0000
0000
0000
0000
0000
0000
0000
0000
0000
0000
0000
0000
0000
0000
0000
0000
0000
0000
0000
0000
0000
0000
0000
0000
0000
0000
0000
0000
0000
0000
0000
0000
0000
0000
0000
0000
0000
0000
0000
0000
0000
0000
0000
0000
0000
0000
0000
0000
0000
0000
0000
0000
0000
0000
0000
0000
0000
0000
0000
0000
0000
0000
,
2002
0000
3003
0000
;
