#TITLE:Story from North America;
#SUBTITLE:Part 2;
#ARTIST:Garrett Davis;
#TITLETRANSLIT:;
#SUBTITLETRANSLIT:;
#ARTISTTRANSLIT:;
#GENRE:;
#CREDIT:Venomothim;
#BANNER:banner.png;
#BACKGROUND:Story from North America Pt 2-bg.png;
#LYRICSPATH:;
#CDTITLE:;
#MUSIC:Story from North America Pt 2.ogg;
#OFFSET:0.539112;
#SAMPLESTART:1.026299;
#SAMPLELENGTH:14.619987;
#SELECTABLE:YES;
#DISPLAYBPM:*;
#BPMS:0.000000=133.279999
,20.000000=133.000000
,24.000000=133.830002
,34.000000=132.360001
,38.000000=128.479996
,40.000000=133.220001
,48.000000=135.190002
,52.000000=134.000000
,64.000000=130.820007
,70.000000=130.000000
,78.000000=126.199997
,82.000000=134.860001
,84.000000=133.619995
,93.000000=135.270004
,95.000000=132.119995
,101.000000=135.839996
,108.000000=129.240005
,112.000000=132.000000
,122.000000=134.000000
,126.000000=130.000000
,128.000000=133.000000
,132.000000=135.000000
,136.000000=132.000000
,149.000000=137.000000
,152.000000=133.740005
,156.000000=137.000000
,160.000000=131.000000
,164.000000=128.300003
,170.000000=148.000000
,172.000000=134.000000
,181.000000=133.000000
,185.000000=131.000000
,192.000000=134.000000
,196.000000=136.000000
,204.000000=134.000000
,212.000000=136.000000
,216.000000=130.000000
,220.000000=140.000000
,222.000000=134.000000
,224.000000=138.000000
,228.000000=130.000000
,232.000000=134.000000
,240.000000=10.310000
;
#STOPS:
;
#BGCHANGES:0.000=Story from North America Pt 2.avi=1.000=0=0=0=StretchNoLoop====,
99999=-nosongbg-=1.000=0=0=0 // don't automatically add -songbackground-
;
#KEYSOUNDS:;
#ATTACKS:;

//---------------dance-single - ----------------
#NOTES:
     dance-single:
     :
     Beginner:
     1:
     0.089963,0.146838,0.024221,0.000000,0.000000,78.000000,75.000000,3.000000,0.000000,1.000000,0.000000,0.089963,0.146838,0.024221,0.000000,0.000000,78.000000,75.000000,3.000000,0.000000,1.000000,0.000000:
0000
0000
0000
0000
,
1000
0000
1000
0000
,
0001
0000
0001
0000
,
0100
0000
0100
0000
,
0010
0000
0010
0000
,
0000
0000
0100
0000
,
0100
0000
0000
0000
,
0000
0000
0000
0000
,
0000
0000
0000
0000
,
0001
0000
0001
0000
,
1000
0000
1000
0000
,
0100
0000
0100
0000
,
0010
0000
0010
0000
,
0000
0000
0000
0000
,
0000
0000
0000
0000
,
0000
0000
0000
0000
,
0000
0000
0000
0000
,
1000
0000
1000
0000
,
0001
0000
0001
0000
,
0100
0000
0100
0000
,
0010
0000
0010
0000
,
1001
0000
0000
0000
,
0000
0000
0000
0000
,
0001
0000
0001
0000
,
1000
0000
1000
0000
,
0100
0000
0100
0000
,
0010
0000
0010
0000
,
0000
0000
0000
0000
,
0000
0000
0000
0000
,
0000
0000
0000
0000
,
0000
0000
0000
0000
,
0001
0000
0001
0000
,
1000
0000
1000
0000
,
0010
0000
0010
0000
,
0100
0000
0100
0000
,
0000
0000
0010
0000
,
0010
0000
0000
0000
,
0000
0000
0000
0000
,
0000
0000
0000
0000
,
1000
0000
1000
0000
,
0001
0000
0001
0000
,
0010
0000
0010
0000
,
0100
0000
0010
0000
,
1001
0000
0000
0000
,
0000
0000
0000
0000
,
0001
0000
0001
0000
,
1000
0000
1000
0000
,
0010
0000
0100
0000
,
0010
0000
0100
0000
,
0000
0000
0000
0000
,
0000
0000
0000
0000
,
0000
0000
0000
0000
,
0000
0000
0000
0000
,
0001
0000
0001
0000
,
1000
0000
1000
0000
,
0100
0000
0100
0000
,
0010
0000
0010
0000
,
0000
0000
0000
0100
,
0100
0000
0000
0000
,
0010
0000
0100
0000
,
1001
0000
0000
0000
0000
M000
0000
0000
;

//---------------dance-single - ----------------
#NOTES:
     dance-single:
     :
     Easy:
     4:
     0.162625,0.195784,0.088809,0.072662,0.000000,141.000000,130.000000,11.000000,9.000000,1.000000,0.000000,0.162625,0.195784,0.088809,0.072662,0.000000,141.000000,130.000000,11.000000,9.000000,1.000000,0.000000:
0000
0000
0000
0000
,
1000
1000
1000
0000
,
0001
0001
0001
0000
,
0100
0000
0010
0000
,
0110
0000
1001
0000
,
0000
0000
0001
0000
,
0002
0000
0000
0003
,
0000
0000
0000
0000
,
0000
0000
0000
0000
,
1000
0100
1000
0100
,
0010
0001
1000
0000
,
0001
0001
1000
1000
,
0010
0000
0100
0000
0002
0000
0000
0003
,
1000
0000
1000
0000
,
0001
0000
0001
0000
,
0100
0000
0100
0000
,
0010
0000
0010
0000
,
1000
0100
1000
0000
,
0001
0100
0001
0000
,
0010
0000
0100
0000
,
1001
0000
0110
0000
,
2002
0000
3003
0000
,
0000
0000
0000
0000
,
1000
0000
0000
1000
0000
0000
0000
0000
,
0001
0000
0000
0001
0000
0000
0000
0000
,
1000
0000
0000
0010
0000
0000
0100
0000
,
0001
0001
1000
0000
,
0001
0000
0010
0000
,
0001
0000
0010
0000
,
0100
0000
1000
0000
,
0F00
0000
1000
0000
,
0001
0100
0001
0100
,
0010
0000
1000
0000
,
0001
0000
1000
0000
,
0100
0000
0010
0000
,
0000
0000
0110
0000
,
1001
0000
0001
0000
,
1000
0000
1000
0000
,
0010
0000
0100
0000
,
0010
1000
0100
0000
,
0010
0001
0100
0000
,
0001
0000
1000
0000
,
0110
0000
0110
0000
,
1001
0000
0001
0000
,
1000
0000
1000
0000
,
0010
1000
0010
0000
,
0100
0001
0100
0000
,
0001
0010
0001
0010
,
0100
0010
0200
0300
,
1000
0000
1000
0000
,
0001
0000
0001
0000
,
0100
0000
0100
0000
,
0010
0000
0010
0000
,
1000
0100
1000
0000
,
0001
0100
0001
0000
,
0010
0000
0100
0000
,
0010
0000
0020
0000
,
0030
0000
0001
1000
,
2000
0000
3000
0000
,
0010
0000
0100
0000
,
2002
0000
0000
0000
0000
0000
0000
0000
0000
0000
0000
0000
0000
0000
0000
0000
0000
0000
0000
3003
M000
0000
0000
0000
0000
0000
0000
0000
0000
0000
0000
0000
;

//---------------dance-single - ----------------
#NOTES:
     dance-single:
     :
     Medium:
     8:
     0.261814,0.269203,0.016147,0.177618,0.000000,227.000000,225.000000,2.000000,22.000000,1.000000,0.000000,0.261814,0.269203,0.016147,0.177618,0.000000,227.000000,225.000000,2.000000,22.000000,1.000000,0.000000:
0000
0000
0000
0000
0000
0000
0000
0001
,
1000
1000
1000
0000
,
0100
0000
0100
0000
0100
0000
0000
0010
,
0100
1000
0001
0100
,
0010
1000
0200
0300
,
0010
0000
0010
0000
0001
0000
0000
0001
,
1000
1000
0010
0000
,
0010
0100
0010
0100
,
0001
0001
1000
0000
,
0001
0000
0010
0000
0100
1000
0100
1000
,
0001
0000
0000
0001
0000
0000
1000
0000
,
0010
0000
0100
0010
0000
0100
0000
0001
,
0000
1000
0000
2000
0000
0000
3000
0000
,
0100
0100
1000
1000
,
0010
0010
0100
0100
,
0001
0001
1000
1000
,
0100
0100
1000
0000
,
0001
0000
0010
0001
0000
0001
0000
0000
,
1000
0000
0010
0100
0000
0000
0000
0000
,
0010
0000
0000
1000
0000
0000
0000
0100
,
0020
0000
0000
1000
2000
0000
3000
0000
,
0031
0001
0100
0100
,
0010
0010
1000
1000
,
0001
0000
0010
2000
0000
0000
3000
0000
,
0001
0000
0100
2000
0000
0000
3000
0000
,
0001
0000
0100
0020
0000
0000
1030
0200
,
0000
0000
0010
0020
0000
0000
0330
0000
,
0001
0001
1000
1000
,
0010
0010
0100
0100
,
0001
0001
1000
0000
1000
1000
0001
0000
,
0F00
0010
0100
0010
,
1000
0000
1000
0000
0100
0000
1000
0010
,
0200
0000
0300
0200
0000
0000
0300
0000
,
0002
0000
0003
0002
0000
0000
0003
1000
,
0010
0000
0000
0100
0000
0000
0001
0000
,
1000
0000
0100
0000
0110
0000
0000
0010
,
0010
0001
1000
0010
,
1000
1000
0100
0100
,
0010
0010
0001
0000
,
1000
0000
0100
2000
0000
0000
3000
0000
,
0001
0000
0100
0002
0000
0000
0003
0000
,
0200
0000
0000
1000
0000
0000
0000
0010
,
0320
0000
0000
0001
0001
0000
0000
1030
,
0001
0001
1000
1000
,
0100
0100
0010
0010
,
0001
0000
0100
1000
0000
0200
0000
0000
,
0301
0000
0010
1000
0000
0020
0000
0000
,
0031
0000
1000
0010
0000
1000
0100
0020
,
0000
0000
1000
1000
0000
0031
0000
0000
,
0001
0001
1000
1000
,
0010
0010
0100
0100
,
0001
1000
0001
0000
1000
0001
1000
0000
,
0100
0100
0010
0010
,
0001
0000
1000
0010
0000
0010
1000
0000
,
0100
0000
0010
0001
0000
0100
0010
0000
,
1000
0000
0100
0000
1000
0000
0000
0010
,
0100
0000
0100
0001
0000
0000
0000
0000
,
1000
0001
1000
0001
,
0100
0010
0100
0010
,
1000
0100
0010
0001
,
2002
0000
0000
0000
0000
0000
0000
0000
0000
0000
0000
0000
0000
0000
0000
0000
0000
0000
0000
3003
M000
0000
0000
0000
0000
0000
0000
0000
0000
0000
0000
0000
;

//---------------dance-single - ----------------
#NOTES:
     dance-single:
     :
     Hard:
     11:
     0.429052,0.440514,0.080736,0.234133,0.000000,372.000000,362.000000,10.000000,29.000000,1.000000,0.000000,0.429052,0.440514,0.080736,0.234133,0.000000,372.000000,362.000000,10.000000,29.000000,1.000000,0.000000:
// measure 0
0000
0000
0000
0000
0000
0000
0000
0001
,  // measure 1
1000
0100
1000
0100
0010
0001
0010
0000
,  // measure 2
0001
0000
0100
0010
0000
0010
0100
0001
,  // measure 3
0010
0100
1000
0001
0000
1000
0010
0200
,  // measure 4
0000
1000
0000
0302
0000
0000
1003
0000
,  // measure 5
0001
0000
0010
0000
0100
1000
0000
1000
,  // measure 6
0010
0000
0100
0001
0000
0001
0000
1000
,  // measure 7
0100
0010
0100
0010
0001
1000
0001
1000
,  // measure 8
0010
0100
0010
0100
0001
1000
0001
0000
,  // measure 9
2000
0000
3100
0010
0001
0100
0010
0100
,  // measure 10
0002
0000
1000
2003
0000
0000
3010
0000
,  // measure 11
0200
0000
1000
0302
0000
0010
0000
0203
,  // measure 12
0000
1000
0000
0002
0000
0000
0303
0000
,  // measure 13
1000
0001
1000
0001
0010
0100
0010
0100
,  // measure 14
1000
0001
1000
0001
0100
0010
0100
0010
,  // measure 15
1000
1000
0010
0010
0100
0100
0001
0001
,  // measure 16
1000
0001
1000
0001
0010
0010
0100
0100
,  // measure 17
1000
0000
1000
0100
0000
0100
1000
0000
,  // measure 18
0001
0100
0010
1000
0001
0000
0000
0000
,  // measure 19
1000
0000
0100
0010
0000
0010
0001
0100
,  // measure 20
0210
0000
0000
0301
2001
0000
0000
3000
,  // measure 21
0011
1000
0001
1000
0010
0100
0010
0100
,  // measure 22
0001
1000
0100
1000
0001
0010
0001
0000
,  // measure 23
1000
0010
0001
0100
1000
0000
1100
0000
,  // measure 24
0001
0010
1000
0100
0001
0000
0101
0000
,  // measure 25
0001
0100
1000
0200
0000
0301
0010
2000
,  // measure 26
0000
3010
0001
0100
0010
0000
1010
0000
,  // measure 27
0001
0100
0001
0100
0010
1000
0010
1000
,  // measure 28
0100
1000
0100
0010
0001
0010
0001
1000
,  // measure 29
0010
1000
0010
0100
0001
0100
0001
F000
,  // measure 30
000F
1000
0010
1000
0100
1000
0100
0010
,  // measure 31
0001
0000
1000
0000
0010
0100
0010
0100
,  // measure 32
0002
0000
0010
0023
0000
0000
0130
0000
,  // measure 33
2000
0000
0010
3010
0000
0100
0001
0100
,  // measure 34
0001
0000
0010
0100
0000
1000
0001
0000
,  // measure 35
0100
0000
0010
0000
0110
0000
0000
0001
,  // measure 36
1000
0000
1000
0100
0000
0100
0000
0010
,  // measure 37
0100
1000
0100
1000
0001
1000
0001
1000
,  // measure 38
0010
0100
0010
0100
0001
1000
0001
0000
,  // measure 39
2000
0000
0010
3001
0000
0010
1000
0010
,  // measure 40
0002
0000
0100
1003
0000
0100
0001
0100
,  // measure 41
2000
0000
0001
3001
0000
0100
0010
0100
,  // measure 42
0101
0000
0000
0001
1010
0000
0000
1000
,  // measure 43
0011
0001
1000
1000
0100
0100
0010
0010
,  // measure 44
0001
0001
1000
1000
0010
0010
0100
0100
,  // measure 45
0001
0100
1000
0200
0000
0320
0000
0000
,  // measure 46
1030
0100
0001
0200
0000
0320
0000
0030
,  // measure 47
0002
0000
0100
0100
0000
1003
0100
2000
,  // measure 48
0000
0000
0010
0010
0000
0002
0000
3003
,  // measure 49
0001
1000
0001
1000
0010
0100
0010
0100
,  // measure 50
0001
0010
0001
0010
0100
1000
0100
1000
,  // measure 51
0001
0001
1000
1000
0010
0010
0100
0100
,  // measure 52
0010
1000
0010
1000
0001
0100
0001
0100
,  // measure 53
0001
0000
1000
0100
0000
0100
0001
0100
,  // measure 54
0010
0000
0010
0001
0000
0001
1000
0000
,  // measure 55
0010
0100
0010
0100
0002
0000
0000
1003
,  // measure 56
0100
1000
0100
0002
0000
0000
0103
0000
,  // measure 57
1000
0000
0010
0100
0000
0100
0001
0000
,  // measure 58
0010
0000
0100
0010
0000
0010
0001
0000
,  // measure 59
1000
0010
1000
0010
0100
0001
0100
0001
,  // measure 60
2000
0000
0000
0000
0000
0000
0000
0000
0000
0000
0000
0000
0000
0000
0000
0000
0000
0000
0000
3000
M000
0000
0000
0000
0000
0000
0000
0000
0000
0000
0000
0000
;
