#TITLE:Story from North America;
#SUBTITLE:Part 1;
#ARTIST:Garrett Davis;
#TITLETRANSLIT:;
#SUBTITLETRANSLIT:;
#ARTISTTRANSLIT:;
#GENRE:;
#CREDIT:;
#BANNER:banner.png;
#BACKGROUND:Story from North America Pt 1-bg.png;
#LYRICSPATH:Story from North America Pt 1.lrc;
#CDTITLE:;
#MUSIC:Story from North America Pt 1.ogg;
#OFFSET:1.631000;
#SAMPLESTART:18.652081;
#SAMPLELENGTH:17.040007;
#LASTBEATHINT:1.410706;
#SELECTABLE:YES;
#DISPLAYBPM:*;
#BPMS:0.000000=134.016006
,4.000000=87.000000
,8.000000=166.000000
,12.000000=157.000000
,16.000000=154.000000
,24.000000=150.000000
,44.000000=145.000000
,48.000000=140.000000
,56.000000=144.000000
,60.000000=141.000000
,68.000000=146.000000
,72.000000=139.000000
,80.000000=140.000000
,88.000000=143.000000
,92.000000=141.000000
,104.000000=139.000000
,128.000000=138.000000
,140.000000=134.000000
,144.000000=140.550003
,156.000000=128.000000
,160.000000=130.000000
,164.000000=133.000000
,176.000000=138.000000
,184.000000=132.000000
,200.000000=136.000000
,217.000000=123.000000
,218.000000=136.000000
,220.000000=132.000000
,227.000000=131.000000
,232.000000=134.000000
,240.000000=128.000000
,248.000000=131.000000
,256.000000=135.000000
,260.000000=131.000000
,276.000000=142.000000
,279.000000=133.000000
,296.000000=138.000000
,300.000000=134.000000
,308.000000=132.000000
,320.000000=128.000000
,324.000000=125.999992
,328.000000=138.000000
;
#STOPS:
;
#BGCHANGES:4.000=Story from North America Pt 1.avi=1.000=0=0=1=====,
99999=-nosongbg-=1.000=0=0=0 // don't automatically add -songbackground-
;
#KEYSOUNDS:;
#ATTACKS:;

//---------------dance-single - ----------------
#NOTES:
     dance-single:
     :
     Beginner:
     3:
     0.100252,0.197925,0.047693,0.088572,0.000000,103.000000,96.000000,7.000000,13.000000,0.000000,0.000000,0.100252,0.197925,0.047693,0.088572,0.000000,103.000000,96.000000,7.000000,13.000000,0.000000,0.000000:
0000
0000
0000
0000
,
0000
0000
0000
0000
,
0000
0000
0000
0000
,
0000
0000
0000
0000
,
1000
0000
1000
0000
,
0001
0000
0200
0000
,
0300
0000
0000
0000
,
0000
0000
0000
0000
,
0000
0000
0000
0000
,
0000
0000
0000
0000
,
0000
0000
0000
0000
,
0000
0000
0000
0000
,
1000
0000
1000
0000
,
0001
0000
0000
0000
,
0100
0000
0100
0000
,
0020
0030
0020
0000
,
0030
0000
0000
0000
,
0000
0000
0000
0000
,
1000
0000
1000
0000
,
0001
0000
0001
0000
,
0010
0000
0010
0000
,
0100
0000
0200
0000
,
0300
0000
0000
0000
,
0000
0000
0000
0000
,
0000
0000
0000
0000
,
0000
0000
0000
0000
,
1000
0000
1000
0000
,
0001
0000
0001
0000
,
1001
0000
0000
0000
,
0010
0000
1001
0000
,
0000
0000
0000
0000
,
0000
0000
0000
0000
,
1000
0000
1000
0000
,
0010
0000
0010
0000
,
0100
0000
0001
0000
,
0100
0000
0001
0000
,
0000
0000
1000
0000
,
1000
0000
0000
0000
,
0001
0000
0002
0003
,
0000
0000
0000
0000
,
1000
0000
1000
0000
,
0100
0000
0100
0000
,
0010
0000
0010
0000
,
1001
0000
1001
0000
,
0000
0000
0000
0000
,
0000
0000
0000
0000
,
0001
0000
0001
0000
,
0100
0000
0100
0000
,
0010
0000
0010
0000
,
0100
0000
0020
0000
,
0030
0000
0000
0000
,
0000
0000
0000
0000
,
0000
0000
0000
0000
,
0000
0000
0000
0000
,
1000
0000
1000
0000
,
0001
0000
0000
0000
,
0100
0000
0100
0000
,
0010
0000
0020
0000
,
0030
0000
0100
0000
,
0100
0000
0001
0000
,
1001
0000
0000
0001
,
0002
0003
0000
0000
,
1000
0000
1000
0000
,
0100
0000
0100
0000
,
1000
0000
0001
0000
,
1000
0000
0001
0000
,
0000
0000
0100
0000
,
0200
0000
0300
0100
,
0200
0000
0000
0000
,
0300
0000
0000
0000
,
0001
0000
0001
0000
,
1000
0000
1000
0000
,
0100
0000
0100
0000
,
0010
0000
0020
0000
,
0030
0000
0000
0000
,
0000
0000
0000
0000
,
0000
0000
0000
0000
,
0000
0000
0000
0000
,
0001
0000
0001
0000
,
2000
0000
3000
0000
,
0020
0000
0030
0000
,
0100
0000
1001
0000
,
0001
0000
1000
0000
,
1001
0000
0000
0000
;

//---------------dance-single - ----------------
#NOTES:
     dance-single:
     :
     Easy:
     6:
     0.246250,0.314772,0.081759,0.102199,0.000000,253.000000,241.000000,12.000000,15.000000,0.000000,0.000000,0.246250,0.314772,0.081759,0.102199,0.000000,253.000000,241.000000,12.000000,15.000000,0.000000,0.000000:
0000
0000
0000
0000
,
0000
0000
0000
0000
,
0000
0000
0000
0000
,
0000
0000
0000
0000
,
1000
0001
0100
0000
,
0010
0100
0001
0000
,
0010
0100
1000
0000
,
0010
1000
0001
0000
,
1000
1000
1000
0000
,
0001
0001
0001
0000
,
0100
0100
0100
0100
,
0010
0010
0010
0000
,
1000
0100
1000
0100
,
0020
0030
0020
0030
,
0002
0000
0103
0100
,
0002
0003
2000
3000
,
0100
0100
1000
1000
,
0010
0010
0100
0100
,
0001
0001
1000
1000
,
0001
0001
0001
0000
,
1000
1000
0010
0010
,
0100
0100
0002
0003
,
0001
0001
1000
1000
,
0010
0010
0100
0100
,
0010
1000
0001
0001
,
1000
1000
0100
0000
,
1000
0001
0100
0010
,
1000
0100
0010
0000
,
0110
0000
0000
0000
,
0011
0000
1100
0000
,
0001
0001
1000
1000
,
0010
0010
0100
0000
,
0010
0010
1000
1000
,
0001
0001
0100
0000
,
0001
0010
0100
1000
,
0010
0100
0001
0000
,
1000
0000
0001
0001
,
0100
0000
0010
0000
,
1010
0000
0101
0000
,
1000
0000
0000
0000
,
0001
0001
0010
0010
,
0100
0100
1000
0000
,
0010
1000
0100
0000
,
0110
0000
1001
0000
,
1000
1000
0010
0010
,
0100
0100
0001
0000
,
1000
0100
1000
0100
,
0010
0001
0010
0000
,
0001
0001
1000
0000
,
0010
0010
0100
0000
,
0001
1000
0001
0001
,
1000
0001
1000
1000
,
0010
0100
0010
0010
,
0100
0010
0100
0000
,
0001
1000
0100
1000
,
0010
0000
0100
0000
,
0001
0010
0100
0000
,
1000
0000
1000
0000
,
0001
1000
0010
0100
,
0001
0010
0100
0110
,
2002
0000
3003
0001
,
2000
0000
3000
0000
,
0001
0001
1000
0010
,
0100
0100
0010
0000
,
1000
0100
1000
0000
,
0001
0100
0001
0000
,
0010
0000
0001
0001
,
0100
0100
0010
0010
,
1000
0000
1000
0000
,
0001
0000
0001
0000
,
1000
0100
1000
0010
,
0100
0001
0010
0000
,
0100
0010
0001
0100
,
0010
0000
0010
0000
,
0100
0000
0100
0000
,
0001
0000
0001
0000
,
1000
0000
1000
0000
,
0001
0000
0001
0000
,
1000
0100
1000
0010
,
0200
0300
0200
0300
,
0002
0003
2000
3000
,
0110
0000
1001
0000
,
0001
0010
0100
1000
,
0220
0000
0000
0000
,
0330
0000
0000
0000
;

//---------------dance-single - ----------------
#NOTES:
     dance-single:
     :
     Medium:
     8:
     0.319249,0.372003,0.088572,0.245277,0.000000,328.000000,315.000000,13.000000,36.000000,0.000000,0.000000,0.319249,0.372003,0.088572,0.245277,0.000000,328.000000,315.000000,13.000000,36.000000,0.000000,0.000000:
0000
0000
0000
0000
,
0000
0000
0000
0000
,
0000
0000
0000
0000
,
0000
0000
0000
0000
,
1000
0000
0100
0000
1000
0100
1000
0000
,
0001
0000
0100
0000
0001
0100
0001
0000
,
1000
1000
0001
0001
,
0100
0100
0010
0010
,
0100
0001
0100
0000
0001
0000
0001
0000
,
1000
0100
1000
0000
0010
0000
0010
0000
,
1000
1000
0001
0001
,
0100
0100
0010
0010
,
1000
0100
1000
0000
0100
0000
0010
0000
,
0002
0000
0003
0002
0000
0003
0000
0100
,
0020
0000
0000
0100
0000
0130
0000
0000
,
0220
0330
2002
3003
,
0001
0010
0001
0010
,
0100
1000
0100
1000
,
0010
0010
0100
0100
,
0010
0100
0010
0000
,
1000
0000
0001
0020
0000
0030
0001
1000
,
0000
1000
0010
0000
0220
0000
0330
0000
,
0001
0001
1000
1000
,
0001
0001
1000
1000
,
0010
0100
0010
0100
,
0001
1000
0001
1000
,
0100
0100
0010
0010
,
0100
1000
0100
1000
0001
0000
0000
0000
,
0100
0100
0000
0000
0000
0000
0000
0000
,
0220
0330
2002
3003
,
0001
0001
0010
0010
,
0100
0100
1000
1000
,
0001
1000
0010
0100
,
0010
1000
0010
1000
0001
0000
0000
0000
,
1000
0000
0100
0000
0010
0000
0100
1000
,
0000
1000
0000
0002
0000
0000
0003
0000
,
1000
0000
0010
0000
0100
0001
0100
0000
,
0010
0000
0100
0000
0001
0000
1000
0100
,
0000
0010
0000
0110
0000
0000
0000
0000
,
0001
0001
1000
0000
,
0001
0100
0010
1000
,
0100
0000
0010
0002
0000
0003
0000
0001
,
0100
0000
0100
0020
0000
0030
0000
0010
,
2000
0000
0000
0001
0002
0000
3003
0000
,
0001
0001
1000
1000
,
0010
0010
0100
0100
,
0001
0010
0001
0010
0100
0000
0100
0000
,
1000
1000
0001
0000
,
1000
0000
0010
0000
1000
0000
0010
0100
,
0001
0001
1000
0000
,
0100
0100
1000
1000
,
0001
0001
0100
0100
,
0010
0010
1000
1000
,
0001
0001
0001
0000
,
1000
0000
0100
0000
0010
0001
0010
0001
,
0200
0010
0310
0000
,
0200
0000
0301
0010
0100
0000
0010
0100
,
2000
0001
3001
0000
,
1000
0000
0001
0100
0010
0000
1000
0000
,
0001
0010
0100
0000
0010
0000
0110
0000
,
2002
0000
3003
1010
,
0202
0000
0303
1000
,
0001
0010
0100
0010
,
0001
0000
1000
0010
0000
0010
0100
0000
,
0010
0000
1000
0100
0000
0010
0001
0000
,
0100
0000
0001
0010
0000
0100
1000
0000
,
0001
0000
0100
0000
0010
0000
1000
0001
,
1000
0000
0100
0000
0010
0000
0001
1000
,
0001
0001
0100
0100
,
0010
0010
1000
1000
,
0001
0000
0010
0100
0010
0000
0001
1000
,
0010
0010
0100
0100
,
0010
1000
0010
0000
1000
0000
0100
0000
,
0010
0000
0001
0100
0000
0100
0001
0000
,
1000
1000
0010
0010
,
0100
0100
0001
0001
,
1000
1000
0100
0100
,
0010
0010
0001
0001
,
1000
1000
0001
0001
,
0200
0000
0300
0200
0000
0000
0300
0000
,
0020
0000
0030
0020
0000
0000
0030
0000
,
0220
0330
2002
3003
,
0001
0010
0100
1000
,
0220
0000
0000
0000
,
0330
0000
0000
0000
;

//---------------dance-single - ----------------
#NOTES:
     dance-single:
     :
     Hard:
     11:
     0.448701,0.486466,0.109012,0.292969,0.000000,461.000000,445.000000,16.000000,43.000000,0.000000,0.000000,0.448701,0.486466,0.109012,0.292969,0.000000,461.000000,445.000000,16.000000,43.000000,0.000000,0.000000:
// measure 0
0000
0000
0000
0000
,  // measure 1
0000
0000
0000
0000
,  // measure 2
0000
0000
0000
0000
,  // measure 3
0000
0000
0000
0000
,  // measure 4
1000
0000
0100
0010
0000
0001
1000
0000
,  // measure 5
0001
0000
0100
0010
0000
1000
0001
0000
,  // measure 6
1000
1000
0010
0010
,  // measure 7
0100
0100
0001
0001
,  // measure 8
1000
0100
1000
0100
0010
0001
0010
0000
,  // measure 9
0001
0100
0001
0100
0010
1000
0010
0000
,  // measure 10
1000
0001
1000
0001
0010
0100
0010
0100
,  // measure 11
1000
0001
1000
0001
0100
0010
0100
0000
,  // measure 12
0001
0010
0100
1000
0010
0000
0100
0000
,  // measure 13
0220
0000
0330
2002
0000
0000
3003
0001
,  // measure 14
2000
0000
0000
0100
0000
3001
0000
0000
,  // measure 15
0022
0033
2200
3300
,  // measure 16
0001
0100
0001
0100
0010
1000
0010
1000
,  // measure 17
0001
0001
0010
0010
0100
0100
1000
1000
,  // measure 18
0020
0001
1000
0100
,  // measure 19
0230
0000
1000
0000
0302
0000
0000
1003
,  // measure 20
2000
0000
3100
0020
0000
0000
0031
0200
,  // measure 21
0000
0010
0010
0000
0302
0000
0000
0003
,  // measure 22
1000
0100
1000
0100
0010
0001
0010
0001
,  // measure 23
1000
0001
1000
0001
0100
0010
0100
0010
,  // measure 24
1000
1000
0010
0010
0100
0100
0001
0001
,  // measure 25
1000
1000
0100
0100
0010
0010
0001
0000
,  // measure 26
1000
0000
0001
0100
1000
0000
0100
0001
,  // measure 27
1000
0100
0001
0100
1000
0000
0000
0000
,  // measure 28
0010
0100
0000
0000
0110
0000
0000
0001
,  // measure 29
0102
0000
0000
1003
1100
0100
0000
0000
,  // measure 30
0010
0001
0010
0001
1000
0100
1000
0100
,  // measure 31
0010
0100
1000
0001
0100
0010
0100
0001
,  // measure 32
1000
0000
0100
1000
0000
0010
0100
1000
,  // measure 33
0100
0001
0010
0100
0010
0000
0001
1000
,  // measure 34
0010
0001
0010
1000
0001
0000
0010
0200
,  // measure 35
0000
0001
0000
2000
0000
0000
3300
0000
,  // measure 36
0001
0000
0001
0000
0100
0010
0100
0001
,  // measure 37
1000
0100
0010
0000
0100
0000
1000
0002
,  // measure 38
0000
0010
0000
2003
0000
0000
0000
0000
,  // measure 39
3001
0000
0001
0000
1000
0000
1000
0010
,  // measure 40
0200
0000
1300
0100
0002
1000
1003
0100
,  // measure 41
2000
0000
0010
3001
0000
0100
1000
0100
,  // measure 42
0002
0000
0010
1003
0000
0010
0001
0010
,  // measure 43
2000
0000
0000
0001
0002
0000
3003
0000
,  // measure 44
0001
1000
0001
1000
0010
0100
0010
0100
,  // measure 45
0001
0001
1000
1000
0100
0100
0010
0010
,  // measure 46
0100
1000
0010
0100
0001
0000
0001
0000
,  // measure 47
0100
0001
0010
0100
1000
0000
1000
0000
,  // measure 48
0001
0100
1000
0000
0100
0000
0001
0010
,  // measure 49
0001
0010
1000
0000
0010
0000
0001
0000
,  // measure 50
1000
1000
0010
0010
,  // measure 51
0100
0100
0001
0001
,  // measure 52
1000
0100
1000
0100
0001
0100
0001
0100
,  // measure 53
1000
0010
1000
0010
0001
0010
0001
0010
,  // measure 54
1000
0000
1000
0000
0001
0100
0010
0100
,  // measure 55
0002
0010
1003
0000
,  // measure 56
0001
0000
1000
0100
0001
0000
0001
0100
,  // measure 57
2000
0001
3001
0000
,  // measure 58
0100
0000
0010
0100
0001
0000
1000
0100
,  // measure 59
0001
0100
0001
0100
1000
0000
1010
0000
,  // measure 60
0202
0000
0303
0011
,  // measure 61
2200
0000
0000
0000
3300
0000
0000
0001
,  // measure 62
0001
0100
1000
0100
0001
0000
1000
0100
,  // measure 63
0001
0100
0001
0100
1000
0000
1000
0000
,  // measure 64
0001
0010
1000
0001
0100
0000
1100
0000
,  // measure 65
1000
0010
0001
1000
0100
0000
0101
0000
,  // measure 66
1000
0000
0001
0000
0020
0000
1030
0010
,  // measure 67
0001
0100
1000
0000
0200
0000
0301
1000
,  // measure 68
0001
0001
0010
0010
,  // measure 69
0100
0100
1000
1000
,  // measure 70
0001
1000
0001
1000
0010
0000
0100
0010
,  // measure 71
1000
0010
0100
0001
0000
0001
1000
0000
,  // measure 72
0100
1000
0010
0100
0001
0000
0010
0001
,  // measure 73
0100
0010
1000
0001
0000
0001
0000
0000
,  // measure 74
1000
0100
1000
0100
0010
0001
0010
0001
,  // measure 75
1000
0010
1000
0010
0100
0001
0100
0001
,  // measure 76
1000
1000
0001
0001
0100
0100
0010
0010
,  // measure 77
0100
0100
0001
0001
1000
1000
0100
1000
,  // measure 78
0001
0000
0001
0100
1000
0000
1000
0010
,  // measure 79
0002
0000
0000
1003
0000
0000
1000
0010
,  // measure 80
0002
0000
0000
1003
0000
0000
0001
1000
,  // measure 81
0220
0330
2002
3003
,  // measure 82
0001
1000
0001
1000
0100
0010
0100
0010
,  // measure 83
0220
0000
0000
0000
,  // measure 84
0330
0000
0000
0000
;
