#TITLE:Spooky;
#SUBTITLE:;
#ARTIST:good-cool;
#TITLETRANSLIT:;
#SUBTITLETRANSLIT:;
#ARTISTTRANSLIT:;
#GENRE:;
#CREDIT:;
#MUSIC:Spooky.ogg;
#BANNER:Spooky.png;
#BACKGROUND:Spooky-bg.png;
#CDTITLE:;
#SAMPLESTART:87.753;
#SAMPLELENGTH:15.000;
#SELECTABLE:YES;
#OFFSET:1.381;
#BPMS:0.000=140.000;
#STOPS:;
#DISPLAYBPM:140.000;
#BGCHANGES:2.500=Spooky.mp4=1.000=0=0=0=StretchNoLoop====,
99999.000=-nosongbg-=1.000=0=0=0=StretchNoLoop====
;
#FGCHANGES:;

//--------------- dance-single - Princess Pamela ----------------
#NOTES:
     dance-single:
     Princess Pamela:
     Hard:
     11:
     0,0,0,0,0:
0000
0000
0000
0000
,
0000
0000
0000
0000
,
2002
0000
0000
0000
,
0000
0000
0000
0000
0000
3003
0000
0000
,
1000
0010
1000
0001
0010
0001
1000
0000
,
1002
0000
0100
0000
1003
0000
0001
0010
,
0100
1000
0100
0100
0010
0100
1000
0000
,
0010
0100
0001
0000
0010
0010
0010
0000
,
0001
0100
1000
0100
0001
1000
0001
0000
,
2001
0000
0010
0000
3001
0000
1000
0100
,
0010
0001
0100
0100
0001
0010
0100
0000
,
1000
0001
0100
0000
0001
0001
0100
0001
,
1000
0000
0010
0200
0000
0000
0001
0000
,
0000
0000
0001
0000
0000
0310
0000
0010
,
1000
0000
0000
0000
0001
0000
0000
0000
0010
0000
0000
0010
0000
0000
0010
0000
,
0001
0000
0000
0000
1000
0000
0000
0000
0010
0000
0000
0010
0000
0000
0010
0000
,
1000
0000
0100
0020
0000
0000
0001
0000
,
0000
0000
0001
0000
0130
1000
0000
1000
,
0001
0000
0000
0000
0100
0000
0000
0000
0001
0000
0000
0001
0000
0000
0010
0000
,
0100
1001
0110
1001
,
1000
0000
0010
1000
0010
0000
0100
0010
,
0100
0000
0001
0100
0001
0000
0101
0000
,
0011
0000
0010
0001
0010
0000
0100
0010
,
0100
0000
1000
0100
1000
0000
1100
0000
,
1010
0000
0010
0100
0001
0000
0010
0100
,
1000
0000
0100
0010
0001
0000
0011
0000
,
0101
0000
0100
0010
1000
0000
0100
0010
,
0001
0000
0001
1000
0000
1000
0001
0000
,
1001
1100
1001
1100
,
1000
0010
0100
0001
0100
0010
1000
0000
,
1001
0101
1001
0101
,
0001
0001
1000
0001
1000
0001
1000
0000
,
1010
1100
1001
1100
,
0100
0010
0001
0100
0010
1000
0100
0000
,
0011
0101
0011
1001
,
1000
0000
1000
0000
0010
0000
1000
0000
0000
0000
0010
0000
0000
0100
0000
0000
,
1001
0000
0001
0010
0002
0000
1003
0010
,
2000
0000
3001
0100
0002
0000
2003
0000
,
3100
0000
0010
0100
0000
1000
0001
0000
,
0100
0000
0000
0000
2002
0000
0000
3003
0000
0000
0010
0000
0000
0000
0010
0000
,
0010
0000
1000
0100
2000
0000
3001
0100
,
0002
0000
1003
0010
2000
0000
3100
0000
,
0110
0000
0010
0001
0100
0000
0010
1000
,
0100
0010
0100
0010
0100
0000
0110
0000
,
1000
0001
0100
0001
0010
0001
0100
0001
,
1000
0100
0001
0100
,
1000
0100
1000
0001
1000
0010
1000
0000
,
0001
0001
1000
0100
1000
0001
0100
0000
,
0001
1000
0100
1000
0001
1000
0010
0000
,
1000
0100
0001
0100
,
1000
0001
0100
0001
0010
0001
0100
0000
,
0010
0010
1000
1000
0010
1000
0001
0000
,
0010
0100
1000
0010
0100
0001
0010
0000
,
0011
0000
0102
0000
0103
0010
1000
0000
,
0001
0010
0100
1000
0010
0100
0001
0000
,
0011
0000
2001
0000
3010
0100
0001
0000
,
1000
0100
0001
0100
1000
0001
0010
0000
,
0110
0000
2100
0000
3010
0100
0001
0000
,
0010
0001
1000
0010
1000
0001
0010
0000
,
0100
1000
0001
0100
0001
0001
1000
0001
,
1000
0010
0001
0010
1000
0001
0100
0000
,
0110
0000
2010
0000
3100
0010
0001
0000
,
1000
0010
0100
0001
0010
0100
1000
0000
,
1100
0000
0102
0000
0013
0010
0010
0000
,
0001
0100
1000
0100
0001
1000
0010
0000
,
1010
0000
1200
0000
0310
0001
0100
0000
,
0010
1000
0001
0010
0001
1000
0010
0000
,
0100
0100
0001
1000
0010
0010
0100
2002
,
0000
0000
0000
0000
,
0000
0000
0000
0000
0000
0000
0000
0000
0000
0000
0000
3003
0000
0000
1001
0000
;

//--------------- dance-single - Princess Pamela ----------------
#NOTES:
     dance-single:
     Princess Pamela:
     Challenge:
     14:
     0,0,0,0,0:
0000
0000
0000
0000
,
0000
0000
0000
0000
,
2002
0000
0000
0000
,
0000
0000
0000
0000
0000
3003
0000
0001
,
1000
0000
0001
0000
0100
0001
0100
0000
0010
0000
1000
0000
0001
0000
0000
0000
,
1000
0001
1000
0001
1000
0000
0010
0000
1000
0000
0100
0000
0010
0000
0000
0000
,
0100
0000
1000
0000
0010
0000
0010
0000
0100
0001
0100
0000
0010
0000
0000
0000
,
1000
0000
0001
1000
0001
0000
0010
0000
0100
0000
0100
0000
0100
0000
0000
0000
,
0010
0000
0001
0000
0100
0001
0100
0000
0010
0000
1000
0000
0100
0000
0000
0000
,
0010
0100
0010
0100
0010
0000
0001
0000
1000
0000
0010
0000
0100
0000
0000
0000
,
0001
0000
0010
0000
0100
0000
0100
0000
0010
0001
0010
0000
0100
0000
0000
0000
,
1000
0000
0001
1000
0100
0000
1000
0000
0001
1000
0001
0000
1000
0000
0010
0100
,
0002
0000
0100
0000
1000
1000
1000
0000
,
0010
0010
0010
0000
1003
1001
0000
0001
,
0100
0000
0010
0000
0110
0000
0100
0000
0010
0000
1000
0010
0000
1000
0010
0000
,
0100
0000
0010
0000
0110
0000
0000
0000
0001
0000
0100
0001
0000
0100
0001
0000
,
2000
0000
0100
0000
0001
0001
0001
0000
,
0010
0010
0010
0000
3001
1001
0000
1000
,
0100
0000
0010
0000
0110
0000
0100
0000
0010
0000
0001
0010
0000
0001
0010
0000
,
0100
0000
1000
0100
1000
0000
0001
0100
0001
0000
1000
0100
1000
0000
0010
0000
,
1001
0000
0000
0001
0000
0000
0010
0000
0100
0000
1000
0100
0000
1000
0010
0000
,
0100
0000
0000
0100
0000
0000
0001
0000
0010
0000
0001
0100
0000
0010
0100
0000
,
0010
0000
0000
0010
0000
0000
1000
0000
0001
0000
1000
0100
0000
1000
0001
0000
,
0010
0000
0000
0010
0000
0000
0001
0000
0100
0001
0100
0000
0001
0000
0100
0010
,
1000
0000
0100
1000
0000
0000
0100
0000
0010
0000
0001
0010
0000
0000
0100
0000
,
1000
0000
0001
1000
0000
0000
0001
0000
0100
0000
0010
0100
0000
0000
0010
0000
,
1000
0000
0100
1000
0000
0000
0010
0000
0100
0000
0001
0100
0000
0000
0010
0000
,
1000
0001
1000
0001
1000
0000
0001
0000
0010
0100
1000
0000
0100
0000
1000
0001
,
1000
0100
0010
0100
0001
0100
0010
0100
,
1000
0000
0001
0000
0100
0001
0000
0001
0100
0000
0100
0010
0000
0010
1000
0000
,
0001
0100
0010
0100
1000
0100
0010
0100
,
0001
1000
0100
1000
0001
0000
1000
0000
0001
0100
0001
0000
1000
0100
1000
0000
,
0001
0100
0010
0100
1000
0100
0010
0100
,
0001
0000
1000
0000
0100
1000
0000
1000
0001
0000
0001
0010
0000
0010
0001
0000
,
1000
0100
0010
0100
0001
0100
0010
0100
,
1000
0001
0010
0000
0001
1000
0010
0000
1000
0000
0001
1000
0010
1000
0001
0000
,
1001
0000
1000
0100
0002
0000
0103
1000
,
0002
0000
1003
0010
0002
0000
0013
1000
,
0001
0000
0000
0000
0100
0000
1000
0000
0000
0000
0100
0000
0001
0100
0010
0000
,
0000
0000
0010
0000
1000
2000
0000
0000
0000
0000
3001
0000
0100
0000
0001
1000
,
0001
0000
0001
0100
2000
0000
3100
0001
,
2000
0000
3001
0010
2000
0000
3010
0001
,
1001
0000
0100
0010
1001
0000
0010
0100
,
1001
0000
0010
0000
1001
0000
0010
0000
1000
0001
0010
0000
0001
1000
0010
0000
,
0100
0000
1000
0000
0100
0000
0001
0000
0010
0000
0001
0010
0000
0010
0001
0000
,
1000
0000
0100
0000
0010
0000
0100
0000
1000
0000
0001
1000
0000
1000
0001
0000
,
0100
0000
0001
0000
0100
0000
1000
0000
0010
0000
1000
0010
0000
0010
1000
0000
,
0100
1000
0100
1000
0100
0000
0010
0000
0100
1000
0001
0000
0100
0000
0001
1000
,
0010
0000
0100
0000
1000
0000
0100
0000
0001
0000
0100
0001
0000
0001
0100
0000
,
0010
0000
1000
0000
0001
0000
0010
0000
0100
0000
1000
0100
0000
0100
1000
0000
,
0010
0000
0100
0000
1000
0000
0100
0000
0001
0000
0100
0001
0000
0001
0100
0000
,
0001
0010
0001
0000
1000
0010
1000
0000
0010
1000
0100
0010
0001
0000
0110
0000
,
1001
0000
1000
0000
0100
1000
0100
0000
0010
0000
0001
0000
1000
0000
0000
0000
,
0001
1000
0001
1000
0020
0000
0100
0000
0130
0000
0001
0000
1000
0000
0000
0000
,
0100
0000
0001
0000
0100
0000
0100
0000
1000
0100
1000
0000
0010
0000
1000
0000
,
0010
0000
0100
0001
2000
0000
0010
0000
3010
0000
1001
0000
1001
0000
0000
0000
,
0011
0000
0010
0000
0100
1000
0100
0000
0010
0000
0001
0000
0100
0000
0000
0000
,
0010
0100
0010
0100
0002
0000
1000
0000
1003
0000
0010
0000
0100
0000
0010
0100
,
0010
0000
1000
0000
0001
0000
0001
0000
0100
0010
0100
0000
0010
0000
1000
0000
,
0100
0000
0010
0001
0100
0000
0010
0000
0100
0001
0100
0000
0010
0000
0010
1000
,
0001
0000
1000
0000
0100
0000
0001
0000
0100
1000
0100
0000
1000
0000
0000
0000
,
0010
0100
0010
0100
0002
0000
1000
0000
1003
0000
0001
0010
0100
0000
1000
0100
,
1000
0000
0010
0000
0100
0000
0100
0000
0001
0000
0100
0001
0010
0000
0011
0000
,
0000
0000
0010
0100
1000
0000
0010
0100
0001
0000
1000
0000
1001
0000
0000
0000
,
0011
0000
0010
0000
0100
1000
0001
0000
0100
0000
0001
0000
1000
0000
0010
0000
,
0100
0001
0100
0001
2000
0000
0100
0000
3100
0000
1000
0001
0010
0000
0110
0000
,
0000
0000
0100
1000
0001
0000
0001
0000
0100
0001
0010
0000
0100
0000
0010
0100
,
1000
0000
0001
0100
0001
0000
1000
0100
1000
0000
0010
0000
0110
0000
2002
0000
,
0000
0000
0000
0000
,
0000
0000
0000
0000
0000
0000
0000
0000
0000
0000
0000
3003
0000
0000
1001
0000
;
