#TITLE:Sound of Night Wind;
#SUBTITLE:;
#ARTIST:Raito;
#TITLETRANSLIT:;
#SUBTITLETRANSLIT:;
#ARTISTTRANSLIT:;
#GENRE:;
#CREDIT:;
#MUSIC:Sound of Night Wind.mp3;
#BANNER:Sound of Night Wind BN.jpg;
#BACKGROUND:Sound of Night Wind BG.jpg;
#CDTITLE:;
#SAMPLESTART:13.869;
#SAMPLELENGTH:12.000;
#SELECTABLE:YES;
#OFFSET:-0.269;
#BPMS:0.000=150.000;
#STOPS:;
#BGCHANGES:;
#FGCHANGES:;

//--------------- dance-single - Minxyz ----------------
#NOTES:
     dance-single:
     Minxyz:
     Medium:
     13:
     0,0,0,0,0:
0000
0000
0000
0000
,
0000
0000
0000
0000
,
0000
0000
0000
0000
,
0000
0000
0000
0000
,
0000
0000
0000
0000
,
0000
0000
0000
0000
,
0000
0000
0000
0000
,
0000
0000
0000
0000
,
0000
0000
0000
0000
0000
0000
0000
0000
1000
0000
0000
0001
0000
0000
0010
0000
,
0000
0001
0000
0000
0100
0000
0100
0000
0010
0000
0000
1000
0000
0000
0100
0000
,
0000
1000
0000
0000
0010
0000
0010
0000
0100
0000
0000
0001
0000
0000
1000
0000
,
0000
0001
0000
0000
1000
0000
1000
0000
0100
0000
0000
0010
0000
0000
0001
0000
,
0000
0010
0000
0000
1000
0000
0010
0000
0100
0000
0000
1000
0000
0000
0010
0000
,
0000
0100
0000
0000
0001
0000
0001
0000
0010
0000
0000
0100
0000
0000
1000
0000
,
0000
0010
0000
0000
0100
0000
0010
0000
1010
0000
0000
1001
0000
0000
1100
0000
,
0000
0110
0000
0000
0001
0000
0001
0000
1000
0000
0100
0000
0001
0000
0100
0000
,
1000
0000
0010
0000
0001
0000
0010
0000
1000
0000
0001
0100
0010
0000
0000
0000
,
0110
0000
0000
1001
0000
0000
1000
0100
0010
0000
0000
0000
0110
0000
0000
1001
,
0000
0000
0000
0000
1000
0000
0001
0000
1000
0000
0000
0010
0000
0000
0001
0000
,
1000
0000
0000
0100
0000
0000
0001
0000
1000
0000
0000
0100
0000
0000
0010
0000
,
0000
0001
0000
0000
0010
0000
0100
0000
1000
0000
0001
0100
0010
0000
1000
0000
,
0100
0000
0000
0110
0000
0000
0100
0010
0001
0000
0100
0000
0100
0000
0001
0000
,
0000
0010
0000
0000
0010
0000
0100
0000
0001
0000
0000
0100
0000
0000
1000
0000
,
0001
0000
0000
0010
0000
0000
1000
0000
0010
0000
0000
0001
0000
0000
0100
0000
,
0000
0110
0000
0000
0100
0000
0001
0000
0101
0000
0000
0101
0000
0000
0000
1000
,
0000
0100
0000
0000
1000
0000
0010
0000
0100
0000
0000
0110
0000
0000
0000
0001
,
0000
0100
0000
0000
0010
1000
0000
0000
1001
0000
0000
1001
0000
0000
0000
0001
,
0000
0010
0000
0000
0001
0000
0100
0000
0010
0000
0000
0110
0000
0000
0000
1000
,
0000
0010
0000
0000
0100
0001
0000
0000
0110
0000
0000
0110
0000
0000
0000
1000
,
0000
0010
0000
0000
1000
0000
0100
0000
0010
0000
0000
0110
0000
0000
0000
0001
,
0000
0010
0000
0000
0100
1000
0000
0000
0110
0000
0000
0110
0000
0000
0000
0001
,
0000
0100
0000
0000
0001
0000
0010
0000
0100
0000
0000
0110
0000
0000
0000
1000
,
0000
0100
0000
0000
0010
0001
0000
0000
1000
0000
0000
0000
1001
0000
0000
0000
,
1000
0010
0110
0000
0001
0000
1001
0000
,
0001
0000
0010
0000
0100
0010
0000
0000
0001
0000
0000
0000
0110
0000
0000
0000
,
1000
0100
0110
0000
0010
0000
0110
0000
,
0001
0000
0010
0000
0100
0010
0000
0000
0001
0000
0000
0000
1000
0000
0020
0000
,
0030
0010
0200
0300
0000
2002
0000
3003
,
1000
0000
0000
0000
0000
1001
0000
0000
1001
0000
0000
0000
1000
0000
0020
0000
,
0030
0010
0200
0300
0000
2002
0000
3003
,
1000
0000
0000
0010
0000
0000
0100
0000
0010
0100
0000
0000
0001
0000
0000
0000
,
0001
0000
0000
0100
0000
0000
0010
0000
0100
0010
0000
0000
1000
0000
0000
0000
,
0100
0000
0000
1000
0000
0000
0001
0000
0100
1000
0000
0000
0100
0000
0000
0000
,
0001
0000
0000
1000
0000
0000
0100
0000
0010
0001
0000
0000
1000
0000
0001
0100
,
0010
0000
0000
0000
0000
0000
1000
0010
0100
0010
0000
0000
1000
0000
0000
0000
,
1000
0000
0000
0100
0000
0000
0010
0000
0100
0010
0000
0000
0001
0000
0000
0000
,
0010
0000
0000
0001
0000
0000
1000
0000
0010
0001
0000
0000
0010
0000
0000
0000
,
1000
0000
0000
0001
0000
0000
0100
0000
0010
1000
0000
0000
0100
0000
0000
0000
,
0110
0000
0001
1000
0100
0010
0001
0000
,
1000
0010
1000
0000
0001
0100
0010
0000
,
0100
0001
0100
0000
0010
1000
0100
0000
,
1000
0001
1000
0000
1000
0100
0001
0100
,
1000
0000
1000
0000
0001
0010
0100
0000
,
0100
0010
0001
1000
0010
0100
0001
0100
,
1000
0000
0100
0000
0001
0000
1000
0010
1000
0000
0000
2002
0000
0000
3003
0000
,
1001
0000
0000
0202
0000
0000
0303
0000
0101
0000
0000
2200
0000
0000
3300
0000
,
1100
0000
0000
2020
0000
0000
3030
0000
0110
0000
0000
2002
0000
0000
3003
0000
,
0011
0000
0000
2002
0000
0000
3003
0000
1001
0000
0000
0202
0000
0000
0303
0000
,
0101
0000
0000
0022
0000
0000
0033
0000
1000
0000
0000
1000
0010
0000
0000
0000
,
0100
0000
0000
0100
1000
0000
0000
0000
0100
0000
0000
0100
0001
0000
0000
0000
,
1000
0000
0010
0000
0100
0000
0010
1000
0001
0000
0000
0000
0000
0000
0000
0000
;

//--------------- dance-single - Minxyz ----------------
#NOTES:
     dance-single:
     Minxyz:
     Hard:
     17:
     0,0,0,0,0:
0000
0000
0000
0000
,
0000
0000
0000
0000
,
0000
0000
2000
0000
,
0000
3000
0200
0000
,
0000
0300
0000
0000
0020
0000
0000
0000
,
0000
0000
0000
0030
0002
0000
0000
0000
,
0000
0000
0000
0003
2000
0000
0000
0000
,
0000
3000
1001
0000
,
0100
0000
0010
0000
1000
0001
1000
0001
1000
0001
0100
0010
1000
0000
0100
0010
,
0001
0000
0010
1000
0000
0010
0001
1000
0001
0000
0010
1000
0010
0000
0001
1000
,
0000
0001
0010
0001
0010
0100
1000
0100
0020
0030
0000
0002
0003
0000
0200
0300
,
0020
0030
0000
2000
3000
0000
1000
0001
0200
0000
0000
0010
0000
0000
0010
0000
,
0000
0010
0000
0000
0010
0000
0310
0000
0010
1000
0100
0001
0100
0000
1000
0010
,
1000
0000
0100
0001
0000
0100
1000
0001
0100
0000
0010
0100
0010
0000
1000
0010
,
0100
0001
1000
0001
0010
0100
1000
0001
0100
0000
0000
0001
0000
0000
0100
0000
,
0101
0000
0000
0001
0000
0000
0100
0000
0001
0010
0001
0010
0001
1000
0100
1000
,
0200
0000
0000
0000
0300
0000
0000
0000
0000
1000
0010
0100
0001
0000
0010
0100
,
1000
0000
0100
0001
0000
0100
1000
0001
1000
0000
0100
0001
0100
0000
1000
0001
,
0000
1000
0100
1000
0100
0010
0001
0010
0200
0300
0000
2000
3000
0000
0020
0030
,
0200
0300
0000
0002
0003
0000
0001
1000
0020
0000
0000
0100
0000
0000
0100
0000
,
0000
0100
0000
0000
0100
0000
0130
0000
0100
0001
0010
1000
0010
0000
0001
0100
,
0001
0000
0010
1000
0000
0010
0001
1000
0010
0000
0100
0010
0100
0000
0001
0100
,
0010
1000
0001
1000
0100
0010
0001
1000
0010
0000
0000
1000
0000
0000
0010
0000
,
1010
0000
0000
1000
0000
0000
0010
0000
1000
0100
1000
0100
1000
0001
0010
0001
,
2000
0000
0000
0000
0000
3000
0000
0000
0001
0010
0001
0100
0000
0010
0000
1000
,
0000
0010
0000
0100
1000
0000
0100
0000
0010
1000
0010
0100
0000
0001
0000
0010
,
0000
1000
0000
0010
0001
2000
0000
3000
0010
1000
0001
0010
0000
1000
0000
0001
,
0000
0100
0000
1000
0100
0000
0010
0000
0100
1000
0001
0010
0000
0010
0000
0100
,
0000
0010
0000
0001
1000
0200
0000
0300
1000
0001
0100
0010
0000
1000
0000
0010
,
0000
0100
0000
0010
0001
0000
0010
0000
1000
0100
0001
0100
0000
1000
0000
0001
,
0000
0010
0000
0100
0010
0002
0000
0003
0100
0001
1000
0100
0000
0001
0000
1000
,
0000
0010
0000
0001
0010
0000
0001
0000
1001
0000
0000
0110
0000
0000
1010
0000
,
0000
1100
0000
0000
0001
0010
0000
0000
2001
0000
0000
0000
0100
0000
0002
0000
,
0000
0000
0000
0003
0200
0000
0000
0000
0300
0000
0020
0000
0000
0000
0000
0000
,
0230
0000
0000
0000
3300
1010
0000
0000
0201
0000
0000
0000
0001
0000
2000
0000
,
0000
3000
0002
0000
0003
2000
0000
3000
,
0020
0000
0000
0000
0330
1010
0000
0000
0102
0000
0000
0000
0000
0000
2000
0000
,
0000
3000
0020
0000
0030
2000
0000
3000
,
0200
0000
0000
0000
0303
0110
0000
0000
2001
0000
0000
0000
0000
0000
0020
0000
,
0000
0030
0002
0000
0003
0200
0000
3300
,
2000
0000
3000
0020
0000
0030
0200
0000
0302
0010
0003
0000
0001
0000
0000
0000
,
0010
0000
0000
1000
0000
0000
0001
0000
0200
1000
0300
0000
0100
0000
1000
0010
,
0001
0000
0000
0010
0000
0000
1000
0000
0002
0010
0003
0000
0001
0000
0000
0000
,
1000
0000
0000
0010
0000
0000
0100
0000
0200
0010
0300
0000
0100
0000
0001
0010
,
0100
0000
0000
0100
0000
0000
0100
0010
0002
0100
0003
0000
0001
0000
0000
0000
,
1000
0000
0000
0001
0000
0000
1000
0000
0010
2000
0000
3000
0001
0000
0000
0000
,
0001
0000
0000
0010
0000
0000
0100
0000
2000
0100
3000
0000
1000
0000
0000
0000
,
0010
0000
0000
0100
0000
0000
0001
0000
0002
0010
0003
0000
0010
0001
0100
0010
,
0100
0001
0100
0010
0100
0000
0000
0000
0001
0100
0010
1000
0001
0000
1000
0100
,
0010
0001
0010
0100
1000
0000
0001
0100
0010
1000
0010
0100
0001
0000
0001
0010
,
1000
0010
0001
0010
0001
0000
0001
0100
0001
1000
0100
1000
0001
0000
1000
0010
,
1000
0001
0010
0001
1000
0000
0100
0010
0001
0010
1000
0010
0001
0000
0100
1000
,
0100
0001
0010
0001
1000
0000
0010
0100
1000
0100
0010
0100
0010
0000
1000
0001
,
0100
0010
0001
0010
1000
0000
0010
1000
0100
0010
0001
0100
0010
0000
1000
0010
,
0001
0000
0000
0010
0000
0000
1000
0000
0000
0001
0000
0000
0010
0000
0000
1000
0000
0000
0010
0000
0000
0001
0000
0000
2000
0000
0000
0000
0000
0000
0000
0000
0000
0010
0000
0000
3000
0000
0000
1000
0000
0000
0100
0000
M000
0100
0000
0000
,
0002
0000
0000
0000
0000
0000
0000
0000
0000
0010
0000
0000
0003
0000
0000
0001
0000
0000
0100
0000
000M
0100
0000
0000
2000
0000
0000
0000
0000
0000
0000
0000
0000
0001
0000
0000
3000
0000
0000
1000
0000
0000
0010
0000
M000
0010
0000
0000
,
0002
0000
0000
0000
0000
0000
0000
0000
0000
1000
0000
0000
0003
0000
0000
0001
0000
0000
0010
0000
000M
0010
0000
0000
2000
0000
0000
0000
0000
0000
0000
0000
0000
0001
0000
0000
3000
0000
0000
0010
0000
0000
0100
0000
0000
0010
0000
0000
,
0200
0000
0000
0001
0300
1000
0001
1000
0020
0000
0000
1000
0030
1000
0010
0100
,
0002
0000
0000
0010
0003
0100
0010
0001
1000
0000
0000
0000
0010
0000
0000
0000
,
0100
0001
1000
0001
,
0001
0100
0010
1000
0010
0100
0001
1000
0200
0000
0000
0000
0300
0000
0000
0000
;
