#TITLE:Skull 'n' Bones;
#SUBTITLE:;
#ARTIST:Zomboy;
#TITLETRANSLIT:;
#SUBTITLETRANSLIT:;
#ARTISTTRANSLIT:;
#GENRE:;
#CREDIT:KyokiShinsa and Tony S.;
#MUSIC:Skull n Bones.ogg;
#BANNER:Fearmix-2024_bn-FINAL.png;
#BACKGROUND:BG-fm24_ALL.png;
#CDTITLE:;
#SAMPLESTART:60.770;
#SAMPLELENGTH:12.004;
#SELECTABLE:YES;
#OFFSET:-0.080;
#BPMS:0.000=174.000;
#STOPS:;
#ORIGIN:;
#PREVIEWVID:;
#JACKET:album-fm24_ALLL.png;
#CDIMAGE:;
#DISCIMAGE:;
#BGCHANGES:;
#FGCHANGES:1.000=lua=1.000=0=0=1;

//--------------- dance-single - ----------------
#NOTES:
     dance-single:
     :
     Beginner:
     3:
     0.002551,0.003571,0.008928,0,0,2,1,1,0,0,0,0,0,0,0.002551,0.003571,0.008928,0,0,2,1,1,0,0,0,0,0,0:
0000
0000
0000
0000
,
0000
0000
0000
0000
,
0000
0000
0000
0000
,
0000
0000
0000
0000
,
1001
0000
0001
0100
,
0001
0000
1000
0000
,
0100
0000
0010
0001
,
0010
0000
0001
1000
,
0001
0000
0100
0010
,
0100
0000
0010
0000
,
1000
0000
0001
1000
,
0001
0010
0100
2000
,
3001
0000
1000
0010
,
1000
0000
0001
0000
,
0100
0000
0001
1000
,
0001
0000
0010
0100
,
1000
0000
0001
0100
,
0001
0000
1000
0000
,
0010
0000
0100
0001
,
0100
0010
1000
0002
,
0023
0000
0000
0000
,
0030
0000
0000
0000
,
0000
0000
0000
0000
,
0000
0000
0000
0000
,
0000
0000
0000
0000
,
0000
0000
0000
0000
,
0000
0000
0000
0000
,
0000
0000
0000
0000
,
1000
0000
1000
0000
,
1000
0000
0000
0000
,
0010
0000
0010
0000
,
0010
0000
0000
1000
,
0001
0000
0001
0000
,
0001
0000
0000
0000
,
0010
0000
0010
0000
,
0010
0000
0000
0100
,
1000
0001
1000
0000
,
0010
0100
0001
0000
,
0010
0100
1000
0000
,
0010
0100
0001
0001
,
0001
0000
1000
0000
,
0001
0000
1000
0000
,
0001
0010
0100
1000
,
0010
0100
0001
1000
,
2002
3003
0002
0003
,
0010
0100
1000
0000
,
0010
0100
0001
0000
,
0010
0100
1000
0000
,
0020
0030
0020
0030
,
0100
0001
1000
0000
,
0100
1000
0001
0000
,
0100
0000
0000
0010
0000
0000
1000
0000
,
0002
0003
0020
0030
,
0100
1000
0001
0000
,
0100
0001
1000
0000
,
0100
0010
0001
0000
,
2000
3000
0020
0030
,
0100
0000
0001
1000
,
0100
0010
0001
1000
,
0010
0000
0000
0010
0000
0000
0010
0000
,
2000
3000
0002
0003
,
0020
0030
0100
1000
,
0002
0003
0100
0001
,
2000
3000
0100
1000
,
0020
0030
0020
0030
,
0020
0030
1000
0001
,
0020
0030
0001
1000
,
0010
0000
0100
0001
,
2000
3000
0200
0300
,
2000
3000
0001
0100
,
0002
0003
1000
0100
,
2000
3000
0010
0000
,
0200
0300
0002
0003
,
0020
0230
2300
3001
,
2000
3000
0020
0030
,
0100
0000
0000
0001
0000
0000
1000
0000
,
0200
0300
0000
0000
0000
0000
0000
0000
;

//--------------- dance-single - ----------------
#NOTES:
     dance-single:
     :
     Easy:
     7:
     0.002551,0.003571,0.008928,0,0,2,1,1,0,0,0,0,0,0,0.002551,0.003571,0.008928,0,0,2,1,1,0,0,0,0,0,0:
0000
0000
0000
0000
,
0000
0000
0000
0000
,
0000
0000
0000
0000
,
0000
0000
0000
0000
,
1001
0000
0001
0000
0100
0010
0000
0100
,
0010
1000
0001
0010
,
0100
0000
1000
0000
0010
0100
0000
0010
,
0100
0000
0001
0000
1000
0100
1000
0000
,
0001
0000
0010
0000
0001
1000
0000
0001
,
1000
0001
0100
0001
,
1000
0000
0100
0000
0010
0001
0000
0010
,
0001
0000
1000
0000
0010
0100
0002
0000
,
1003
0000
0001
0000
0010
0001
0000
0010
,
0001
1000
0100
1000
,
0001
0000
0100
0000
0010
1000
0000
0010
,
1000
0000
0001
0000
0010
0100
0010
0000
,
0001
0000
1000
0000
0010
1000
0000
0010
,
1000
0000
0001
0000
0100
0001
0100
0000
,
0010
0000
1000
0000
0001
1000
0000
0001
,
1000
0000
0100
0000
0010
0001
0020
0000
,
0230
0000
0000
0000
,
0300
0000
0000
0000
,
0000
0000
0000
0000
,
0000
0000
0000
0000
,
0000
0000
0000
0000
,
0000
0000
0000
0000
,
0000
0000
0000
0000
,
0000
0000
0000
0000
,
0001
0000
0001
0000
,
0100
0000
0001
0000
0100
0000
0001
0010
,
0001
0000
0010
0000
,
0001
0000
0010
0000
0100
1000
0100
1000
,
0100
0000
1000
0000
,
0001
0000
1000
0000
0010
0000
1000
0010
,
1000
0000
0001
0000
,
0100
0000
0001
0000
1000
0001
1000
0000
,
0100
0000
0010
0000
0001
0010
0001
0000
,
1000
0000
0010
0000
1000
0010
1000
0000
,
0001
0000
0010
0000
0100
1000
0100
0000
,
0010
0001
0001
0001
,
1000
0000
0010
1000
0010
0000
1000
0001
,
1000
0000
0001
1000
0001
0000
0010
0000
,
0100
0100
0100
0100
,
1000
0001
1000
0001
1000
0001
1000
0000
,
0020
0030
0200
0300
,
0002
0000
1003
0000
0001
1000
0001
0000
,
0020
0000
0130
0000
1000
0100
1000
0000
,
0020
0000
0130
0000
0001
0100
0001
0000
,
2000
3002
0023
0230
,
2300
0000
3010
0000
1000
0010
1000
0000
,
0002
0000
0103
0000
0001
0100
0001
0000
,
1000
0000
0100
0000
0010
0001
0010
0000
,
0002
0003
0002
2003
,
3020
0000
1030
0000
0010
1000
0010
0000
,
1000
0000
0001
0000
1000
0001
1000
0000
,
0100
0000
0010
0000
0001
0010
0001
0000
,
2000
3000
2000
3000
,
0020
0000
0130
0000
0010
0100
0010
0000
,
1000
0001
1000
0001
1000
0000
0100
0000
,
0010
0000
0001
1000
0000
0010
0200
0000
,
0302
2003
3002
0023
,
0032
0000
1003
0000
0100
1000
0100
0000
,
2000
0000
3010
0000
0100
0001
0100
0000
,
0020
0000
1030
0000
0001
0010
0001
0000
,
2000
3200
2300
3200
,
2300
0000
3010
0000
0100
0001
0100
0000
,
0020
0000
1030
0000
0010
1000
0010
0000
,
1000
0000
0001
0010
0000
0001
0010
0000
,
0200
2300
3002
0203
,
0320
0000
1030
0000
0001
0010
0001
0000
,
2000
0000
3100
0000
1000
0100
1000
0000
,
0020
0000
0130
0000
0010
0100
0010
0000
,
2000
3002
0023
0230
,
2300
0000
3002
0000
0203
0000
0301
0100
,
0001
0000
1000
0100
2000
0000
3020
0000
,
0130
0000
0001
1000
0000
0100
0010
0000
,
0002
0003
0000
0000
0000
0000
0000
0000
;

//--------------- dance-single - ----------------
#NOTES:
     dance-single:
     :
     Medium:
     13:
     0.002551,0.003571,0.008928,0,0,2,1,1,0,0,0,0,0,0,0.002551,0.003571,0.008928,0,0,2,1,1,0,0,0,0,0,0:
0000
0000
0000
0000
,
0000
0000
0000
0000
,
0000
0000
0000
0000
,
0000
0000
0000
0000
,
2001
0000
3010
0000
0100
0002
0003
0010
,
0100
0000
0000
0000
0010
0000
0001
0000
1000
0000
0010
1000
0010
0000
1000
0000
,
0001
0100
0001
1000
0100
0020
0030
0001
,
1000
0000
0000
0000
0010
0000
1000
0000
0001
0010
0001
0000
1000
0000
0001
0100
,
0020
0000
1030
0000
0001
0020
0030
0001
,
1000
0000
0000
0000
0100
0000
1000
0000
0001
0000
0100
0001
0100
0000
0010
0000
,
1000
0000
0001
1000
0001
0000
1000
0001
1000
0000
0100
0000
0010
0001
0010
0000
,
0100
1000
0100
1000
0100
0000
1000
0000
0010
0000
1000
0010
1000
0000
0000
0000
,
0002
0000
1003
0000
0010
0200
0300
0001
,
1000
0000
0000
0000
0100
0000
1000
0000
0001
0000
0010
0001
0010
0000
0001
0000
,
1000
0010
0100
0010
1000
0002
0003
0010
,
0100
0000
0000
0000
1000
0000
0001
0000
0100
0010
1000
0000
0001
0000
0010
0100
,
2000
0000
3010
0000
0100
0001
0000
1000
,
0100
0000
0000
0000
0010
0000
0001
0000
1000
0000
0010
1000
0010
0000
0100
0000
,
0001
0000
1000
0100
1000
0000
0100
0000
0010
0000
0001
0000
0000
0000
1000
0000
,
0010
0000
0100
0001
0100
0000
0010
0000
1000
0000
0100
1000
0002
0000
0000
0000
,
0203
0000
0000
0000
,
0300
0000
0000
0000
,
0000
0000
0000
0000
,
0000
0000
0000
0000
,
0000
0000
0000
0000
,
0000
0000
0000
0000
,
0000
0000
0000
0000
,
0000
0000
0000
0000
,
1000
0000
1000
0000
1000
0000
1000
0010
,
1000
0010
1000
0000
0001
0000
0001
0010
,
0001
0000
0001
0000
0001
0010
0001
0010
,
0001
0000
1000
0100
1000
0100
0010
0001
,
1000
0000
1000
0000
1000
0000
1000
0010
,
1000
0010
1000
0000
0001
0000
0001
0100
,
0010
0000
0010
0000
0010
1000
0010
1000
,
0010
0000
0000
0000
0100
0000
0001
0000
1000
0001
1000
0000
0100
0000
1000
0001
,
1000
0000
0000
0000
0010
0000
0000
0100
0001
0000
1000
0000
0100
0000
0000
0000
,
0010
0000
0000
0000
0001
0000
0000
1000
0010
0000
0100
0000
0001
0000
0010
0001
,
0010
0000
0000
0000
0100
0000
0000
1000
0001
0000
0100
0000
0001
0000
2000
0000
,
3200
0000
2300
0000
3200
0000
2300
0000
3020
0000
0030
0000
0100
0000
0001
0100
,
0001
1000
0010
0100
0001
1000
0010
0100
,
0001
0010
0100
1000
0001
0010
0100
1000
,
0001
0100
0010
0100
0001
0010
0100
0010
,
0001
1000
0001
1000
0001
0000
0100
0010
0100
0010
0100
0000
0001
0000
1000
0000
,
0210
0302
0023
0230
,
2300
0000
3010
1000
0100
0010
0001
0100
,
2000
0000
3100
0001
0010
0100
1000
0010
,
0002
0000
0013
1000
0100
0010
0001
1000
,
0020
0230
0302
0023
,
2030
0000
3010
0001
0100
0010
1000
0001
,
0020
0000
0130
1000
0010
0100
0001
1000
,
0100
0100
1000
0010
0100
0100
0001
1000
,
0200
0320
0032
2003
,
3020
0000
0130
0001
0010
0100
1000
0010
,
000M
0001
0010
1000
0001
0010
0100
1000
,
0002
0000
0103
0010
0100
0001
0010
0100
,
2000
3020
0230
0302
,
2003
0000
3100
1000
0010
0100
0001
0010
,
0100
0000
1000
0100
1000
0000
0001
0000
0100
0000
0010
0000
1000
0000
1000
0000
,
0002
0000
0003
0000
0010
0000
0200
0000
0300
0000
1000
0001
0200
0000
0000
0000
,
0320
2030
3002
0023
,
0230
0000
0310
0001
0002
0000
1003
1000
,
0020
0000
0130
0001
1000
1000
0100
0010
,
0002
0000
1003
1000
0010
0100
0001
0010
,
0200
2300
3200
0320
,
0032
0000
1003
0010
0020
0000
0130
0100
,
0002
0000
0013
0100
1000
1000
0001
0100
,
0010
0010
1000
0001
0001
0010
0100
1000
,
0002
0203
0302
0023
,
0230
0000
1300
0001
0002
0000
1003
1000
,
0002
0000
0103
0010
0100
0100
0002
0000
,
2003
0000
3100
0010
0002
0000
0013
0100
,
2000
3020
0230
0302
,
0023
0000
2030
0000
3020
0000
0031
0001
,
0200
0000
0320
1030
0001
0010
0200
0000
,
1300
0000
0000
0000
0010
0100
0010
0000
0000
0000
1000
0001
1000
0000
0000
0000
,
0200
0300
0000
0000
0000
0000
0000
0000
;

//--------------- dance-single - ----------------
#NOTES:
     dance-single:
     :
     Hard:
     15:
     0.65814,1.019495,0.312489,0.660691,0.437484,516,481,35,74,33,11,4,0,0,0.65814,1.019495,0.312489,0.660691,0.437484,516,481,35,74,33,11,4,0,0:
0000
0000
0000
0000
,
0000
0000
0000
0000
,
0000
0000
0000
0000
,
0000
0000
0000
0000
,
0011
0000
0000
0000
0100
0000
0000
0000
0001
0000
0020
0030
000M
0000
0010
0000
,
1000
0000
0000
0000
0100
0000
0000
0000
0010
0000
0001
1000
0100
1000
0100
1000
,
0001
0000
0100
0001
0100
0000
0010
0000
1000
0000
0200
0300
M000
0000
0100
0000
,
0001
0000
0000
0000
0040
0030
0400
0300
1000
0001
0100
00M0
0100
0000
1000
0100
,
1010
0000
0000
0000
0100
0000
0000
0000
1000
0000
0020
0030
0M00
0000
0010
0000
,
0001
0000
0000
0000
1000
0000
0100
0000
1000
0000
0001
1000
0010
1000
0010
1000
,
0001
0000
0010
0001
1000
0000
0001
1000
0010
0000
0100
00M0
0100
1000
0001
0000
,
1000
0001
1000
0010
0100
0000
0001
0000
1000
0000
0100
0010
0002
0000
0000
0000
,
1103
0000
0000
0000
0001
0000
0000
0000
1000
0000
0020
0030
0M00
0000
0010
0000
,
0001
0000
0000
0000
1000
0000
0100
0000
0010
0000
0100
1000
0001
0100
0001
0010
,
0100
0000
1000
0000
0010
0000
0000
0000
1000
0000
0200
0300
00M0
0000
0100
0000
,
0001
0000
0000
0000
0040
0030
0400
0300
1000
0001
0100
00M0
0100
0000
1000
0010
,
1100
0000
0000
0000
0010
0000
0000
0000
1000
0000
0020
0030
M000
0000
0010
0000
,
0001
0000
0000
0000
0010
0000
0001
0000
1000
0000
0010
0100
0001
0100
0010
1000
,
0001
0000
1000
0100
0010
0000
0001
0000
1000
0000
0200
0300
M000
0000
0100
0000
,
0001
0000
0100
0010
0100
0000
0001
0000
1000
0000
0100
0010
0002
0000
0000
0000
,
0203
0000
0000
0000
,
0300
0000
0000
0000
,
0000
0000
0000
0000
,
0000
0000
0000
0000
,
0000
0000
0000
0000
,
0000
0000
0000
0000
,
0000
0000
0000
0000
,
0000
0000
0000
0000
,
00M1
0000
0001
0000
0001
1000
0001
0010
,
0001
0010
0001
1000
0010
0100
0001
0020
,
1000
0000
1000
0000
1030
0010
1000
0010
,
1000
0000
0000
0000
0010
0000
0001
0000
1000
0000
0010
0000
0100
00M0
0200
0000
,
0001
0000
0001
0000
0301
0100
1000
0010
,
1000
0000
0010
0000
0100
0000
0001
0000
1000
0000
0100
0000
0010
0M00
0020
0000
,
0001
0000
0001
0000
0031
0010
0001
0010
,
0001
0000
0000
0000
0010
0000
1000
0000
0001
1000
0100
1000
0001
0000
0100
0010
,
1000
0000
0100
0000
1000
0000
0010
0100
0000
0000
0001
0000
0010
0000
0100
1000
,
0100
0000
0010
0000
0001
0000
1000
0010
0000
0000
0100
0000
0001
0000
0010
0100
,
1000
0000
0001
0000
0100
0000
0001
1000
0000
0000
0100
0000
0010
0000
0001
1000
,
0001
0000
0100
0000
0100
0000
0100
0000
0001
0000
0000
0000
1000
0000
0100
0010
,
0001
0000
0001
0000
1000
0000
0010
0100
0001
0000
1000
0000
0100
0000
0010
0100
,
1000
0000
1000
0000
0010
0000
0100
0001
1000
0000
0100
0000
0010
0000
0001
1000
,
0010
0000
0100
0001
0010
0000
0100
1000
0001
0100
0001
1000
0100
1000
0010
0100
,
0001
1000
0100
0010
0001
0100
0010
1000
0001
0010
0100
1000
0010
0M00
0010
0000
,
0002
0023
1100
0032
,
2003
0000
0000
0000
3100
00M0
0100
0000
0011
0000
0100
0000
0100
0000
0100
0000
,
0002
0000
0000
0000
0103
00M0
0100
0000
1010
0000
0100
0000
0100
0000
0100
0000
,
1000
0000
0001
0010
0100
M000
0100
0000
0011
0100
0001
0000
2000
0000
0100
0000
,
3002
0203
1010
0302
,
2003
0000
0000
0000
3100
00M0
0100
0000
0011
0000
0100
0000
0100
0000
0100
0000
,
0002
0000
0000
0000
0103
00M0
0100
0000
1010
0000
0100
0000
0100
0000
0100
0000
,
1000
0000
0001
0000
0100
0010
0100
0001
1100
0000
0010
0000
1100
0000
0001
0000
,
2000
3200
0011
2300
,
3002
0000
0000
0000
0103
00M0
0100
0000
2010
0000
0000
0000
3100
00M0
0100
0000
,
0001
0100
0100
0100
0011
0100
0100
0100
,
0001
0000
1000
0100
0010
000M
0010
0000
1100
0010
0100
0000
0002
0000
0010
0000
,
2003
3200
0011
2300
,
3002
0000
0000
0000
0103
00M0
0100
0000
2010
0000
0000
0000
3200
0000
0000
0000
,
1300
0001
0100
0010
1000
0001
0010
0100
1000
0001
0100
0000
0010
0000
1000
0000
,
0200
0000
0000
0310
0100
00M0
0200
0000
0000
0301
1000
0001
0020
0000
0000
0000
,
0032
0203
1010
0302
,
0023
0000
1030
0010
0102
0000
1003
1000
,
0020
0000
0000
0000
0031
0000
0010
0000
0100
0000
0001
0000
0020
0000
0000
0030
,
0002
0000
0000
0000
0103
00M0
0100
0000
2010
0000
0000
0000
3100
00M0
0100
0000
,
0002
0023
1100
0032
,
2003
0000
0000
0000
3100
0000
1000
0000
0012
0000
0000
0000
0103
00M0
0100
0000
,
2000
0000
0000
0000
3010
0000
0001
0000
0010
0M00
0010
0000
0100
00M0
0100
0000
,
0001
0000
1000
0000
0100
0010
0100
1000
0101
0000
0010
0000
0101
0000
1000
0000
,
0002
0203
1010
0302
,
2003
0000
0000
0000
3010
0000
0100
0000
0012
0000
0000
0000
0103
00M0
0100
0000
,
2000
0000
3100
0001
1100
0001
0200
0000
,
2300
0000
0000
0000
3100
00M0
0100
0000
0012
0000
0000
0000
0103
00M0
0100
0000
,
2000
3200
0011
2300
,
3002
0000
0000
0000
0203
0000
0000
0000
0312
0000
0000
0000
0103
00M0
0100
0000
,
2000
0000
0000
0000
3001
0001
0010
0000
0201
0000
0000
0000
2300
0000
0000
0000
,
3101
0000
0000
0000
0000
0000
0000
0000
1000
0000
0001
0000
0100
0000
0000
0000
0000
0000
0000
0000
0001
0100
0001
0100
0010
0000
0000
0000
1000
0000
0000
0000
,
2002
3003
0000
0000
0000
0000
0000
0000
;
