#TITLE:Skins;
#SUBTITLE:;
#ARTIST:Merge;
#TITLETRANSLIT:;
#SUBTITLETRANSLIT:;
#ARTISTTRANSLIT:;
#GENRE:Indie Rock;
#CREDIT:jenro-2024;
#MUSIC:Skins.ogg;
#BANNER:Skins-bn.png;
#BACKGROUND:Skins-bg.jpg;
#CDTITLE:;
#SAMPLESTART:48.354;
#SAMPLELENGTH:19.160;
#SELECTABLE:YES;
#OFFSET:-0.354;
#BPMS:0.000=200.000;
#STOPS:;
#BGCHANGES:;
#FGCHANGES:;

//--------------- dance-single - jenro2024 ----------------
#NOTES:
     dance-single:
     jenro2024:
     Beginner:
     4:
     0.148864,0.318099,0.082267,0,0,114,105,9,0,0,0,0.148864,0.318099,0.082267,0,0,114,105,9,0,0,0:
0000
0000
0000
0000
,
0000
0000
0000
0000
,
0000
0000
0000
0000
,
0000
0000
0000
0000
,
0000
0000
0000
0000
,
0000
0000
0000
0000
,
0000
0000
0000
0000
,
0000
0000
0000
0000
,
0001
0000
0000
0000
,
0010
0000
0000
0000
,
0001
0000
0000
0000
,
1000
0000
0000
0000
,
0100
0000
0000
0000
,
1000
0000
0000
0000
,
0010
0000
0000
0000
,
0100
0000
0000
0000
,
1000
0000
0000
0000
,
0010
0000
0000
0000
,
1000
0000
0000
0000
,
0100
0000
0000
0000
,
1000
0000
0000
0000
,
0010
0000
0000
0000
,
0100
0000
0000
0000
,
0001
0000
0000
0000
,
1000
0000
0000
0000
,
0000
0000
0000
0000
,
1000
0000
0000
0000
,
0000
0000
0000
0000
,
0001
0000
0000
0000
,
0001
0000
0000
0000
,
0001
0000
0000
0000
,
0010
0000
0000
0000
,
0100
0000
0000
0000
,
0000
0000
0000
0000
,
0100
0000
0000
0000
,
0000
0000
0000
0000
,
1000
0000
0000
0000
,
0100
0000
0000
0000
,
0001
0000
0000
0000
,
1000
0000
0000
0000
,
0100
0100
0100
0000
,
0010
0010
0010
0000
,
1000
0000
0000
0000
,
0001
0000
0000
0000
,
0100
0100
1000
0000
,
0001
0000
1000
0000
,
0100
0100
0001
0000
,
1000
0000
0001
0000
,
0010
0010
0010
0000
,
0100
0100
0100
0000
,
1001
0000
0000
0000
,
0010
0000
0000
0000
,
1000
0000
0000
0000
,
0001
0000
0000
0000
,
0100
0000
0000
0000
,
0000
0000
0000
0000
,
0010
0000
0000
0000
,
1001
0000
0000
0000
,
0100
0000
0000
0000
,
1001
0000
0000
0000
,
1000
0000
0100
0000
,
0001
0000
0000
0000
,
0010
0000
0100
0000
,
0010
0000
0000
0000
,
0001
0000
0100
0000
,
1000
0000
1001
0000
,
1000
0000
0100
0000
,
0001
0000
1001
0000
,
0010
0000
0100
0000
,
0010
0000
0010
0000
,
1000
0000
0000
0000
,
1000
0000
0001
0000
,
0100
0000
0000
0000
,
0000
0000
0110
0000
,
0000
0000
0000
0000
,
0000
0000
0110
0000
,
0001
0000
0001
0000
,
0010
0000
1000
0000
,
1000
0000
0100
0000
,
0001
0000
0001
0000
,
1000
0000
1010
0000
,
0001
0000
0000
0000
,
0001
0000
0101
0000
,
1000
0000
0000
0000
,
1000
0000
0010
0000
,
0001
0000
0010
0000
,
1000
0000
0000
0000
,
0001
0000
0000
0000
;

//--------------- dance-single - jenro2024 ----------------
#NOTES:
     dance-single:
     jenro2024:
     Easy:
     6:
     0.316009,0.401051,0.228519,0.073126,0,242,217,25,8,0,0,0.316009,0.401051,0.228519,0.073126,0,242,217,25,8,0,0:
1000
0000
0000
0000
,
0000
0000
0000
0000
,
0000
0000
0000
0000
,
0000
0000
0000
0000
,
0000
0000
0000
0000
,
0000
0000
0000
0000
,
0000
0000
0000
0000
,
0000
0000
0000
0000
,
0100
0010
1000
0000
,
1000
0100
0001
0000
,
0001
0010
0100
0000
,
0100
0100
0100
0000
,
0001
1000
0001
0000
,
1000
0001
1000
0000
,
0001
1000
0001
0000
,
1000
0001
1000
0000
,
1000
0001
0100
0000
,
1000
0000
1001
0000
,
1000
0001
0100
0000
,
1000
0001
0010
0000
,
1000
0100
0001
0000
,
0001
0100
1000
0000
,
0001
0010
1000
0000
,
1000
0010
0001
0000
,
1000
0000
0100
0001
,
1000
0010
0010
0000
,
0001
0000
0010
1000
,
0001
0100
0100
0000
,
1000
0010
0100
0000
,
1001
0000
0010
0000
,
0001
0100
0010
0000
,
1001
0000
0010
0000
,
0100
1000
0100
0000
,
1000
0010
0001
1000
,
0100
0001
0100
0000
,
0001
0010
1000
0000
,
0110
0000
0010
0000
,
1001
0000
0001
0000
,
0010
0010
0100
0100
,
0001
1000
1001
0000
,
1000
0001
0100
0000
,
0010
1000
0100
0000
,
0100
0010
0001
0000
,
1000
0100
0001
0000
,
2002
3003
0010
0000
,
2002
3003
0100
0000
,
0001
0001
1000
0010
,
1000
1000
0100
0000
,
0100
1000
0001
0000
,
0001
1000
0010
0000
,
0001
0010
0100
0000
,
1001
0000
1010
0000
,
0100
0000
0001
1000
,
0100
0000
0010
0000
,
0110
0000
0000
0000
,
0000
0000
0000
0000
,
1000
1000
1000
1000
,
0001
0000
1010
0000
,
0001
0001
0001
0001
,
1000
0000
0101
0000
,
1000
0010
0001
0000
,
0010
0100
0010
0000
,
0001
1000
0100
0010
,
0100
1000
0100
0000
,
0100
0100
0100
0100
,
1000
0000
1001
0000
,
0100
0100
0100
0100
,
0001
0001
0010
0000
,
1100
0000
0100
0000
,
0101
0000
0100
0000
,
1000
0100
0010
0001
,
1000
0001
0010
1000
,
0100
0000
0010
0000
,
0101
0000
0011
0000
,
0100
0000
0010
0000
,
0101
0000
0011
0000
,
0100
0001
0010
1000
,
1000
1000
1000
0100
,
1000
1000
1000
0100
,
1000
1000
1001
0000
,
0101
0000
1000
0000
,
1100
0000
0001
0000
,
1000
0100
0100
0100
,
0001
0100
0100
0100
,
0010
0100
1001
0000
,
0100
0010
1001
0000
,
0001
0010
1000
0100
,
0010
1000
0001
0001
;

//--------------- dance-single - jenro2024 ----------------
#NOTES:
     dance-single:
     jenro2024:
     Medium:
     10:
     0.468791,0.602434,0.301645,0.073126,0,359,326,33,8,0,0,0.468791,0.602434,0.301645,0.073126,0,359,326,33,8,0,0:
0000
0000
0000
0000
,
0000
0000
0000
0000
,
0000
0000
0000
0000
,
0000
0000
0000
0000
,
0000
0000
0000
0000
,
0000
0000
0000
0000
,
0000
0000
0000
0000
,
0000
0000
0000
0000
,
0010
1000
1010
0000
,
0100
1000
1100
0000
,
1000
0001
0101
0000
,
1000
0001
0101
0000
,
0010
0001
0011
0000
,
0010
1000
1010
0000
,
0001
0100
0102
0000
,
1000
0000
0000
0000
0010
0003
1000
0000
,
1001
0001
0100
0000
,
0110
0100
0001
0000
,
0011
1000
0001
0000
,
1010
0001
1000
0000
,
0200
0000
1000
0000
0010
0300
0000
0000
,
0200
0000
0001
0000
0010
0300
0000
0000
,
1001
0000
1001
0000
,
1001
0000
0100
0000
,
1000
0010
0100
0010
,
1000
0100
0001
0000
,
0001
0010
0100
0010
,
1000
0100
0001
0000
,
1000
0100
0010
0100
,
1000
0001
0100
0001
,
1000
0010
0100
0010
,
1000
0000
1001
0000
,
0001
0001
1000
0000
,
1000
1000
1000
0000
,
0010
0000
0110
0000
,
0100
0000
0001
0000
,
1000
0100
0001
0100
,
1000
0010
0001
0100
,
0010
0100
1000
0001
,
0100
0100
0100
0000
,
0010
0001
0100
0000
,
0010
1000
1010
0000
,
0100
1000
1001
0000
,
0100
1000
1001
0000
,
0010
0001
0001
0010
,
0100
1000
1000
0100
,
1000
0010
0001
0100
,
0001
0000
0010
0000
1000
0001
1000
0001
,
1000
0000
0010
0000
1010
0000
0100
1000
,
0100
0000
0010
0001
0010
0001
0000
0000
,
1000
0100
0001
0001
,
0001
0000
0100
0001
1000
0000
1000
0000
,
1000
0000
1001
0001
,
1000
0100
0001
0100
,
1000
0001
0010
0001
,
0100
1000
0000
0000
,
1200
0000
0000
0300
,
1001
0001
0010
0100
,
0001
1000
0100
0100
,
1000
0010
1000
0100
,
0010
0000
0100
0010
0100
0000
0100
0010
,
0100
0000
0010
0100
0010
0100
0010
0000
,
0010
0001
1000
0100
,
0020
1000
0001
0130
,
0001
0000
1000
0001
0100
0000
0001
1000
,
0100
0000
0010
1000
0100
0000
0010
1000
,
0100
0000
0001
1000
0100
0000
0001
1000
,
0100
0000
0010
0100
0001
0000
0010
0100
,
0010
0000
1000
0001
0100
0001
1000
0100
,
1000
0000
0001
1000
0100
1000
0001
1000
,
0002
0000
0020
0033
,
1100
0000
0101
0100
,
1001
0000
1000
0010
1000
0000
0001
1000
,
0100
0000
1000
0001
1000
0001
1000
0001
,
1000
0000
0001
1000
0010
0000
0100
0010
,
1000
0000
1000
0010
1000
0010
1000
0000
,
0001
0010
0011
0001
,
0101
1000
1001
0010
,
1100
0100
0001
1000
,
0001
1001
0100
0100
,
0010
0001
0100
0000
0010
0100
0010
0000
,
1000
0100
1000
0100
1000
0010
1000
0010
,
0010
0000
0100
0100
0001
0000
1000
1000
,
0100
0000
0100
0100
0010
0000
0010
0001
,
0100
0001
1000
0100
1000
0000
0001
0000
,
1001
0000
0100
1000
0100
0000
0100
0010
,
0100
0000
0001
0010
0100
1000
0001
0010
,
0100
0000
1000
0000
1020
0000
0000
0030
;

//--------------- dance-single - jenro2024 ----------------
#NOTES:
     dance-single:
     jenro2024:
     Hard:
     14:
     0.718203,0.72292,0.274223,0.036563,0,550,520,30,4,0,0,0.718203,0.72292,0.274223,0.036563,0,550,520,30,4,0,0:
0000
0000
0000
0000
,
0000
0000
0000
0000
,
0000
0000
0000
0000
,
0000
0000
0000
0000
,
0000
0000
0000
0000
,
0000
0000
0000
0000
,
0000
0000
0000
0000
,
0000
0000
0000
0000
,
0100
0000
0010
0000
1000
0001
0000
0100
,
0001
0000
0010
0000
1000
0100
0000
0001
,
0010
0000
1000
0000
0001
0100
0000
0010
,
1000
0000
0100
0000
0010
0100
0000
1000
,
0001
0000
0100
0000
0001
0100
0000
0001
,
1000
0000
0100
0000
1000
0100
0000
0010
,
0001
0000
0010
0000
1000
0001
0100
0001
,
1000
0010
0100
0010
0100
0010
1000
0001
,
0010
0000
0100
0000
1000
0100
0000
0001
,
0010
0000
1000
0100
1100
1000
0000
0001
,
0010
0000
0001
0000
1000
0100
0000
1000
,
0010
0000
0001
0100
0100
0001
0000
0001
,
0010
0000
0100
0010
0100
0010
0000
0001
,
1000
0000
0010
0100
0010
1000
0000
1000
,
0001
0010
0001
0010
0001
0010
0100
1000
,
0001
1000
0100
1000
0100
1000
0010
0100
,
0001
0000
0100
0010
1000
0001
0000
1000
,
0000
1000
0100
1000
0001
1000
0100
1000
,
0001
0010
0001
0010
0100
0010
0001
1000
,
0000
0001
0010
0100
0010
0001
0010
0001
,
1000
0001
0100
0000
0001
1000
0100
0000
,
1000
0010
1000
0000
0100
0001
0010
0000
,
0001
1000
0100
0000
1000
0001
0010
0000
,
1000
0001
1000
0010
1000
0010
0001
0010
,
1000
0010
0001
0010
0100
1000
0000
0010
,
0001
0010
0100
1000
0100
1000
0010
1000
,
0100
1000
0100
0000
1000
0100
1000
0010
,
0100
1000
0100
0001
0010
0100
0010
0001
,
1000
0100
1000
0001
0010
0000
0001
1000
,
0100
0000
1000
0001
1000
0001
0100
0000
,
0100
0001
0100
0001
1000
0010
1000
0100
,
0010
0001
1000
0001
0010
0001
1000
0000
,
0010
1000
0100
0010
0110
0000
0001
1000
,
0010
0100
0001
0100
0010
1000
0000
0001
,
1001
0000
1100
0000
0001
0010
0100
1000
,
0100
0000
1000
0010
1000
0100
0000
0010
,
1010
0000
0100
0001
1000
0100
0000
1000
,
0100
0000
1000
0001
1000
0100
0000
0001
,
1000
0000
0001
1000
0100
0010
0001
1000
,
0010
1000
0010
0100
0001
0100
0010
0100
,
0001
0000
0010
0000
1100
1000
0000
0010
,
1000
0001
0101
0000
0001
0010
0000
1000
,
0001
0100
0001
0010
0100
1000
0000
1000
,
0001
1000
0001
0100
0010
0100
0001
1000
,
0100
0000
0010
0000
0001
0010
0000
0100
,
0010
0000
0001
1000
0010
1000
0000
1000
,
1010
0000
0000
0000
,
0000
0000
0000
0000
,
1100
0000
0001
0010
0110
0000
0001
0010
,
0110
0000
0001
1000
0100
1000
0001
0000
,
0101
0000
1000
0010
0110
0000
1000
0010
,
0110
0000
0001
1000
0100
1000
0002
0000
,
1003
0100
1000
0010
1000
0010
1000
0100
,
1000
0000
0000
0110
0010
0000
1000
0100
,
1001
0000
0001
0100
1001
0000
0001
1000
,
0001
0010
0001
0010
0220
0000
0330
0000
,
1100
0000
0000
0101
0000
0000
1001
0000
,
0110
0000
0100
0010
0110
0000
0110
0000
,
1001
0000
1000
0100
1100
0000
0001
0100
,
0001
0000
1000
0001
1000
1000
1000
1000
,
0010
0100
0010
1000
1010
0000
0100
0010
,
0100
0000
0100
1100
2000
0000
3100
0000
,
0001
1000
0001
0010
0001
0100
0010
0100
,
0010
1000
0100
0010
0100
0010
0011
0000
,
1000
0001
1000
0001
1000
0001
0100
0010
,
0100
0010
1000
0001
0100
0010
1000
0001
,
0010
0001
1000
0010
1000
0100
0010
0001
,
1000
0001
0100
0010
1000
0100
1000
0010
,
0100
0001
0010
0100
1000
0010
0100
0010
,
0100
0001
1000
0010
1000
0100
0010
0001
,
1000
0001
1000
0100
0010
0100
0010
0100
,
1000
0001
0100
0001
0010
0001
0010
0100
,
0110
0000
1000
0001
1000
0001
1000
0001
,
0100
0010
0100
0010
1000
0001
0100
0010
,
1000
0001
0010
0001
1000
0010
1000
0100
,
0010
0001
1000
0001
0100
0010
1000
0100
,
1000
0010
0100
0001
0010
0100
1000
0010
,
0100
0010
0100
0001
1000
0010
1000
0100
,
0010
0001
1000
0001
1000
0100
0010
0100
,
0010
0100
1000
0001
0100
0001
0010
0001
;
