#TITLE:Second Trumpet;
#SUBTITLE:;
#ARTIST:;
#TITLETRANSLIT:;
#SUBTITLETRANSLIT:;
#ARTISTTRANSLIT:;
#GENRE:;
#CREDIT:;
#MUSIC:Second-Trumpet.ogg;
#BANNER:Second Trumpet BN.png;
#BACKGROUND:Second Trumpet BG.png;
#CDTITLE:;
#SAMPLESTART:0.000;
#SAMPLELENGTH:0.000;
#SELECTABLE:YES;
#OFFSET:0.000;
#BPMS:0.000=182.000
,196.000=91.000
,196.500=45.500
,196.750=22.750
,197.000=182.000
,261.000=91.000
,277.000=182.000
,373.000=45.500
;
#STOPS:;
#BGCHANGES:;
#FGCHANGES:;

//--------------- dance-single - Minxyz ----------------
#NOTES:
     dance-single:
     Minxyz:
     Medium:
     13:
     0,0,0,0,0:
0000
0000
0000
0000
,
0000
0000
0000
0000
,
0000
0000
0000
0000
,
0000
0000
0000
0000
,
0000
0000
0000
0000
,
0000
0000
0000
0000
,
0000
0000
0000
0000
,
0000
0000
0000
0000
,
0000
0000
0000
0000
,
0000
0000
0000
0000
,
1001
0001
0101
0100
,
0110
0010
1010
1001
,
1000
0010
0100
0001
0100
0010
1000
0100
,
0001
0100
0010
0100
,
1001
1000
1010
0010
,
0110
0100
0101
1001
,
1000
0001
0100
1000
0100
0001
0010
0100
,
0010
0000
0001
0000
0010
0000
0001
1000
0000
0010
1000
0000
0001
0000
0001
0000
,
1001
0000
0000
0000
1000
0000
0000
0010
0000
0000
0100
0000
0010
0000
0001
0000
,
0010
0000
0000
0100
0000
0000
1000
0000
0000
0100
0000
0000
0010
0000
0001
0000
,
0010
0000
0000
0000
1000
0000
0000
0100
0000
0000
0010
0000
0001
0000
0010
0000
,
0100
0000
0000
1000
0000
0000
0100
0000
0000
0010
0000
0000
0001
0000
1000
0000
,
2002
0000
3003
0000
0001
0000
0000
0100
0000
0000
0010
0000
0100
0000
1000
0000
,
0100
0000
0000
0010
0000
0000
0001
0000
0000
0010
0000
0000
0100
0000
1000
0000
,
0100
0000
0000
0000
0001
0000
0000
0010
0000
0000
0100
0000
1000
0000
0100
0000
,
0010
0000
0000
0001
0000
0000
0010
0000
0000
0100
0000
0000
1000
0000
0001
0000
,
2002
0000
3003
0000
1000
0000
0100
0010
0000
0000
0001
0000
1000
0000
0010
0100
,
0000
0001
0000
0000
0010
0000
0001
1000
0000
0000
0010
0000
0010
0000
1000
0000
,
1010
0000
0000
0000
0001
0000
1000
0100
0000
0000
0010
0000
0001
0000
0010
0100
,
0000
1000
0000
0000
0010
0000
0100
0010
0000
0000
1000
0000
0001
0000
0001
0000
,
2002
0000
3003
0000
0001
0000
0010
0100
0000
0000
1000
0000
0001
0000
0100
0010
,
0000
1000
0000
0000
0100
0000
1000
0001
0000
0000
0100
0000
0100
0000
0001
0000
,
0101
0000
0000
0000
1000
0000
0001
0010
0000
0000
0100
0000
1000
0000
0100
0010
,
0000
0001
0000
0000
0100
0000
0010
0100
0000
0000
0001
0000
1000
0000
1000
0000
,
0100
2002
0000
3003
,
1000
0000
0010
1010
0000
1001
0000
1100
,
1000
0000
0001
0011
0000
1001
0000
0101
,
0001
0100
0010
1000
0000
0100
0000
0010
,
0001
0000
1000
0010
0100
0000
0110
0000
,
0001
0000
0010
0000
0001
0011
0000
1010
,
0000
1000
0010
1000
0010
1000
0001
0100
,
0001
0100
0001
0200
0300
0100
0001
1000
,
0010
2002
0000
3003
,
0001
0000
0100
0101
0000
1001
0000
0011
,
0001
0000
1000
1100
0000
1001
0000
1010
,
1000
0010
0100
0001
0000
0010
0000
0100
,
1000
0000
0001
0100
0010
0000
0110
0000
,
1000
0000
0100
0000
1000
1100
0000
0101
,
0000
0001
0100
0001
0100
0001
1000
0010
,
2000
0000
3010
0000
0000
0010
1000
0001
,
0010
0000
0100
0001
0100
1000
0010
1000
,
0100
0010
0000
0000
0001
0010
0100
1000
,
0010
0000
0001
0010
1000
0100
1000
0010
,
0100
0001
2002
3003
0000
0100
0001
1000
,
0100
0000
0010
1000
0010
0001
0100
0001
,
0010
0100
0000
0000
1000
0100
0010
0001
,
0100
0000
1000
0100
0001
0010
0001
0100
,
0010
1000
2002
3003
0000
0100
1000
0001
,
0100
0000
0010
0001
0010
1000
0100
1000
,
0010
0100
0000
0000
0001
0100
0010
1000
,
0100
0000
0001
0100
1000
0010
1000
0100
,
0010
0001
2002
3003
0000
0010
0001
1000
,
0010
0000
0100
1000
0100
0001
0010
0001
,
0100
0010
1010
0000
1000
0010
0000
0001
,
0010
0000
1000
0001
0000
0000
0011
0000
,
0110
0000
0000
0000
0000
0000
0000
0000
2002
3003
0000
0000
0001
0000
0000
0000
0010
0000
0000
0000
0001
0000
0000
0000
1000
0000
0000
0000
0010
0000
0000
0000
,
1000
0010
1000
0010
0100
0010
0001
0010
,
0100
1000
0100
0000
0001
0000
1000
0000
0100
0000
1000
0000
0001
0000
0100
0000
,
0001
0100
0001
0100
0010
0100
1000
0100
,
0010
0000
0001
0000
0010
0000
0000
0000
2000
3000
0000
0000
0000
0000
0000
0000
0001
0000
0000
0000
0100
0000
0000
0000
1000
0000
0000
0000
0000
0000
0000
0000
,
1000
0100
0001
0000
1000
0100
0001
0000
,
0001
0100
1000
0010
0100
0001
0010
0100
,
1000
0001
0010
0001
0010
0100
0000
0010
,
0100
1000
0001
0010
0001
0000
1000
0010
,
1000
0000
0010
0100
0010
0000
1000
0001
,
0100
0000
0001
0100
1000
0001
0010
1000
,
0100
0000
0010
0000
0100
0000
1000
0000
0100
0000
1000
0001
0000
0100
0001
0000
,
1000
1000
1001
0001
0010
0100
1000
0100
,
0010
0001
0100
0010
0100
1000
0000
1000
,
0100
0010
1000
1000
0010
0100
0001
0100
,
0010
1000
0100
0010
0001
0010
0000
0001
,
0100
0010
1010
1000
0100
0010
0001
0010
,
0100
1000
0010
0100
0010
0001
0000
0001
,
0010
0100
0001
0001
0100
0010
1000
0010
,
0100
0001
0010
0100
1000
0100
0000
1000
,
0010
0000
0100
0000
0101
0000
0000
0001
0000
0000
0100
0000
1000
0000
0000
0100
,
0000
0000
0010
0000
1000
0000
0000
0100
0000
0000
0001
0000
0100
0000
0000
1000
,
0000
0000
0010
0000
0110
0000
0000
0010
0000
0000
0010
0000
0100
0000
0000
0010
,
0000
0000
0100
0000
0001
0000
0000
1000
0000
0000
0100
0000
0010
0000
0000
0001
,
0000
0000
1000
0000
0100
0000
0000
0000
0010
0000
0001
0000
1000
0010
0000
0000
,
0100
0000
0000
0001
1000
0000
0100
0000
0010
0000
0001
0000
1000
0010
0000
0000
,
0100
0001
0000
0000
1001
0000
0000
0000
1000
0000
0001
0000
0100
0000
0010
0000
,
1000
0100
0010
0001
0100
0010
0010
0010
,
0010
0010
0020
0000
0000
0000
0030
0000
;

//--------------- dance-single - Mixnyz ----------------
#NOTES:
     dance-single:
     Mixnyz:
     Hard:
     16:
     0,0,0,0,0:
0000
0000
0000
0000
,
0000
0000
0000
0000
,
0000
0000
0000
0000
,
0000
0000
0000
0000
,
0000
0000
0000
0000
,
0000
0000
0000
0000
,
0000
0000
0000
0000
,
0000
0000
0000
0000
,
0000
0000
0000
0000
,
0000
0000
0000
0000
,
2002
0000
0000
3003
,
1000
0001
0110
0000
0100
0001
0101
0000
,
1000
0100
0110
0000
0100
0010
0011
0000
,
0001
0010
0110
0000
1000
0010
0110
0000
,
2002
0000
0000
3003
,
1000
0001
0110
0000
1000
0100
0110
0000
,
0100
0010
0001
0010
0100
1000
0010
0100
,
0001
0000
0001
0100
0001
0000
1000
0100
0000
0010
0100
0000
0010
0000
0010
0000
,
0110
0000
0000
0000
1000
0000
0000
0100
0000
0000
0010
0000
0011
0000
0010
0000
,
0100
0000
0000
1000
0000
0000
0001
0000
0000
0100
0010
0000
0100
0000
0001
0000
,
1001
0000
0000
0000
0001
0000
0000
0010
0000
0000
0100
0000
1100
0000
0100
0000
,
0010
0000
0000
0100
0000
0000
1000
0000
0000
0000
0010
0000
0100
0000
0001
1000
,
0100
0000
0000
0000
1000
0000
0000
0010
0000
0000
0100
0000
0101
0000
0100
0000
,
0010
0000
0000
1000
0000
0000
0001
0000
0000
0010
0100
0000
0010
0000
0001
0000
,
1001
0000
0000
0000
0001
0000
0000
0100
0000
0000
0010
0000
1010
0000
0010
0000
,
0100
0000
0000
0010
0000
0000
1000
0000
0000
0000
0100
0000
0010
0000
0001
1000
,
0020
0000
0030
0000
1000
0000
0001
0100
0001
0000
1000
0000
0010
0000
0100
0001
,
0100
0000
0010
0000
0100
0000
0001
1000
0001
0000
0100
0000
0010
0000
1000
0010
,
1000
0000
0000
0000
0001
0000
1000
0010
1000
0000
0010
0000
0100
0000
0100
0001
,
0100
0000
0001
0000
0010
0000
0001
0000
1000
0001
0100
0000
0010
0000
1000
0000
,
1010
0000
0000
0000
1000
0000
0001
0010
0001
0000
1000
0000
0100
0000
0010
0001
,
0010
0000
0100
0000
0010
0000
0001
1000
0001
0000
0010
0000
0100
0000
1000
0100
,
1000
0000
0000
0000
0001
0000
1000
0100
1000
0000
0100
0000
0010
0000
0010
0001
,
0010
0000
0001
0000
0100
0000
0001
0000
1000
0001
0010
0000
0100
0010
0001
1000
,
0100
0220
0000
0330
,
0010
0000
0001
0101
0000
1100
0000
0110
,
0100
0000
0000
1010
0000
0110
0000
0011
,
0001
0000
0000
1010
0000
1100
0000
1001
,
0001
0000
0000
1000
0010
0000
0000
0000
0100
0000
0000
0010
1000
0000
0100
0000
,
0010
0001
0100
0010
1000
1010
0000
0110
,
0000
1000
0100
0001
0100
1000
0100
0001
,
0100
0000
1000
0000
0010
0000
0100
0000
0001
0100
0000
0000
0010
0000
0010
0000
,
0010
0220
0000
0330
,
0100
0000
0001
0011
0000
1010
0000
0110
,
0010
0000
0000
1100
0000
0110
0000
0101
,
0001
0000
0000
1100
0000
1010
0000
1001
,
0001
0000
0000
1000
0100
0000
0000
0000
0010
0000
0000
0100
1000
0000
0010
0000
,
0100
0001
0010
0100
1000
1100
0000
0110
,
0000
1000
0010
0001
0010
1000
0010
0001
,
0020
1030
1001
1100
,
0101
0011
1010
1100
,
0110
0001
1001
0011
,
1010
1100
0101
0011
,
0110
0000
0000
0000
1000
0000
0000
0000
1000
0100
0000
0000
0010
0001
0000
0000
,
1000
0010
0000
0000
0100
0001
0000
0000
0010
0100
0000
0000
1000
0010
0000
0000
,
1000
0001
0000
0000
1001
0000
0000
0000
0001
0010
0000
0000
0100
1000
0000
0000
,
0001
0100
0000
0000
0010
1000
0000
0000
0100
0010
0000
0000
0001
0100
0000
0000
,
0001
1000
0010
0100
0001
0000
0000
0000
1001
0000
0000
0000
1010
0000
0000
0000
,
0011
0101
1100
1010
,
0110
0001
1001
0101
,
1100
1010
0011
0101
,
0110
0000
0000
0000
1000
0000
0000
0000
1000
0010
0000
0000
0100
0001
0000
0000
,
1000
0100
0000
0000
0010
0001
0000
0000
0100
0010
0000
0000
1000
0100
0000
0000
,
1000
0001
0000
0000
2002
0000
3003
0000
0000
0000
0220
0000
0330
0000
0000
0000
,
2020
3030
0000
0202
0303
0000
0021
0030
,
0100
0000
1000
0000
0100
0000
0000
0000
0020
0030
0000
0000
0001
0000
0000
0000
0100
0000
0000
0000
0010
0000
0000
0000
1000
0000
0000
0000
0100
0000
0000
0000
,
1000
0000
0100
0000
0010
0001
0010
1000
0010
0001
0100
1000
0100
0001
0010
0100
,
0000
0100
0010
0000
0100
0000
1000
0000
0010
0000
0100
0000
0001
0000
0010
0000
,
0001
0000
0010
0000
0100
1000
0100
0001
0100
1000
0010
0001
0010
1000
0100
0010
,
0000
0000
0010
0000
0100
0000
0000
0000
0120
0030
0000
0000
0000
0000
0000
0000
0001
0000
0000
0000
0001
0000
0000
0000
1000
0000
0000
0000
0000
0000
0010
0000
,
0000
0000
0010
0000
0100
0000
0000
0001
0000
0000
0100
0000
0001
0000
0000
1000
,
0000
0000
0100
0000
1000
0000
0000
0010
0000
0000
0100
0000
0001
0000
0000
0010
,
0000
0000
0100
0000
1000
0000
0000
0001
0000
0000
0100
0000
0010
0000
0000
0001
,
0000
0010
1000
0100
1000
0100
0001
0100
,
0001
0100
1000
0010
1000
0010
0001
0010
,
0001
0000
0010
0000
1000
0001
1000
0001
1000
0001
1000
0001
1000
0001
1000
0001
,
1000
0010
0100
0001
1000
0000
1000
0010
1000
0000
0001
0010
0000
0100
0010
0000
,
0100
0000
0100
0000
0110
0000
0000
0000
0001
0000
1000
0010
1000
0000
0100
0000
,
1000
0000
0001
0100
0001
0000
1000
0000
0010
0000
0100
0000
0000
0001
1000
0000
,
0100
0100
0010
0001
1000
0010
0100
0001
,
0100
0000
0010
1000
0010
0000
1000
0000
0001
0000
0010
0000
0000
0001
0100
0000
,
0010
0001
0010
1000
0001
0100
1000
0100
,
0001
0000
1000
0010
1000
0000
0001
0000
0100
0000
0001
0000
0000
1000
0100
0000
,
0010
0001
0010
0001
1000
0100
0001
0100
,
1000
0000
0010
0100
0010
0000
1000
0000
0001
0000
0010
0000
0000
0100
1000
0000
,
0001
0000
0010
0000
0110
0000
0000
0000
1000
0000
0001
0100
0001
0000
0010
0000
,
0001
0000
1000
0010
1000
0000
0001
0000
0100
0000
0010
0000
0000
1000
0001
0000
,
0010
0010
0100
1000
0001
0100
0010
1000
,
0010
0000
0100
0001
0100
0000
0001
0000
1000
0000
0100
0000
0000
1000
0010
0000
,
0100
1000
0100
0001
1000
0010
0001
0010
,
1000
0000
0001
0100
0001
0000
1000
0000
0010
0000
1000
0000
0000
0001
0010
0000
,
0100
1000
0100
1000
0001
0010
1000
0010
,
0001
0000
0100
0010
0100
0000
0001
0000
1000
0000
0100
0000
0000
0010
0001
0000
,
1000
0010
1000
0010
2000
0000
0000
0000
0000
0000
0000
0000
3000
0000
0000
0000
;

//--------------- dance-single - Minxyz ----------------
#NOTES:
     dance-single:
     Minxyz:
     Challenge:
     18:
     0,0,0,0,0:
0000
0000
0000
0000
,
0000
0000
0000
0000
,
0000
0000
0000
0000
,
0000
0000
0000
0000
,
0000
0000
0000
0000
,
0000
0000
0000
0000
,
0000
0000
0000
0000
,
0000
0000
0000
0000
,
0000
0000
0000
0000
,
0000
0000
0000
0000
,
2002
0000
3000
0003
,
0010
0000
0011
0100
1100
0000
1001
0000
,
0110
0001
0010
0100
1000
0010
0100
0001
,
0010
0100
1000
0000
0010
0100
0001
0000
1000
0001
1000
0000
0100
0010
0100
0000
,
0022
0000
0030
0003
,
1000
0010
1000
0000
0001
0100
0001
0000
0010
0100
0010
0000
0100
1000
0100
0000
,
0010
0001
0010
0000
0100
0000
1000
0000
0010
0000
0001
0000
0010
0000
1000
0000
,
0100
0010
0001
0010
0001
1000
0100
1000
0000
0001
0100
0001
0100
0000
0100
0000
,
0110
0000
0000
0000
1000
0000
0100
0010
0001
0010
0001
0000
0100
0000
0001
0100
,
0001
0000
0010
0000
0010
0000
0001
0100
0010
1000
0001
0000
1001
0000
0001
1000
,
0100
0000
0000
0000
0010
0000
0001
0010
0001
0010
0100
0000
1000
0000
0100
1000
,
0100
0000
0010
0000
0011
0000
1000
0001
0100
0010
0100
0000
0010
0000
0010
0000
,
0210
0000
0300
0000
0001
0000
0010
0100
1000
0100
1000
0000
0010
0000
1000
0010
,
1000
0000
0100
0000
0100
0000
1000
0010
0100
0001
1000
0000
1001
0000
1000
0001
,
0010
0000
0000
0000
0100
0000
1000
0100
1000
0100
0010
0000
0001
0000
0010
0001
,
0010
0000
0100
0000
1100
0000
0001
1000
0010
0100
0010
0000
0100
0000
0100
0000
,
0110
0000
0000
0000
0100
0000
0010
1000
0000
0001
0100
0000
0010
0000
1000
0000
,
0100
0000
0010
0001
0000
0000
1000
0100
1000
0000
0001
0000
0010
0000
0110
0000
,
0110
0000
0000
0000
1000
0000
0000
0100
0000
0000
0001
0000
0100
0000
1000
0001
,
1000
0000
0010
0000
0001
0000
0010
0000
1000
0000
0001
0100
0010
0000
1000
0001
,
0100
0000
0000
0000
0010
0000
0100
0001
0000
1000
0010
0000
0100
0000
0001
0000
,
0010
0000
0100
1000
0000
0000
0001
0010
0001
0000
1000
0000
0100
0000
0110
0000
,
0110
0000
0000
0000
0001
0000
0000
0010
0000
0000
1000
0000
0010
0000
0001
1000
,
0001
0000
0100
0000
1000
0000
0100
0000
0001
0000
1000
0010
0100
0010
0100
0010
,
0100
0000
0000
0000
0120
0000
0000
0000
0000
0000
0000
0000
1030
0000
0001
0100
,
0001
0010
0001
0202
0303
2020
3030
0110
,
0001
0000
0000
0000
0010
0000
0110
0000
0000
0000
0110
0000
0000
0000
0100
0010
,
0001
1000
0100
0110
0000
0110
0100
0010
,
1001
0000
0000
0000
1000
0000
0010
1000
0010
1000
0010
0000
1000
0000
0001
0010
,
0001
0010
0001
0000
0010
0000
0100
1000
0100
0000
0220
0000
0330
0000
2002
0000
,
3003
0001
0010
0100
1000
0100
0001
0100
,
1000
0010
0100
0002
0000
0013
0100
0000
,
1000
0000
0000
0000
0210
0000
0000
0000
0000
0000
0000
0000
0301
0000
1000
0010
,
1000
0100
1000
2020
3030
0202
0303
0110
,
1000
0000
0000
0000
0100
0000
0110
0000
0000
0000
0110
0000
0000
0000
0010
0100
,
1000
0001
0010
0110
0000
0110
0010
0100
,
1001
0000
0000
0000
0001
0000
0100
0001
0100
0001
0100
0000
0001
0000
1000
0100
,
1000
0100
1000
0000
0100
0000
0010
0001
0010
0000
0220
0000
0330
0000
2002
0000
,
3003
1000
0010
0001
0010
1000
0100
0010
,
1002
0000
0000
0000
0000
0000
0000
0000
2003
3000
0000
0000
0000
0000
0000
0000
0110
0000
0000
0000
0000
0000
0000
0000
0001
0000
0010
0000
0000
0000
0000
0000
,
0100
1000
0000
0000
0010
0100
0000
0000
0001
0100
0000
0000
0010
1000
0000
0000
,
0100
0010
0000
0000
1001
0000
0000
0000
0001
0100
0000
0000
0010
1000
0000
0000
,
0100
0010
0000
0000
0001
0010
0000
0000
0100
1000
0000
0000
0010
0100
0000
0000
,
0010
1000
0000
0000
1100
0000
0000
0000
0100
1000
0000
0000
1000
0100
0000
0000
,
0010
0001
0000
0000
0100
0010
0000
0000
1000
0010
0000
0000
0100
0001
0000
0000
,
0010
0100
0000
0000
1001
0000
0000
0000
1000
0010
0000
0000
0100
0001
0000
0000
,
0010
0100
0000
0000
1000
0100
0000
0000
0010
0001
0000
0000
0100
0010
0000
0000
,
0100
0001
0000
0000
0011
0000
0000
0000
1000
0100
1000
0000
0010
0100
0010
0000
,
0100
0001
0100
0000
0010
1000
0010
0000
0100
0001
1000
0000
0100
0010
0001
0000
,
1000
0100
0010
0000
0110
0000
0000
0000
0001
0010
0001
0000
0100
0010
0100
0000
,
0010
1000
0010
0000
0100
0001
0100
0000
0010
1000
0001
0000
0010
0100
1000
0000
,
0001
0010
0100
0000
0110
0000
0000
0000
0001
0010
0001
0000
1000
0010
1000
0000
,
0001
0100
0001
0000
1000
0100
1000
0000
0010
0100
0010
0000
1000
0001
1000
0000
,
0010
0000
0100
0000
0220
0000
0330
0000
0000
0000
0100
0010
1000
0000
0000
0000
,
0001
0100
0010
0000
0000
0000
1000
0001
0010
0000
0000
0000
0100
1000
0100
0000
,
0010
0000
0001
0000
0010
0000
0100
0000
2000
3000
0000
0000
1010
0000
0000
0000
0010
0000
0000
0000
0110
0000
0000
0000
0100
0000
0000
0000
0101
0000
0000
0000
,
0001
0000
0000
0000
1001
0000
0000
0000
0120
0030
1000
0000
0001
0000
0100
0000
0010
0000
0001
0000
0010
0000
1000
0000
0100
0000
0010
0000
0001
0000
0020
0000
,
0030
0000
0100
0010
0100
0000
0010
0000
0001
0000
0000
0000
0101
0000
0000
0000
0100
0000
0000
0000
0110
0000
0000
0000
0010
0000
0000
0000
1010
0000
0000
0000
,
1000
0000
0000
0000
1001
0000
0000
0000
0210
0300
0001
0000
1000
0000
0010
0000
0100
0000
1000
0000
0100
0000
0001
0000
0010
0000
0100
0000
1000
0000
0200
0000
,
0300
0000
0010
0100
0010
0000
0100
0000
2000
0000
3000
0000
0000
0000
0000
0000
0101
0000
0000
0000
0000
0000
0000
0000
0100
0000
0000
0000
0000
0000
0010
0000
,
0000
0000
0010
0000
0010
0000
0000
1000
0000
0000
1000
0000
1000
0000
0000
0100
,
0000
0000
0100
0000
0110
0000
0000
0010
0000
0000
0010
0000
0010
0000
0000
0001
,
0000
0000
0001
0000
0001
0000
0000
1000
0000
0000
1000
0000
1000
0000
0000
0000
,
0110
0000
0010
0001
0010
0100
1000
0100
,
0001
0100
1000
0010
0100
0001
0100
1000
,
0100
0000
0001
0000
0010
0001
0010
0001
1000
0100
1000
0010
0100
0001
0010
0100
,
1000
0001
0010
0100
0010
0100
1000
0100
1000
0001
0010
0001
0000
1000
0010
1000
,
0010
0010
0110
0001
0010
1000
0010
0001
,
0100
0000
1000
0000
0200
0000
0300
0000
0010
0000
0100
0000
0000
0000
0100
0010
,
0100
0000
0100
0010
1000
0000
0001
0000
0200
0000
1300
0000
0100
0000
0001
0000
,
0010
0000
1000
0000
0010
0000
0000
0000
0200
0000
0310
0000
0000
0000
0010
0100
,
0010
0000
0010
0100
1000
0000
0001
0000
0020
0000
1030
0000
0010
0000
0001
0000
,
1000
0000
0100
0000
0001
0000
0000
0000
0200
0000
0310
0000
0000
0000
0100
0010
,
0100
0000
0100
0010
1000
0000
1000
0000
0020
0000
0031
0000
0010
0000
1000
0000
,
0001
0000
0100
0000
1000
0000
0000
0000
0020
0000
0130
0000
0000
0000
0100
0010
,
0100
0000
0100
0010
1000
0000
0100
0000
1000
0000
0100
0000
0001
0000
0100
0000
,
1000
0000
0100
0000
0020
0000
0030
0000
0100
0000
0010
0000
0000
0000
0010
0100
,
0010
0000
0010
0100
1000
0000
0001
0000
0020
0000
0031
0000
0010
0000
0001
0000
,
0100
0000
0001
0000
0200
0000
0300
0000
0020
0000
0130
0000
0000
0000
0100
0010
,
0100
0000
0100
0010
1000
0000
0001
0000
0100
1000
0100
0000
0001
0010
0001
0000
,
1000
0010
1000
0000
0020
0000
0030
0000
0100
0000
0010
0000
0000
0000
0010
0100
,
0010
0000
0010
0100
0001
0000
0000
0000
1000
0010
1000
0001
1000
0100
1000
0100
,
0010
0001
0010
0100
1000
0001
1000
0001
1000
0001
0010
0001
0010
0100
0001
0100
,
0010
0100
1000
0100
0020
0000
0000
0000
0000
0000
0000
0000
0030
0000
0000
0000
;
