#VERSION:0.83;
#TITLE:Scary Movie;
#SUBTITLE:;
#ARTIST:CARR;
#TITLETRANSLIT:;
#SUBTITLETRANSLIT:;
#ARTISTTRANSLIT:;
#GENRE:Alternative Rock;
#ORIGIN:;
#CREDIT:jenro-2024;
#BANNER:Scary Movie-bn.png;
#BACKGROUND:Scary Movie-bg.jpeg;
#PREVIEWVID:;
#JACKET:Scary Movie-jacket.png;
#CDIMAGE:;
#DISCIMAGE:;
#LYRICSPATH:Scary Movie.lrc;
#CDTITLE:;
#MUSIC:Scary Movie.ogg;
#OFFSET:-0.141000;
#SAMPLESTART:52.998001;
#SAMPLELENGTH:15.238000;
#SELECTABLE:YES;
#BPMS:0.000=126.000;
#STOPS:;
#DELAYS:;
#WARPS:;
#TIMESIGNATURES:0.000=4=4;
#TICKCOUNTS:0.000=4;
#COMBOS:0.000=1;
#SPEEDS:0.000=1.000=0.000=0;
#SCROLLS:0.000=1.000;
#FAKES:;
#LABELS:0.000=Song Start;
#BGCHANGES:-0.141=Scary Movie.mp4=1.000=1=0=0=StretchNoLoop==CrossFade==,
99999=-nosongbg-=1.000=0=0=0 // don't automatically add -songbackground-
;
#KEYSOUNDS:;
#ATTACKS:
;

//---------------dance-single - jenro-2024----------------
#NOTEDATA:;
#CHARTNAME:jenro-2024;
#STEPSTYPE:dance-single;
#DESCRIPTION:jenro-2024;
#CHARTSTYLE:;
#DIFFICULTY:Beginner;
#METER:1;
#RADARVALUES:0.049034,0.092877,0.000000,0.000000,0.000000,34.000000,34.000000,0.000000,0.000000,0.000000,0.000000,0.000000,0.000000,0.000000,0.049034,0.092877,0.000000,0.000000,0.000000,34.000000,34.000000,0.000000,0.000000,0.000000,0.000000,0.000000,0.000000,0.000000;
#CREDIT:jenro-2024;
#NOTES:
0000
0000
0000
0000
,
0000
0000
0000
0000
,
0000
0000
0000
0000
,
0000
0000
0000
0000
,
0001
0000
0000
0000
,
0000
0000
0000
0000
,
1000
0000
0000
0000
,
0000
0000
0000
0000
,
0100
0000
0000
0000
,
0000
0000
0000
0000
,
0100
0000
0000
0000
,
0000
0000
0000
0000
,
0010
0000
0000
0000
,
0000
0000
0000
0000
,
1000
0000
0000
0000
,
0000
0000
0000
0000
,
0001
0000
0000
0000
,
0000
0000
0000
0000
,
1000
0000
0000
0000
,
0000
0000
0000
0000
,
0100
0000
0000
0000
,
0000
0000
0000
0000
,
0100
0000
0000
0000
,
0000
0000
0000
0000
,
0100
0000
0000
0000
,
0000
0000
0000
0000
,
0100
0000
0000
0000
,
0000
0000
0000
0000
,
0001
0000
0000
0000
,
1000
0000
0000
0000
,
0100
0000
0000
0000
,
0100
0000
0000
0000
,
0010
0000
0000
0000
,
1000
0000
0000
0000
,
0001
0000
0000
0000
,
1000
0000
0000
0000
,
0100
0000
0100
0000
,
0100
0000
0000
0000
,
0100
0000
0100
0000
,
0100
0000
0000
0000
,
1000
0000
1000
0000
,
1000
0000
0000
0000
,
0001
0000
0001
0000
,
0001
0000
0000
0000
,
0100
0000
0000
0000
,
0000
0000
0000
0000
,
0100
0000
0000
0000
;

//---------------dance-single - jenro-2024----------------
#NOTEDATA:;
#CHARTNAME:jenro-2024;
#STEPSTYPE:dance-single;
#DESCRIPTION:jenro-2024;
#CHARTSTYLE:;
#DIFFICULTY:Easy;
#METER:2;
#RADARVALUES:0.098069,0.162534,0.010095,0.000000,0.000000,68.000000,67.000000,1.000000,0.000000,0.000000,0.000000,0.000000,0.000000,0.000000,0.098069,0.162534,0.010095,0.000000,0.000000,68.000000,67.000000,1.000000,0.000000,0.000000,0.000000,0.000000,0.000000,0.000000;
#CREDIT:jenro-2024;
#NOTES:
0000
0000
0000
0000
,
0000
0000
0000
0000
,
0000
0000
0000
0000
,
0000
0000
0000
0000
,
0100
0000
0000
0000
,
1000
0000
0000
0000
,
0100
0000
0000
0000
,
0001
0000
0000
0000
,
0100
0000
0000
0000
,
0100
0000
0000
0000
,
0010
0000
0000
0000
,
0010
0000
0000
0000
,
1000
0000
0000
0000
,
0001
0000
0000
0000
,
0001
0000
0000
0000
,
1000
0000
0000
0000
,
0100
0000
0000
0000
,
1000
0000
0000
0000
,
0010
0000
0000
0000
,
0001
0000
0000
0000
,
1000
0000
0000
0000
,
1000
0000
0000
0000
,
1000
0000
1000
0000
,
1000
0000
0000
0000
,
0001
0000
0000
0000
,
0001
0000
0000
0000
,
0001
0000
0001
0000
,
0001
0000
0000
0000
,
0100
0100
0000
0000
,
0010
0010
0000
0000
,
0100
0100
0000
0000
,
0010
0010
0000
0000
,
1000
1000
0000
0000
,
0001
0001
0000
0000
,
0000
0000
0110
0000
,
1000
0000
0001
0000
,
1000
1000
1000
0000
,
0001
0001
0001
0000
,
0100
0100
0100
0000
,
0010
0010
0010
0000
,
0100
0100
0100
0000
,
0001
0001
0001
0000
,
1000
1000
1000
0000
,
0010
0010
0010
0000
,
0100
0000
0000
0000
,
0000
0000
0000
0000
,
0100
0000
0000
0000
;

//---------------dance-single - jenro-2024----------------
#NOTEDATA:;
#CHARTNAME:jenro-2024;
#STEPSTYPE:dance-single;
#DESCRIPTION:jenro-2024;
#CHARTSTYLE:;
#DIFFICULTY:Medium;
#METER:5;
#RADARVALUES:0.213443,0.290745,0.050476,0.030286,0.000000,148.000000,143.000000,5.000000,3.000000,0.000000,0.000000,0.000000,0.000000,0.000000,0.213443,0.290745,0.050476,0.030286,0.000000,148.000000,143.000000,5.000000,3.000000,0.000000,0.000000,0.000000,0.000000,0.000000;
#CREDIT:jenro-2024;
#NOTES:
0000
0000
0000
0000
,
0000
0000
0000
0000
,
0000
0000
0000
0000
,
0000
0000
0000
0000
,
0001
1000
0100
0001
,
0001
1000
0010
1000
,
1000
0100
0001
0100
,
1000
0010
0001
0010
,
0001
0001
0100
0100
,
0010
0010
1000
1000
,
0100
0100
0010
0010
,
0001
0001
1000
1000
,
0001
1000
0100
1000
,
0100
0010
0001
0100
,
0010
1000
0001
0100
,
0001
0010
0100
1000
,
0001
0001
0100
0100
,
0010
0010
1000
1000
,
0100
0100
0010
0010
,
0001
0001
1000
1000
,
0100
0000
0100
0000
,
0100
0000
0100
0000
,
0010
0000
0100
0000
,
0001
0000
1000
0000
,
0001
0000
0001
0000
,
1000
0000
1000
0000
,
0100
0000
0010
0000
,
0000
0000
0000
0000
,
0001
1000
0010
0100
,
1000
0001
0100
0010
,
0001
0001
1000
0100
,
1000
1000
0001
0100
,
0010
0001
0100
1000
,
0100
0001
0100
1000
,
0001
0102
1000
0103
,
1000
1100
0010
1100
,
0001
0100
0100
0010
,
0010
1000
1000
0100
,
0100
0010
0010
0001
,
0001
1000
1000
1001
,
0001
0100
0100
0010
,
0010
1000
1000
0100
,
0100
0010
0010
0001
,
0001
1000
1000
0001
,
2002
0000
0000
0000
,
0000
0000
0000
0000
,
0000
0000
0000
0000
,
0000
0000
0000
0000
,
3003
0000
0000
0000
;

//---------------dance-single - jenro-2024----------------
#NOTEDATA:;
#CHARTNAME:jenro-2024;
#STEPSTYPE:dance-single;
#DESCRIPTION:jenro-2024;
#CHARTSTYLE:;
#DIFFICULTY:Hard;
#METER:8;
#RADARVALUES:0.343240,0.383621,0.131239,0.171620,0.000000,238.000000,225.000000,13.000000,17.000000,0.000000,0.000000,0.000000,0.000000,0.000000,0.343240,0.383621,0.131239,0.171620,0.000000,238.000000,225.000000,13.000000,17.000000,0.000000,0.000000,0.000000,0.000000,0.000000;
#CREDIT:jenro-2024;
#NOTES:
0000
0000
0000
0000
,
0000
0000
0000
0000
,
0000
0000
0000
0000
,
0000
0000
0000
0000
,
0001
0000
1000
0100
0010
0000
0010
0001
,
0100
0000
0100
0010
1000
0000
0001
0000
,
1000
0000
0001
0100
0001
0000
1000
0010
,
0100
0000
1000
0001
0100
0000
1000
0000
,
0001
0000
0100
0000
0100
0001
1000
0000
,
0100
0000
0100
1000
0001
0000
1000
0000
,
1000
0010
0100
0000
0001
0010
0001
0000
,
1000
0100
0010
0000
0001
0000
1001
0000
,
0100
0000
0010
1000
0010
0000
1000
0001
,
0100
0000
1000
0100
1000
0000
0001
0000
,
1000
0000
0010
0100
0010
0000
1000
0001
,
1000
0000
0001
0100
0010
0000
1001
0000
,
1000
0000
0100
0010
0001
0000
0100
0010
,
1000
0000
0001
1000
0001
0000
1001
0000
,
1000
0100
0000
1000
0010
0100
0000
0001
,
0010
0100
0000
1000
0001
0001
0001
0000
,
0020
0032
2003
3200
,
2300
3002
0203
0320
,
0130
0000
0000
0100
0100
0000
0000
0000
,
0100
0000
0000
0100
0100
0000
0000
0000
,
0200
0302
2003
3020
,
2030
3002
0023
0230
,
0310
0000
0000
0010
0010
0000
0000
0000
,
0010
0010
0010
0010
0010
0010
0010
0010
,
0001
1000
0100
1000
0001
0000
0011
0000
,
1000
0001
0100
0001
1000
0000
1010
0000
,
0100
0010
1000
1000
0100
0000
0101
0000
,
0010
0100
0001
0001
0100
0000
1100
0000
,
0001
1000
0100
0100
1000
0000
1010
0000
,
1000
0001
0100
0100
0001
0000
0011
0000
,
0100
0000
1100
0000
0102
0000
0013
0100
,
1000
0010
0100
0001
0010
0100
1000
0000
,
1000
0100
0010
0000
0001
0100
0010
0000
,
1000
0010
0100
0000
0001
0010
0100
0000
,
1000
0001
0010
0000
0001
1000
0100
0000
,
1000
0001
0100
0000
1001
0000
1001
0000
,
1000
0010
0100
0000
0001
0010
0100
0000
,
1000
0100
0010
0000
0001
0100
0010
0000
,
1000
0001
0100
0000
0001
1000
0010
0000
,
1000
0001
0010
0000
0001
1000
0100
0000
,
1000
0000
0000
0010
0000
0000
1000
0000
,
0000
1000
0000
0000
0001
0000
0000
0000
,
0000
0010
0000
0100
,
0000
1000
0100
0000
;

//---------------dance-single - jenro-2024----------------
#NOTEDATA:;
#CHARTNAME:jenro-2024;
#STEPSTYPE:dance-single;
#DESCRIPTION:jenro-2024;
#CHARTSTYLE:;
#DIFFICULTY:Challenge;
#METER:9;
#RADARVALUES:0.396601,0.408670,0.171620,0.040381,0.005048,275.000000,258.000000,17.000000,4.000000,0.000000,0.000000,0.000000,0.000000,0.000000,0.396601,0.408670,0.171620,0.040381,0.005048,275.000000,258.000000,17.000000,4.000000,0.000000,0.000000,0.000000,0.000000,0.000000;
#CREDIT:jenro-2024;
#NOTES:
// measure 0
1000
0000
0000
0000
,  // measure 1
0000
0000
0000
0000
,  // measure 2
0000
0000
0000
0000
,  // measure 3
0000
0000
0000
0011
,  // measure 4
1000
0000
1000
0100
0010
0100
0010
0100
,  // measure 5
1000
0000
1000
0100
0010
0000
0010
0001
,  // measure 6
0100
0000
0010
1000
0100
0000
0010
0001
,  // measure 7
0100
0000
0001
1000
0100
1000
1000
0010
,  // measure 8
0100
0001
0000
0001
0010
0100
0000
1000
,  // measure 9
0010
0100
0000
0001
1000
0100
0100
0000
,  // measure 10
1000
1000
0000
0010
0100
0001
0000
0001
,  // measure 11
1000
0100
0000
0100
1000
0010
0010
0010
,  // measure 12
0100
0000
0001
0010
0001
1000
0010
1000
,  // measure 13
0100
0010
0000
0001
0100
0010
2000
3000
,  // measure 14
0001
0100
0001
1000
0010
0100
0010
0100
,  // measure 15
0001
1000
0100
0010
0100
0010
0001
1000
,  // measure 16
0100
1000
0000
0001
0100
0001
0000
0001
,  // measure 17
0010
0001
0000
1000
0010
1000
0002
0003
,  // measure 18
1000
0010
0000
0100
0001
1000
0000
0100
,  // measure 19
0120
0000
0031
0000
1100
0001
0100
0000
,  // measure 20
0001
0000
0000
0100
0100
0000
0000
0000
,  // measure 21
1000
0000
0000
0100
0100
0000
0000
0000
,  // measure 22
0010
0000
0000
0010
0000
0000
0010
0000
0100
0000
0000
0000
1000
0000
0001
0000
,  // measure 23
0000
0000
0000
0100
0100
0000
0000
0000
,  // measure 24
1000
0000
0000
0100
0100
0000
0000
0000
,  // measure 25
0001
0000
0000
0100
0100
0000
0000
0000
,  // measure 26
0110
0000
0000
0010
0100
0000
0000
0000
,  // measure 27
1000
0001
1000
0001
1000
0001
1000
0001
,  // measure 28
0100
0001
1000
0100
0010
0000
0011
0000
,  // measure 29
0100
1000
0001
0100
0010
0010
1000
0010
,  // measure 30
0100
0100
0010
0100
0100
0000
1001
0000
,  // measure 31
0010
0010
0100
0010
0010
0001
1000
0001
,  // measure 32
1000
1000
0010
1000
1000
0100
0001
0000
,  // measure 33
0001
0001
0010
0001
0001
0100
1000
1000
,  // measure 34
0001
1100
0101
0110
,  // measure 35
1001
0011
1010
0110
,  // measure 36
0001
0100
0001
1000
0100
0000
1100
0000
,  // measure 37
0010
0001
0100
0010
0100
0000
0011
0000
,  // measure 38
1000
0001
0100
0001
0010
0100
1000
0001
,  // measure 39
0001
1000
0001
0100
0010
0100
0020
0030
,  // measure 40
1000
0010
1000
0001
0010
0000
0011
0000
,  // measure 41
0100
1000
0010
0100
0010
0000
1100
0000
,  // measure 42
0001
1000
0010
1000
0100
0010
0001
1000
,  // measure 43
1000
0001
1000
0010
0100
0010
0100
0000
,  // measure 44
0001
0000
0000
0100
0000
0000
1000
0000
,  // measure 45
0000
0100
0000
0000
0001
1000
0001
1000
,  // measure 46
0001
0000
1000
0000
1000
0000
1000
1000
,  // measure 47
0000
1000
1000
0000
1000
1000
0000
0000
;
