#TITLE:SHUDDER;
#SUBTITLE:;
#ARTIST:福井健一郎;
#TITLETRANSLIT:;
#SUBTITLETRANSLIT:;
#ARTISTTRANSLIT:Kenichiro Fukui;
#GENRE:SHMUP TECH;
#CREDIT:;
#BANNER:SHUDDER.png;
#BACKGROUND:SHUDDER-bg.png;
#LYRICSPATH:;
#CDTITLE:;
#MUSIC:SHUDDER.ogg;
#OFFSET:0.520044;
#SAMPLESTART:12.282100;
#SAMPLELENGTH:16.420000;
#SELECTABLE:YES;
#DISPLAYBPM:150.000000;
#BPMS:0.000000=150.000000
,236.000000=300.000000
,239.000000=150.000000
;
#STOPS:236.000000=0.100000,
236.500000=0.100000,
237.000000=0.100000,
237.500000=0.100000,
238.000000=0.100000,
238.500000=0.100000
;
#BGCHANGES:1.500=SHUDDER.mp4=1.000=0=0=1===CrossFade_Faster==,
99999=-nosongbg-=1.000=0=0=0 // don't automatically add -songbackground-
;
#KEYSOUNDS:;
#ATTACKS:;

//---------------dance-single - ----------------
#NOTES:
     dance-single:
     :
     Hard:
     15:
     0.809095,0.822598,0.179675,0.249982,1.042895,725.000000,702.000000,23.000000,32.000000,0.000000,0.000000,0.809095,0.822598,0.179675,0.249982,1.042895,725.000000,702.000000,23.000000,32.000000,0.000000,0.000000:
0000
0000
0000
0000
,
0000
0000
0000
0000
,
0000
0000
0000
0000
,
0000
0000
0000
0000
,
2100
0000
0000
3001
0000
0000
0102
0000
0000
1003
0000
0000
2010
0000
0000
3001
,
0000
0000
0012
0000
0000
1003
0000
0000
0010
0000
0001
0000
0010
0000
1000
0000
,
2010
0000
0000
3001
0000
0000
0012
0000
0000
1003
0000
0000
2100
0000
0000
3001
,
0000
0000
0102
0000
0000
1003
0000
0000
0100
0000
0001
0000
0100
0000
1000
0000
,
2100
0000
0000
3010
0000
0000
0102
0000
0000
0013
0000
0000
2010
0000
0000
3100
,
0000
0000
0012
0000
0000
0103
0000
0000
0010
0000
0001
0000
0010
0000
1000
0000
,
2010
0000
0000
3100
0000
0000
0012
0000
0000
0103
0000
0000
2100
0000
0000
3010
,
0000
1000
0001
0000
0001
0000
0010
0100
1000
0001
1000
0001
0010
0100
0010
0100
,
1000
0000
1000
0010
0000
0010
0100
0000
0100
0001
0000
0001
1000
0000
1000
0100
,
0000
0100
0010
0000
0010
0001
0000
0001
0100
0000
1000
0000
0100
0000
0010
0000
,
1000
0000
1000
0100
0000
0100
0010
0000
0010
0001
0000
0001
1000
0000
1000
0010
,
0000
0010
0100
0000
0100
0001
0000
0001
0010
0000
1000
0000
0010
0000
0100
0000
,
1000
0000
0010
1000
0000
0010
0100
0000
0001
0100
0000
0001
0010
0000
0100
0010
,
0000
0100
1000
0000
0001
1000
0000
0001
0100
0000
1000
0000
0100
0000
0010
0000
,
1000
0000
0100
1000
0000
0100
0010
0000
0001
0010
0000
0001
0100
0000
0010
0100
,
0000
0000
0001
0000
0000
1000
0000
0000
0001
0010
0100
1000
0001
0100
0010
1000
,
0001
0000
0010
0000
0100
0010
0001
0000
0100
0000
0010
0100
0001
0000
0010
0100
,
1000
0010
0100
2000
0000
3100
0001
0000
,
1000
0000
0100
0000
0010
0100
1000
0000
0010
0000
1000
0100
0010
0000
0002
0000
,
0000
0103
0010
0002
0000
0013
1000
0000
,
0001
0000
0010
0000
0100
0010
0001
0000
1000
0000
0010
1000
0100
0000
0002
0000
,
0000
0103
0010
0002
0000
2003
0000
3000
,
0001
0000
0100
0000
0010
0100
0001
0000
0010
0000
0100
0010
0001
0000
0100
0010
,
1000
0000
0001
0000
0001
0000
0000
0010
0000
0000
0100
0000
1000
0001
1000
0000
,
0001
0100
0010
0000
1000
0000
0001
0100
0010
0000
1000
0000
0001
0010
0100
0000
,
1000
0010
0100
2000
0000
3100
0001
1000
,
0001
1000
0010
0000
0100
0000
0001
1000
0010
0000
0100
0000
0010
0000
0002
0000
,
0000
0000
0013
0000
0100
0000
2000
0000
0000
0000
3100
0000
0001
0000
1000
0001
,
1000
0100
0010
0000
0001
0000
1000
0100
0010
0000
0001
0000
0100
0000
2000
0000
,
0000
3100
0001
0020
0000
0230
1300
0001
,
1000
0001
0100
0000
0010
0000
1000
0001
0100
0000
0010
0000
1000
0001
0010
0000
,
0001
0000
1000
0000
1000
0000
0000
0100
0000
1000
0001
0010
0001
1000
0010
1000
,
0001
0000
0001
0010
0000
0010
0100
0000
0100
1000
0000
1000
0001
0000
0001
0100
,
0000
0100
0010
0000
0010
1000
0000
1000
0100
0000
0001
0000
0100
0000
0010
0000
,
0001
0000
0001
0100
0000
0100
0010
0000
0010
1000
0000
1000
0001
0000
0001
0010
,
0000
0010
0100
0000
0100
1000
0000
1000
0010
0000
0001
0000
0010
0000
0100
0000
,
0001
0000
0010
0001
0000
0010
0100
0000
1000
0100
0000
1000
0010
0000
0100
0010
,
0000
0100
0001
0000
1000
0001
0000
1000
0100
0000
0001
0000
0100
0000
0010
0000
,
0001
0000
0100
0001
0000
0100
0010
0000
1000
0010
0000
1000
0100
0000
0010
0100
,
0000
0000
1000
0000
0000
0001
0000
0000
1000
0010
0100
0001
1000
0100
0010
0001
,
0200
0000
0000
0000
0300
0001
0010
0000
0100
0000
1000
0010
0000
0010
0000
1000
,
0100
0000
0010
0001
1000
0000
0000
0000
0001
0100
0001
0100
0000
0010
0000
0100
,
0001
0010
0100
0000
0100
0000
0000
0000
1000
0010
0000
0100
0001
0000
1000
0100
,
0000
1000
0010
0100
0001
0000
0001
1000
0100
0000
0000
0000
0100
0010
0001
0010
,
0000
0100
0000
0010
0000
0000
0000
0001
1000
0000
0010
0000
0100
0000
0010
0000
,
0001
0000
0010
0100
0000
0001
0000
0000
1000
0000
0001
0000
0010
0000
0100
0001
,
0000
0100
0000
1000
0000
0100
0000
0000
1000
0000
0010
0000
0100
0000
0001
0000
,
0010
0100
0010
0001
0000
1000
0000
0000
0001
0100
0010
0000
1000
0000
0100
1000
,
0000
0010
0100
0001
0000
1000
0000
0000
0001
0000
1000
0100
0000
1000
0000
0001
,
0100
0010
0100
0001
0100
0000
0000
0001
0010
0000
0100
1000
0000
0001
0000
1000
,
0010
0000
0100
0010
1000
0000
0000
1000
0001
0010
0100
1000
0000
1000
0000
0010
,
0100
0001
0010
0001
1000
0000
0000
1000
0001
0100
0010
1000
0000
0010
0000
0100
,
0001
0010
0100
0000
1000
0000
0000
0100
0001
0000
0000
0100
1000
0010
0100
0000
,
1000
0000
0100
0000
0010
1000
0000
1000
0100
0010
0001
0000
1000
0010
0100
0000
,
0001
0010
0100
0001
0000
0100
0010
0001
0100
0010
1000
0100
0010
0000
0001
1000
,
0001
0000
0100
0000
0010
0000
1000
0000
0001
0000
0010
0000
0100
1000
0100
1000
,
0001
0100
0001
0000
1000
0001
0000
0010
0001
0000
1000
0001
0000
0000
1001
0000
,
1000
0100
1000
0000
0001
1000
0000
0010
1000
0000
0001
1000
0000
0000
0110
0000
,
1000
0100
1000
0000
0001
1000
0000
0010
1000
0000
0001
1000
0000
0000
1001
0000
,
0001
0100
0001
0000
1000
0001
0000
0010
0001
0000
1000
0001
0000
0000
0110
0000
,
0001
0100
0010
0000
1000
0100
0000
0010
0001
0000
1000
0010
0000
0000
1010
0000
,
1000
0100
0010
0000
0001
0100
0000
0010
1000
0000
0001
0010
0000
0000
1100
0000
,
0001
0100
0010
0000
1000
0100
0000
0010
0001
0000
1000
0010
0000
0000
1010
0000
,
1000
0100
0010
0000
0001
0000
1000
0001
0010
0100
1000
0000
0010
0100
0001
1000
,
0001
0010
0100
0000
0010
0001
0000
1000
0001
0000
1000
0100
0010
0001
0010
0000
,
0001
0100
0010
0000
0100
0001
0000
1000
0001
0000
1000
0100
0010
0001
1000
0000
,
0010
1000
0100
0000
0010
0001
0000
1000
0001
0000
1000
0100
0010
0001
0010
0000
,
0100
1000
0010
0000
0100
0001
0000
1000
0010
0000
1000
0100
0010
0001
1000
0000
,
0001
0100
0010
0000
0001
0010
0000
1000
0010
0000
1000
0001
0100
0010
0100
0000
,
0001
0010
0100
0000
0001
0100
0000
1000
0100
0000
1000
0010
0100
0001
0010
0000
,
0100
1000
0010
0000
0001
0010
0000
1000
0100
0000
0010
0001
1000
0100
1000
0000
,
0020
0000
1030
0001
0020
0000
0031
1000
0001
0100
0010
1000
0100
0010
0001
1000
,
0010
0000
0000
0100
0000
0000
1000
0000
0000
0100
0000
0000
0000
0000
0000
0000
,
2002
0000
0000
0000
,
3003
0000
0000
0000
;

//---------------dance-single - ----------------
#NOTES:
     dance-single:
     :
     Medium:
     12:
     0.599288,0.639799,0.007812,0.117179,0.527307,537.000000,536.000000,1.000000,15.000000,0.000000,0.000000,0.599288,0.639799,0.007812,0.117179,0.527307,537.000000,536.000000,1.000000,15.000000,0.000000,0.000000:
0000
0000
0000
0000
,
0000
0000
0000
0000
,
0000
0000
0000
0000
,
0000
0000
0000
0000
,
0001
0000
0000
0100
0000
0000
0010
0000
0000
1000
0000
0000
0010
0000
0000
0100
,
0000
0000
0001
0000
0000
1000
0000
0000
0100
0000
0001
0000
0100
0000
1000
0000
,
0010
0000
0000
1000
0000
0000
0001
0000
0000
0010
0000
0000
0100
0000
0000
1000
,
0000
0000
0001
0000
0000
0100
0000
0000
0010
0000
0001
0000
0010
0000
1000
0000
,
0001
0000
0000
0010
0000
0000
0100
0000
0000
1000
0000
0000
0100
0000
0000
0010
,
0000
0000
0001
0000
0000
1000
0000
0000
0010
0000
0001
0000
0010
0000
1000
0000
,
0100
0000
0000
1000
0000
0000
0001
0000
0000
0100
0000
0000
0010
0000
0000
1000
,
0000
0000
0001
0000
0000
0010
0000
0000
0100
0000
0001
0000
0100
0000
1000
0000
,
0001
0000
0001
0100
0000
0000
0010
0000
0010
1000
0000
0000
0001
0000
0001
0010
,
0000
0000
0100
0000
0100
1000
0000
0000
0010
0000
0001
0000
0010
0000
0100
0000
,
0001
0000
0001
0010
0000
0000
0100
0000
0100
1000
0000
0000
0001
0000
0001
0100
,
0000
0000
0010
0000
0010
1000
0000
0000
0100
0000
0001
0000
0100
0000
1000
0000
,
0010
0000
0010
0100
0000
0000
0001
0000
0001
1000
0000
0000
0100
0000
0100
0010
,
0000
0000
0001
0000
0001
1000
0000
0000
0010
0000
0001
0000
0010
0000
1000
0000
,
0001
0000
0001
1000
0000
0000
0100
0000
0100
0010
0000
0000
0001
0000
0001
1000
,
0000
0000
0010
0000
0000
0100
0000
0000
0010
0000
0001
0000
0010
0000
1000
0000
,
0001
0010
0100
1000
0100
0010
0001
1000
,
0001
0100
0010
0002
0000
0013
0100
0000
,
0001
1000
0010
1000
0001
0010
0100
2000
,
0000
3010
0100
2000
0000
3100
0010
0000
,
1000
0100
0010
0001
0010
0100
0010
2000
,
0000
3010
0001
0200
0000
0320
0000
0030
,
1000
0001
0100
0001
1000
0100
1000
0001
,
0010
0000
0001
0000
0100
0000
0000
0010
0000
0000
1000
0000
0001
1000
0001
0000
,
1000
0100
0001
0100
1000
0010
0100
0001
,
0010
0100
0010
2000
0000
3010
0001
1000
,
0001
0100
1000
0100
0010
1000
0100
0002
,
0000
0103
0010
2000
0000
3010
0001
1000
,
0001
0010
1000
0010
0001
0100
0010
0002
,
0000
0013
0100
0002
0000
2003
0000
3100
,
1000
0010
0001
0010
1000
0100
0010
0001
,
0100
0000
0010
0000
0010
0000
0000
1000
0000
1000
0001
0000
0100
0010
0100
0000
,
0001
0000
0001
0010
0000
0000
0100
0000
0100
1000
0000
0000
0001
0000
0001
0100
,
0000
0000
0010
0000
0010
1000
0000
0000
0100
0000
0001
0000
0100
0000
0010
0000
,
0001
0000
0001
0100
0000
0000
0010
0000
0010
1000
0000
0000
0001
0000
0001
0010
,
0000
0000
0100
0000
0100
1000
0000
0000
0010
0000
0001
0000
0010
0000
1000
0000
,
0100
0000
0100
0010
0000
0000
0001
0000
0001
1000
0000
0000
0010
0000
0010
0100
,
0000
0000
0001
0000
0001
1000
0000
0000
0100
0000
0001
0000
0100
0000
1000
0000
,
0001
0000
0001
1000
0000
0000
0010
0000
0010
0100
0000
0000
0001
0000
0001
1000
,
0000
0000
0100
0000
0000
0010
0000
0000
0100
0000
0001
0000
0100
0000
1000
0000
,
0020
0000
0000
0000
0030
0000
1000
0000
0010
0000
0100
0001
0000
0100
0000
0000
,
0001
0000
0010
0000
0100
0000
0000
0000
1000
0000
0001
0010
0000
0001
0000
0000
,
1000
0010
0100
0000
0001
0010
0100
1000
,
0000
0000
0010
0000
0001
0000
0010
0000
1000
0000
0000
0000
0001
0000
0010
0100
,
0000
1000
0000
0001
0000
0000
0000
0000
0100
0000
0010
0000
0100
0000
1000
0000
,
0100
0000
0000
0001
0000
0010
0000
0000
0001
0000
0010
0000
0100
0000
0000
0001
,
0000
0100
0000
0010
0000
0001
0000
0000
1000
0000
0001
0000
0010
0000
0100
0000
,
1000
0000
0010
1000
0000
0100
0000
0000
1000
0000
0010
0000
0100
0000
0001
0010
,
0000
0001
0000
0100
0000
0001
0000
0000
1000
0000
0100
0010
0000
0001
0000
0010
,
0100
0000
1000
0000
0001
0000
0000
0000
1000
0000
0010
0100
0000
0001
0000
0100
,
0010
0000
1000
0000
0001
0000
0000
0000
0010
0000
0100
1000
0000
0001
0000
0100
,
0010
0000
1000
0000
0001
0000
0000
0000
1000
0000
0100
0010
0000
1000
0000
0010
,
0100
0000
1000
0000
0010
0000
0000
0010
0001
0000
0000
0001
0010
0000
0100
0000
,
1000
0000
0100
0000
0001
0000
0010
0000
0100
0010
0100
0000
1000
0000
0001
0000
,
1000
0000
1000
0010
0000
0010
0100
0000
0001
0000
0010
0000
0100
0000
1000
0000
,
0001
0000
1000
0000
0001
0000
1000
0000
0001
0000
1000
0000
0001
1000
0001
1000
,
0001
0000
0100
0000
0000
0010
0000
0000
1000
0000
0000
0010
0000
0000
0100
0000
,
0001
0000
0010
0000
0000
0100
0000
0000
1000
0000
0000
0100
0000
0000
0001
0000
,
0100
0000
0010
0000
0000
0001
0000
0000
0100
0000
0000
0010
0000
0000
1000
0000
,
0001
0000
0010
0000
0000
0100
0000
0000
1000
0000
0000
0010
0000
0000
0001
0000
,
0010
0000
0100
0000
0000
0001
0000
0000
0010
0000
0000
0100
0000
0000
1000
0000
,
0001
0000
0100
0000
0000
0010
0000
0000
1000
0000
0000
0100
0000
0000
0001
0000
,
0100
0000
0010
0000
0000
0001
0000
0000
0100
0000
0000
0010
0000
0000
1000
0000
,
0001
0000
0010
0000
0000
0100
0000
0000
1000
0000
0001
0000
0100
0010
0100
0010
,
1000
0000
0100
0000
0010
0100
0000
0100
1000
0000
0000
0001
0000
0000
1000
0000
,
0001
0000
0100
0000
0010
0100
0000
0100
0001
0000
0000
0010
0000
0000
1000
0000
,
0010
0000
0100
0000
1000
0001
0000
0001
0100
0000
0000
0010
0000
0000
1000
0000
,
0001
0000
0010
0000
0100
1000
0000
1000
0001
0000
0000
0100
0000
0000
1000
0000
,
0100
0000
0010
0000
1000
0010
0000
0100
0001
0000
0000
1000
0000
0000
0100
0000
,
1000
0000
0010
0000
0100
0001
0000
1000
0100
0000
0000
0010
0000
0000
1000
0000
,
0010
0000
0001
0000
0100
0001
0000
1000
0010
0000
0000
0100
0000
0000
0001
0000
,
0010
0000
0100
1000
0010
0000
0100
0001
0010
0000
0100
1000
0001
0000
0100
0001
,
1000
0000
0000
0010
0000
0000
0001
0000
0000
0010
0000
0000
0000
0000
0000
0000
,
2002
0000
0000
0000
,
3003
0000
0000
0000
;

//---------------dance-single - ----------------
#NOTES:
     dance-single:
     :
     Easy:
     9:
     0.455325,0.517932,0.320290,0.124991,0.007812,408.000000,367.000000,41.000000,16.000000,0.000000,0.000000,0.455325,0.517932,0.320290,0.124991,0.007812,408.000000,367.000000,41.000000,16.000000,0.000000,0.000000:
// measure 0
0000
0000
0000
0000
,  // measure 1
0000
0000
0000
0000
,  // measure 2
0000
0000
0000
0000
,  // measure 3
0000
0000
0000
0000
,  // measure 4
0001
0010
0100
1000
,  // measure 5
0100
0000
0010
0000
0001
1000
0001
0000
,  // measure 6
1000
0010
0100
0001
,  // measure 7
0100
0000
0010
0000
1000
0001
1000
0000
,  // measure 8
0001
0010
0100
0001
,  // measure 9
0100
0000
0010
0000
0001
1000
0001
0000
,  // measure 10
1000
0010
0100
1000
,  // measure 11
0100
0000
0010
0000
1000
0001
1000
0001
,  // measure 12
1000
1100
0001
0101
,  // measure 13
1000
0000
1010
0000
0001
1000
0001
1000
,  // measure 14
0001
0101
1000
1100
,  // measure 15
0001
0000
0011
0000
1000
0001
1000
0001
,  // measure 16
1000
0110
0001
0110
,  // measure 17
0010
0000
1001
0000
1000
0100
0010
0001
,  // measure 18
1000
0110
0001
0110
,  // measure 19
1000
0000
0001
0000
0010
1000
0010
0001
,  // measure 20
1000
0000
0010
0000
0100
0000
0001
0100
,  // measure 21
0010
0000
1000
0002
0000
0000
1003
0000
,  // measure 22
0001
0000
0010
0000
0100
0000
1000
0200
,  // measure 23
0000
0000
0310
0002
0000
0000
1003
0000
,  // measure 24
0001
0000
0100
0000
0010
0000
1000
0200
,  // measure 25
0000
0000
0310
0002
0000
2003
0000
3000
,  // measure 26
0001
0100
1000
0100
,  // measure 27
0010
1000
0100
0000
0010
0001
0100
0010
,  // measure 28
1000
1010
0001
0011
,  // measure 29
1000
0010
0100
0002
0000
1003
0001
0000
,  // measure 30
1000
0000
1100
0000
0001
0000
0100
2000
,  // measure 31
0000
3100
0010
0002
0000
0013
1000
0000
,  // measure 32
0001
0000
0011
0000
1000
0010
0100
0002
,  // measure 33
0000
0013
0100
2000
0000
3002
0000
0003
,  // measure 34
1000
1010
0001
0011
,  // measure 35
1000
0100
0010
0001
1000
0010
0100
0001
,  // measure 36
1000
1010
0001
0011
,  // measure 37
1000
0000
1100
0000
0001
1000
0001
1000
,  // measure 38
0001
0011
1000
1010
,  // measure 39
0001
0000
0101
0000
1000
0001
1000
0001
,  // measure 40
1000
0110
0001
0110
,  // measure 41
0100
0000
1001
0000
1000
0010
0100
0001
,  // measure 42
1000
0110
0001
0110
,  // measure 43
1000
0000
0001
0000
0100
1000
0100
0001
,  // measure 44
2000
3000
0100
0110
,  // measure 45
0010
0001
0100
0000
0010
0000
0110
0000
,  // measure 46
0010
1000
0100
0000
0010
0000
0001
0001
,  // measure 47
0000
1000
1000
0000
0010
0000
0101
0000
,  // measure 48
0001
0010
1000
0000
0010
0000
0100
0000
,  // measure 49
1000
0010
0001
0000
0010
0000
0100
0000
,  // measure 50
0001
0100
1000
0000
0100
0000
0010
0000
,  // measure 51
1000
0100
0001
0000
0100
0000
0010
0000
,  // measure 52
0001
0001
0001
0000
0100
0000
0010
0000
,  // measure 53
1000
1000
1000
0000
0100
0000
0010
0000
,  // measure 54
0001
0001
0001
0000
1000
0000
0010
0000
,  // measure 55
0100
0100
0100
0000
0010
0000
1000
0000
,  // measure 56
0001
0010
1000
0000
0001
0000
0100
0000
,  // measure 57
1000
0010
0001
0000
1000
0000
0100
0000
,  // measure 58
0001
0010
0100
1000
0001
0100
0010
1000
,  // measure 59
0002
0000
0000
0000
0000
0000
1003
0001
,  // measure 60
1000
0000
1010
0000
0010
0000
0100
1000
,  // measure 61
0100
0010
1000
0100
,  // measure 62
0010
0000
0011
0000
0001
0000
0100
0010
,  // measure 63
0001
0010
0100
0001
,  // measure 64
1000
0000
1100
0000
0100
0000
0010
1000
,  // measure 65
0010
0100
1000
0010
,  // measure 66
0100
0000
0101
0000
0001
0000
0010
0100
,  // measure 67
0001
0100
0110
1001
,  // measure 68
1000
0010
0100
0010
1000
0010
0100
0010
,  // measure 69
1000
0100
0010
0011
,  // measure 70
0001
0100
0010
0100
0001
0100
0010
0100
,  // measure 71
0001
0010
0100
1100
,  // measure 72
1000
0010
0100
0001
1000
0100
0010
0001
,  // measure 73
1000
0010
0001
0011
,  // measure 74
0001
0010
0100
0001
0010
0100
1000
0010
,  // measure 75
0100
0001
1000
0100
0010
0001
1000
0010
,  // measure 76
0100
0000
0000
0010
0000
0000
1000
0000
0000
0001
0000
0000
0000
0000
0000
0000
,  // measure 77
2002
0000
0000
0000
,  // measure 78
3003
0000
0000
0000
;

//---------------dance-single - ----------------
#NOTES:
     dance-single:
     :
     Beginner:
     3:
     0.191951,0.243733,0.000000,0.015624,0.000000,172.000000,172.000000,0.000000,2.000000,0.000000,0.000000,0.191951,0.243733,0.000000,0.015624,0.000000,172.000000,172.000000,0.000000,2.000000,0.000000,0.000000:
0000
0000
0000
0000
,
0000
0000
0000
0000
,
0000
0000
0000
0000
,
0000
0000
0000
0000
,
0001
0000
0010
0000
,
0100
0000
1000
1000
,
1000
0000
0010
0000
,
0100
0000
0001
0001
,
0001
0000
1000
0000
,
0100
0000
0010
0010
,
0010
0000
0100
0000
,
1000
0000
0001
0001
,
0001
0000
0100
0000
,
0010
0010
0010
0010
,
0010
0000
0100
0000
,
0001
0001
0001
0001
,
0001
0000
0010
0000
,
0100
0100
0100
0100
,
0100
0000
1000
0000
,
0010
0010
0010
0010
,
0010
0000
0000
0000
,
0100
0000
0001
0000
,
1000
0000
0000
0000
,
0100
0000
1000
0000
,
0001
0000
0000
0000
,
0010
0000
0001
0000
,
1000
0000
0000
0000
,
0010
0000
1000
0000
,
0001
0000
0010
0000
,
0100
0000
1000
1000
,
1000
0000
0010
0000
,
0100
0000
0001
0001
,
0001
0000
0100
0000
,
0010
0000
1000
1000
,
1000
0000
0100
0000
,
0010
0010
0010
0010
,
0010
0000
0100
0000
,
1000
1000
1000
1000
,
1000
0000
0010
0000
,
0100
0100
0100
0100
,
0100
0000
0001
0000
,
0010
0010
0010
0010
,
0010
0000
0100
0000
,
1000
1000
1000
1000
,
1000
0000
0010
0000
,
0100
0100
0000
0000
,
0001
0001
0000
0000
,
0010
0010
0010
0000
,
0100
0100
0000
0000
,
1000
1000
0000
0000
,
0010
0010
0000
0000
,
0100
0100
0100
0000
,
0001
0001
0000
0000
,
0010
0010
0000
0000
,
0100
0100
0000
0000
,
1000
1000
0000
0000
,
0001
0001
0001
0000
,
0100
0100
0100
0000
,
0010
0010
0010
0000
,
2000
0000
0000
3000
,
0000
0000
0000
0000
,
0010
0000
0000
0000
,
0100
0000
0000
0000
,
1000
0000
1000
0000
,
1000
0000
0000
0000
,
0010
0000
0000
0000
,
0100
0000
0000
0000
,
0001
0000
0001
0000
,
0010
0010
0010
0000
,
0100
0000
1000
0000
,
0001
0001
0001
0000
,
0100
0000
0010
0000
,
1000
1000
1000
0000
,
0100
0000
0010
0000
,
0001
0001
0001
0000
,
1000
1000
1000
1000
,
1000
0000
0010
0010
,
0020
0000
0000
0000
,
0030
0000
0000
0000
;
