#VERSION:0.83;
#TITLE:Reweave;
#SUBTITLE:;
#ARTIST:鈴木このみ;
#TITLETRANSLIT:;
#SUBTITLETRANSLIT:;
#ARTISTTRANSLIT:Konomi Suzuki;
#GENRE:ANIME;
#ORIGIN:;
#CREDIT:;
#BANNER:Reweave.png;
#BACKGROUND:Reweave-bg.png;
#PREVIEWVID:;
#JACKET:Reweave-jacket.png;
#CDIMAGE:;
#DISCIMAGE:;
#LYRICSPATH:;
#CDTITLE:;
#MUSIC:Reweave.ogg;
#OFFSET:0.000000;
#SAMPLESTART:55.082001;
#SAMPLELENGTH:15.000000;
#SELECTABLE:YES;
#BPMS:0.000=183.000;
#STOPS:34.000=0.328,
302.500=2.787;
#DELAYS:;
#WARPS:;
#TIMESIGNATURES:0.000=4=4;
#TICKCOUNTS:0.000=4;
#COMBOS:0.000=1;
#SPEEDS:0.000=1.000=0.000=0;
#SCROLLS:0.000=1.000;
#FAKES:;
#LABELS:0.000=Song Start;
#BGCHANGES:0.000=Reweave.mp4=1.000=1=0=0=StretchNoLoop==CrossFade==,
99999=-nosongbg-=1.000=0=0=0 // don't automatically add -songbackground-
;
#KEYSOUNDS:;
#ATTACKS:
;

//---------------dance-single - Ben Speirs and Kaystar----------------
#NOTEDATA:;
#CHARTNAME:;
#STEPSTYPE:dance-single;
#DESCRIPTION:Ben Speirs and Kaystar;
#CHARTSTYLE:;
#DIFFICULTY:Hard;
#METER:14;
#RADARVALUES:0.694855,0.764563,0.230703,0.432568,0.096126,506.000000,482.000000,24.000000,45.000000,0.000000,0.000000,0.000000,0.000000,0.000000,0.694855,0.764563,0.230703,0.432568,0.096126,506.000000,482.000000,24.000000,45.000000,0.000000,0.000000,0.000000,0.000000,0.000000;
#CREDIT:Ben Speirs & kaystar;
#NOTES:
0000
0000
0000
0000
,
0000
0000
0000
0000
,
0000
0000
0000
0000
,
0000
0000
0000
0000
,
0000
0000
0000
0000
,
0000
0000
0000
0000
,
0000
0000
0000
0000
,
0000
0000
0000
0000
,
0000
0000
0000
0000
0000
0000
1000
1000
,
0100
0010
0100
0100
1000
0100
0001
0001
,
0100
0010
0100
1000
0000
1001
0000
0001
,
0100
0010
0100
0100
0001
0100
1000
1000
,
0100
0010
0100
0001
0000
1001
0000
1000
,
0010
0100
0001
0001
1000
0100
0010
0010
,
1000
0010
0001
1000
0000
1001
0000
0001
,
0100
0000
0010
0000
1000
0000
1000
0000
0001
0000
0010
0000
0100
0000
0100
1000
,
0001
0100
0010
0001
0010
2000
0000
3001
,
0010
0001
0100
0001
0010
0001
0100
0010
,
1000
0100
0010
0001
0000
1002
0000
1003
,
0010
1000
0100
1000
0010
1000
0100
0010
,
0001
0100
0010
1000
0000
2001
0000
3001
,
0010
0100
0002
0000
0103
1000
0002
0000
,
0103
1000
0002
0000
0013
1000
0001
0010
,
0001
1000
0010
1000
0100
0010
1000
0010
,
0100
0000
0010
0000
0002
0000
0000
0000
1003
0000
0001
1000
0001
0000
0000
0000
,
0100
0010
1010
0000
1000
0100
0010
0001
,
1000
0010
0100
0001
0010
2000
0000
3010
,
0100
0010
0011
0000
0001
0100
0010
1000
,
0001
0010
0100
1000
0010
0002
0000
0013
,
0100
0010
1010
0000
1000
0001
1001
0000
,
0010
0001
0021
0000
0130
1000
0001
0100
,
0100
1000
0100
0100
0001
0010
0100
1000
,
0010
0001
0010
1000
0100
0010
0002
0000
,
1000
0203
0010
2300
,
3200
0000
0320
0000
2030
0000
3001
0011
,
0000
1000
1100
0000
0001
0101
0000
1000
,
1010
0000
0000
0000
1000
0001
1000
0000
0001
0010
0100
0000
2000
0000
0000
0000
,
0001
3200
0010
0302
,
0203
0000
0320
0000
0032
0000
1003
0010
,
0010
0100
0010
0010
0001
0010
0010
0100
,
0010
0010
1000
0100
0020
0000
0031
1000
,
0001
0000
1000
0000
0000
0000
0010
0000
0100
0000
0001
0000
1000
0000
0100
0010
,
0100
0001
0000
0100
0010
0012
0000
0103
,
1000
0100
0001
0010
0100
1000
0020
0000
,
0031
1000
0100
0010
1000
0001
0010
0100
,
0001
0100
2000
0000
3010
0100
1000
0100
,
0001
0000
1000
0000
0002
0000
0023
0000
0230
0000
1300
0001
1000
0000
0010
0000
,
0010
1000
0001
0010
1000
0010
0001
0100
,
0010
0000
2000
0000
0000
0000
3001
0010
0100
0000
1000
0000
0001
0000
0100
0000
,
0100
0001
1000
0100
0001
0100
1000
0010
,
0100
0001
0000
1001
0000
2100
0000
3010
,
0001
0010
1000
0100
0010
0001
0200
0000
,
1300
0001
0010
0100
0001
1000
0100
0010
,
1000
0010
0002
0000
0103
0010
0001
0010
,
1000
0001
0010
0100
2000
0000
3001
0100
,
0001
0100
0010
1000
0100
0002
0000
1003
,
0010
0001
0100
0000
0110
0000
1000
0100
,
1000
0100
0010
0001
0100
2000
0000
3001
,
0010
1000
0200
0000
0310
0000
1001
0000
,
0001
0010
0000
0010
0100
0000
1000
0001
1000
0000
0000
0000
0001
0000
0100
0000
,
0100
1000
0100
0100
0001
1000
0001
0010
,
0010
1000
0010
0010
0001
1000
0001
0001
,
0100
0100
0010
0010
1000
1000
0200
0010
,
0010
0010
0010
0310
0110
0000
1001
0001
,
0100
0001
1000
0100
1000
0010
0001
0010
,
1000
0100
0010
0011
0000
1002
0000
1003
,
0010
1000
0001
0010
0001
0100
1000
0100
,
0001
0000
0010
0000
0100
0000
1000
0001
1000
0001
0200
0000
0000
0000
0000
0000
,
0310
1000
0100
0001
0100
1000
0001
0001
,
0100
0010
0001
0001
0010
1000
0100
0010
,
0001
0000
1000
0010
2000
0000
0000
0000
3001
0010
0002
0000
0000
0000
1003
0010
,
2000
0000
0000
0000
3100
0010
0100
0010
0001
0000
0000
0000
1000
0000
0010
0000
,
0001
0010
1000
0010
0001
0010
1000
1000
,
0100
0010
1000
1000
0010
0001
1000
0010
,
0010
0000
0100
0000
1000
0000
1000
0000
0100
0000
0001
0000
0001
0000
1000
0100
,
0010
0000
0001
0000
1000
0001
1000
0001
1000
0000
2002
0000
3003
0000
0000
0000
;

//---------------dance-double - Ben Speirs and Kaystar----------------
#NOTEDATA:;
#CHARTNAME:;
#STEPSTYPE:dance-double;
#DESCRIPTION:Ben Speirs and Kaystar;
#CHARTSTYLE:;
#DIFFICULTY:Hard;
#METER:15;
#RADARVALUES:0.667390,0.728155,0.240315,0.576757,0.067288,486.000000,461.000000,25.000000,60.000000,0.000000,0.000000,0.000000,0.000000,0.000000,0.667390,0.728155,0.240315,0.576757,0.067288,486.000000,461.000000,25.000000,60.000000,0.000000,0.000000,0.000000,0.000000,0.000000;
#CREDIT:Ben Speirs & kaystar;
#NOTES:
// measure 0
00000000
00000000
00000000
00000000
,  // measure 1
00000000
00000000
00000000
00000000
,  // measure 2
00000000
00000000
00000000
00000000
,  // measure 3
00000000
00000000
00000000
00000000
,  // measure 4
00000000
00000000
00000000
00000000
,  // measure 5
00000000
00000000
00000000
00000000
,  // measure 6
00000000
00000000
00000000
00000000
,  // measure 7
00000000
00000000
00000000
00000000
,  // measure 8
00000000
00000000
00000000
00000000
00000000
00000000
00001000
01000000
,  // measure 9
00010000
01000000
00001000
00001000
00010000
00000010
00001000
00001000
,  // measure 10
00000100
00000010
00000100
00010000
00000000
00021000
00000000
00030100
,  // measure 11
00001000
00000100
00010000
00010000
00001000
00100000
00010000
00010000
,  // measure 12
01000000
00100000
01000000
00001000
00000000
00012000
00000000
00103000
,  // measure 13
00010000
00100000
00001000
00001000
00010000
00000100
00001000
00001000
,  // measure 14
00000010
00000100
00001000
00010000
00000000
00021000
00000000
00030010
,  // measure 15
00001000
00000010
00010000
00010000
00001000
01000000
00010000
00010000
,  // measure 16
00100000
01000000
00010000
00002000
00000000
00000000
00013000
00000100
,  // measure 17
00001000
00000001
00000100
00000001
00000100
00000001
00001000
00000100
,  // measure 18
00000001
00000100
00001000
00000020
00000000
00010030
00001000
01000000
,  // measure 19
00010000
10000000
01000000
10000000
01000000
10000000
00010000
01000000
,  // measure 20
10000000
01000000
00010000
00200000
00000000
00301000
00010000
00000100
,  // measure 21
00001000
00000002
00000103
00002000
,  // measure 22
00013000
00000000
00200000
00000000
10300000
00000000
00010000
00100000
,  // measure 23
00010000
10000000
00100000
10000000
00010000
00100000
01000000
00010000
,  // measure 24
00001000
00010000
00001000
00000010
00000100
00001000
00000002
00000000
,  // measure 25
00000103
00000010
00001010
00000000
00001000
00000100
00000010
00000001
,  // measure 26
00001000
00000010
00010000
00002000
00000000
01003000
00010000
10000000
,  // measure 27
01000000
00100000
00110000
00000000
00010000
01000000
00100000
10000000
,  // measure 28
00010000
00100000
00001000
00020000
00000000
00030100
00001000
00001100
,  // measure 29
00000000
00000010
00000001
00000011
00000000
00001000
00000010
00001010
,  // measure 30
00000000
00000001
00000100
00001000
00020000
00000000
00031000
01000000
,  // measure 31
01000000
00010000
00100000
00100000
00001000
00010000
00000100
00000100
,  // measure 32
00001000
00000010
00000010
00010000
00001000
00000000
00012000
00000000
,  // measure 33
02003000
23000000
30020000
00230000
,  // measure 34
20300000
00000000
32000000
00000000
03200000
00000000
00301000
00001000
,  // measure 35
00010000
01000000
00010000
00001000
00010000
00010000
00001000
00000100
,  // measure 36
00001000
00000000
00010000
00000000
00011000
00000000
00000000
00000000
00001000
00010000
00001000
00000000
00020000
00000000
00000000
00000000
,  // measure 37
00030200
00000302
00002003
00003020
,  // measure 38
00000032
00000000
00000203
00000000
00000320
00000000
00010030
00010000
,  // measure 39
00001000
00000010
00001000
00010000
00001000
00001000
00010000
00100000
,  // measure 40
01000000
00010000
00100000
00000000
00022000
00000000
00033000
00000000
,  // measure 41
00000000
00000000
00000000
00000000
00000000
00000000
00000000
00000000
00000000
00000000
00000000
00000000
00001000
00000000
01000000
00010000
,  // measure 42
01000000
00001000
00000000
00010000
00001000
00021000
00000000
00030100
,  // measure 43
00000001
00001000
00000010
00000001
00000100
00000010
00002000
00000000
,  // measure 44
00013000
01000000
00100000
10000000
01000000
00100000
00001000
00010000
,  // measure 45
00100000
01000000
20000000
00000000
31000000
00010000
10000000
01000000
,  // measure 46
00100000
00000000
00002000
00000000
00023000
00000000
00032000
00000000
00023000
00000000
00030100
00001000
00000100
00000000
00000010
00000000
,  // measure 47
00000010
00000001
00000100
00001000
00000100
00000001
00000010
00000100
,  // measure 48
00010000
00000000
00002000
00000000
00000000
00000000
00013000
00001000
00010000
00000000
00001000
00000000
01000000
00000000
00100000
00000000
,  // measure 49
00100000
10000000
01000000
00010000
01000000
10000000
00100000
01000000
,  // measure 50
00001000
00011000
00000000
00011000
00000000
00012000
00000000
01003000
,  // measure 51
10000000
00010000
00100000
10000000
01000000
00100000
00020000
00000000
,  // measure 52
00031000
00000100
00000010
00000001
00000100
00000010
00010000
00001000
,  // measure 53
00000010
00000100
00000002
00000000
00000103
00001000
00000001
00000100
,  // measure 54
00000010
00010000
00001000
01000000
00020000
00000000
10030000
01000000
,  // measure 55
00100000
00001000
00010000
00000010
00000001
00002000
00000000
00003100
,  // measure 56
00000001
00000010
00000100
00000000
00001001
00000000
00000001
00000100
,  // measure 57
00000010
00010000
00001000
00100000
10000000
00020000
00000000
01030000
,  // measure 58
10000000
00100000
02000000
00000000
03010000
00000000
10010000
00000000
,  // measure 59
10000000
01000000
00000000
01000000
00100000
00000000
00001000
00010000
00001000
00000000
00000000
00000000
00012000
00000000
00000000
00000000
,  // measure 60
00003100
00000001
00000010
00000100
00000100
00000000
00021000
00000000
,  // measure 61
01030000
10000000
00100000
01000000
01000000
00000000
00012000
00000000
,  // measure 62
00003100
00000100
00000001
00000001
00000010
00000010
00002000
00010000
,  // measure 63
00010000
00010000
00010000
00013000
00011000
00000000
00001000
00010000
,  // measure 64
00100000
01000000
00010000
00010000
00100000
01000000
00010000
00010000
,  // measure 65
00001000
01000000
00010000
00100000
00000000
00021000
00000000
00031000
,  // measure 66
00000010
00000100
00001000
00001000
00000010
00000100
00001000
00001000
,  // measure 67
00010000
00000100
00001000
00000010
00010000
00012000
00000000
01003000
,  // measure 68
10000000
00010000
00100000
10000000
01000000
00100000
00001000
00010000
,  // measure 69
00100000
00010000
00001000
00000100
00000010
00020000
00000000
00031000
,  // measure 70
00001000
00000000
00100000
00010000
00200000
00000000
00000000
00000000
00301000
00000000
00020000
00000000
00000000
00000000
00030010
00001000
,  // measure 71
00000020
00000000
00000000
00000000
00010030
00001000
00010000
00001000
00010000
00000000
00021000
00000000
00000000
00000000
00030100
00000000
,  // measure 72
00000001
00001000
00000010
00000001
00000100
00000010
00010000
00001000
,  // measure 73
00000010
00001000
00010000
01000000
00100000
00002000
00000000
00013000
,  // measure 74
00010000
00000000
00100000
00000000
10000000
00000000
10000000
00000000
01000000
00000000
00100000
00000000
00100000
00000000
00010000
10000000
,  // measure 75
00100000
00000000
01000000
00000000
00001000
00010000
00001000
00010000
00001000
00000000
00022000
00000000
00033000
00000000
00000000
00000000
;

//---------------dance-single - ----------------
#NOTEDATA:;
#CHARTNAME:;
#STEPSTYPE:dance-single;
#DESCRIPTION:;
#CHARTSTYLE:;
#DIFFICULTY:Beginner;
#METER:3;
#RADARVALUES:0.146936,0.218086,0.000000,0.038450,0.000000,107.000000,107.000000,0.000000,4.000000,0.000000,0.000000,0.000000,0.000000,0.000000,0.146936,0.218086,0.000000,0.038450,0.000000,107.000000,107.000000,0.000000,4.000000,0.000000,0.000000,0.000000,0.000000,0.000000;
#CREDIT:kaystar;
#NOTES:
0000
0000
0000
0000
,
0000
0000
0000
0000
,
0000
0000
0000
0000
,
0000
0000
0000
0000
,
0000
0000
0000
0000
,
0000
0000
0000
0000
,
0000
0000
0000
0000
,
0000
0000
0000
0000
,
0000
0000
0000
1000
,
0000
1000
0000
1000
,
0000
0000
0000
0100
,
0000
0100
0000
0100
,
0000
0000
0000
0010
,
0000
0010
0000
0010
,
0000
0000
0000
0001
,
0000
0001
0000
0001
,
0000
0000
0000
1000
,
0000
0000
0000
0010
,
0000
0000
0000
0100
,
0000
0000
0000
0001
,
0000
0000
0000
1000
,
0000
1000
0000
1000
,
0000
0000
0000
0001
,
0000
0001
0000
0001
,
0000
0000
0000
1000
,
0000
0000
0000
0100
,
0000
0000
0000
0010
,
0000
0000
0000
0001
,
0000
0000
0000
0100
,
0000
0100
0000
0100
,
0000
0000
0000
0010
,
0000
0010
0000
0010
,
0000
0000
0000
2000
,
0000
0000
0000
3000
,
0000
0000
0000
0001
,
0000
0010
0000
0100
,
0000
1000
0000
0002
,
0000
0000
0000
0003
,
0000
0000
0000
1000
,
0000
0010
0000
0100
,
0000
0001
0000
0000
,
0000
0000
0000
0000
,
0000
0000
0000
1000
,
0000
0100
0000
1000
,
0000
1000
0000
0001
,
0000
0100
0000
0001
,
0000
0001
0000
1000
,
0000
0000
0000
0100
,
0100
0100
0000
0001
,
0000
0000
0000
0100
,
0100
0100
0000
1000
,
0000
0010
0000
1000
,
0000
1000
0000
0001
,
0000
0010
0000
0001
,
0000
0001
0000
1000
,
0000
0000
0000
0010
,
0010
0010
0000
0001
,
0000
0000
0000
0010
,
0010
0010
0000
2000
,
0000
3000
0000
0001
,
0000
0010
0000
0100
,
0000
1000
0000
0001
,
0000
0100
0000
0010
,
0000
1000
0000
0001
,
0000
0001
0000
0001
,
0000
0000
0000
1000
,
0000
1000
0000
1000
,
0000
0000
0000
0001
,
0000
0010
0000
0001
,
0001
0001
0000
1000
,
0000
0010
0000
0100
,
0000
0001
0000
1000
,
0000
0100
0000
1000
,
1000
1000
0000
0001
,
0000
0100
0000
0010
,
0000
0000
2000
0000
0000
3000
0000
0000
;

//---------------dance-single - ----------------
#NOTEDATA:;
#CHARTNAME:;
#STEPSTYPE:dance-single;
#DESCRIPTION:;
#CHARTSTYLE:;
#DIFFICULTY:Easy;
#METER:7;
#RADARVALUES:0.259541,0.327670,0.019225,0.096126,0.000000,189.000000,187.000000,2.000000,10.000000,0.000000,0.000000,0.000000,0.000000,0.000000,0.259541,0.327670,0.019225,0.096126,0.000000,189.000000,187.000000,2.000000,10.000000,0.000000,0.000000,0.000000,0.000000,0.000000;
#CREDIT:kaystar;
#NOTES:
0000
0000
0000
0000
,
0000
0000
0000
0000
,
0000
0000
0000
0000
,
0000
0000
0000
0000
,
0000
0000
0000
0000
,
0000
0000
0000
0000
,
0000
0000
0000
0000
,
0000
0000
0000
0000
,
0000
0000
0000
1000
,
0100
1000
0000
0001
,
0000
0001
0000
1000
,
0010
1000
0000
0100
,
0000
0010
0000
0001
,
0100
0001
0000
1000
,
0000
1000
0000
0001
,
0010
0001
0000
0100
,
0000
0010
0000
1000
,
0000
1000
0000
0001
,
0000
0001
0000
1000
,
0000
1000
0000
0001
,
0000
0001
0000
2000
,
0000
3200
0000
0320
,
0000
0032
0000
1003
,
0010
1000
0010
0100
,
0001
0100
0001
1000
,
0000
0100
0000
0001
,
0000
0100
0000
1000
,
0000
0010
0000
0001
,
0000
0010
0000
1000
,
1000
1000
0000
0001
,
0001
0001
0000
1000
,
0100
0010
0001
0100
,
0010
0100
0010
1000
,
0000
1000
0000
0001
,
0000
0001
0000
0100
,
0001
0010
0000
0100
,
0100
1000
0000
0001
,
0000
0001
0000
1000
,
0000
1000
0000
0100
,
1000
0010
0000
0100
,
0100
0001
0000
0000
,
0000
0000
0000
0000
,
0000
0000
0000
1000
,
0100
0001
0100
1000
,
0001
0001
0000
1000
,
0010
0100
0000
0001
,
0010
0100
0000
1000
,
0010
0100
0010
1000
,
0100
0020
0030
0000
,
0001
0100
0010
1000
,
0100
0010
0000
0001
,
0100
1000
0100
0001
,
1000
1000
0000
0001
,
0010
0100
0000
1000
,
0010
0100
0000
0001
,
0010
0100
0010
0001
,
0100
0020
0030
0000
,
1000
0100
0010
0001
,
0100
0010
0010
2002
,
0000
3003
0000
1000
,
1000
1000
0000
0100
,
0100
0100
0000
0010
,
0010
0010
0000
0001
,
0001
0001
0000
1000
,
0010
1000
0000
0100
,
0000
0010
0000
0001
,
0100
0001
0000
0010
,
0000
0100
0000
1000
,
0010
0001
0010
1000
,
0001
0001
0000
1000
,
0100
0010
0001
1000
,
0010
0100
0000
0001
,
0010
1000
0010
0001
,
1000
1000
0000
0001
,
0100
0010
1000
0100
,
0010
0010
2002
3003
;

//---------------dance-double - ----------------
#NOTEDATA:;
#CHARTNAME:;
#STEPSTYPE:dance-double;
#DESCRIPTION:;
#CHARTSTYLE:;
#DIFFICULTY:Easy;
#METER:7;
#RADARVALUES:0.245808,0.327670,0.019225,0.134577,0.000000,179.000000,177.000000,2.000000,14.000000,0.000000,0.000000,0.000000,0.000000,0.000000,0.245808,0.327670,0.019225,0.134577,0.000000,179.000000,177.000000,2.000000,14.000000,0.000000,0.000000,0.000000,0.000000,0.000000;
#CREDIT:kaystar;
#NOTES:
00000000
00000000
00000000
00000000
,
00000000
00000000
00000000
00000000
,
00000000
00000000
00000000
00000000
,
00000000
00000000
00000000
00000000
,
00000000
00000000
00000000
00000000
,
00000000
00000000
00000000
00000000
,
00000000
00000000
00000000
00000000
,
00000000
00000000
00000000
00000000
,
00000000
00000000
00000000
00010000
,
00001000
00010000
00000000
00000010
,
00000000
00010000
00000000
00001000
,
00010000
00001000
00000000
00100000
,
00000000
00001000
00000000
00010000
,
00001000
00010000
00000000
00000100
,
00000000
00010000
00000000
00001000
,
00010000
00001000
00000000
01000000
,
00000000
00100000
00000000
10000000
,
00000000
10000000
00000000
01000000
,
00000000
01000000
00000000
00010000
,
00000000
00010000
00000000
00001000
,
00000000
00001000
00000000
00020000
,
00000000
00030200
00000000
00000320
,
00000000
00000032
00000000
00001003
,
00000010
00000100
00000010
00001000
,
00000100
00000010
00000000
00000001
,
00000000
00000100
00000000
00001000
,
00000000
00001000
00000000
00010000
,
00000000
00100000
00000000
10000000
,
00000000
10000000
00000000
01000000
,
01000000
01000000
00000000
00100000
,
00100000
00100000
00000000
00010000
,
01000000
00100000
01000000
00010000
,
10000000
01000000
00100000
00002000
,
00000000
00003000
00000000
00020000
,
00000000
00030000
00000000
00001000
,
00010000
00100000
00000000
00100000
,
00010000
00001000
00000000
00020000
,
00000000
00030000
00000000
00002000
,
00000000
00003000
00000000
00010000
,
00001000
00000010
00000000
00000010
,
00001000
00010000
00000000
00000000
,
00000000
00000000
00000000
00000000
,
00000000
00000000
00000000
00000100
,
00000001
00000100
00001000
00000001
,
00000100
00000100
00000000
00000010
,
00001000
00000100
00000000
00000010
,
00000001
00000100
00000000
00000010
,
00010000
00001000
00010000
00000010
,
00000000
00010000
00001000
00010000
,
00000000
00001000
00100000
00010000
,
00100000
00001000
00000000
01000000
,
10000000
01000000
00010000
10000000
,
01000000
01000000
00000000
00100000
,
00010000
01000000
00000000
00100000
,
10000000
01000000
00000000
00100000
,
00001000
00010000
00000000
00200000
,
00000000
00310000
00000000
00001000
,
00010000
00001000
00000000
00000020
,
00000000
00000130
00000000
00002002
,
00000000
00003003
00000000
00000001
,
00000001
00000001
00000000
00000100
,
00000100
00000100
00000000
00000010
,
00000010
00000010
00000000
00010000
,
00010000
00010000
00000000
00001000
,
00010000
00001000
00000000
00100000
,
00000000
00001000
00000000
00010000
,
00001000
00010000
00000000
00000010
,
00000000
00010000
00000000
00001000
,
00010000
00100000
01000000
00010000
,
00010000
00010000
00000000
10000000
,
01000000
00100000
00001000
00010000
,
00000000
00001000
00000000
00010000
,
00001000
00000010
00000100
00001000
,
00001000
00001000
00000000
00000001
,
00000100
00000010
00010000
00010000
,
00001000
00001000
00022000
00033000
;

//---------------dance-single - ----------------
#NOTEDATA:;
#CHARTNAME:;
#STEPSTYPE:dance-single;
#DESCRIPTION:;
#CHARTSTYLE:;
#DIFFICULTY:Medium;
#METER:12;
#RADARVALUES:0.534187,0.618932,0.317216,0.471018,0.000000,389.000000,356.000000,33.000000,49.000000,0.000000,0.000000,0.000000,0.000000,0.000000,0.534187,0.618932,0.317216,0.471018,0.000000,389.000000,356.000000,33.000000,49.000000,0.000000,0.000000,0.000000,0.000000,0.000000;
#CREDIT:Ben Speirs;
#NOTES:
0000
0000
0000
0000
,
0000
0000
0000
0000
,
0000
0000
0000
0000
,
0000
0000
0000
0000
,
0000
0000
0000
0000
,
0000
0000
0000
0000
,
0000
0000
0000
0000
,
0000
0000
0000
0000
,
0000
0000
0000
0000
0000
0000
1000
0100
,
1000
0000
0100
0010
0100
0000
0010
0001
,
0000
1000
0000
1010
0000
2001
0000
0000
,
3001
0000
0100
0001
0100
0000
0010
0100
,
0010
0000
1000
0010
0000
1002
0000
0000
,
0013
0100
0010
0100
1000
0000
0001
0100
,
0000
0010
0000
1010
0000
2001
0000
0000
,
3100
0010
0100
0010
0001
0000
1000
0010
,
0100
0002
0000
0020
0000
0033
0001
0000
,
1000
0000
0001
0100
0010
0000
1000
0000
,
0001
0000
1000
0200
0000
0320
0000
0031
,
1000
0000
0010
0100
0001
0000
1000
0100
,
0010
0000
0001
0200
0000
0320
0000
1030
,
0100
2200
3300
0022
,
0033
0000
2002
0000
3003
0000
0001
0100
,
0020
0000
0032
0000
0023
0000
1030
0100
,
3020
2330
3020
0031
,
1000
0001
1000
0010
0100
0000
0101
0000
,
1010
0000
0001
0010
0100
1000
0000
0000
,
0001
1000
0001
0100
0010
0000
1010
0000
,
0101
0000
1000
0100
0010
0001
0100
0000
,
0000
0101
0000
0000
0001
0010
0100
0000
,
0000
1100
0000
0000
1000
0010
0100
0000
,
0000
1001
0000
0000
0001
0010
0100
1000
,
0010
0100
0002
0000
1003
0000
2200
0000
,
3300
0000
0001
0100
0010
0100
0002
0000
,
0003
0000
1000
0100
0010
0100
1000
1000
,
0000
0001
0001
0000
0100
0100
0000
0010
,
0010
1010
0110
2002
,
3003
0000
1000
0100
0010
0001
0200
0000
,
0300
0000
0001
0010
0100
1000
0010
0010
,
0030
0100
0100
0000
0001
0001
0000
1000
,
1000
1100
2002
3003
,
0000
0000
0000
0000
0000
0000
0001
0100
,
0010
0010
0000
1000
0100
0020
0000
0031
,
1000
0000
0001
0100
0010
1000
0200
0000
,
0310
0100
0010
0100
2000
0000
3001
0100
,
0010
0000
1000
0100
0010
0000
0001
1000
,
0001
1000
0020
0000
0130
0000
0101
0000
,
1000
0100
0020
0000
1030
0010
0002
0000
,
1003
0010
0000
0100
0001
0000
1000
0001
,
1000
0000
0001
0010
0100
1000
0010
0100
,
0000
0101
0000
1001
0000
2100
0000
0000
,
3001
0100
0010
0000
1000
0100
0020
0000
,
0031
1000
0010
0100
0010
0000
1000
0100
,
0000
0100
0010
0000
0001
0200
0000
0301
,
0010
0100
2000
0000
3010
0000
1000
1000
,
0000
0100
0100
0000
0010
0010
0000
0001
,
0001
0000
1000
0001
1000
0000
0001
0100
,
0010
1000
0200
0000
0310
0020
0000
1030
,
0010
0001
0200
0000
0310
0000
2002
0000
,
0000
0000
0000
0000
3003
0000
0000
1000
,
0100
1000
0100
1000
0001
0000
0000
0001
,
0100
0001
0100
0001
1000
0000
0000
1000
,
0010
0001
0010
1000
0001
0000
0000
0001
,
0010
1000
0010
0001
1000
0000
0001
0100
,
0001
0100
0010
1000
0010
0000
1000
0100
,
0010
0000
0001
0100
0000
0102
0000
0000
,
1003
0100
1000
0001
0100
0001
2000
0000
,
3010
0100
0010
0100
0001
0000
1000
0001
,
1000
0001
0100
0000
0001
0010
0000
0010
,
0100
1000
0002
0000
0103
0000
0001
1000
,
0010
0000
1000
0001
0010
0000
0001
0010
,
0100
0000
1000
0010
0100
0000
0101
0000
,
0100
0101
0110
1010
,
1000
0000
1100
0000
0110
0000
0001
0010
,
0001
0010
0100
1000
0100
1000
0001
0100
,
1000
0100
0010
1000
0100
0002
1033
0000
;

//---------------dance-double - ----------------
#NOTEDATA:;
#CHARTNAME:;
#STEPSTYPE:dance-double;
#DESCRIPTION:;
#CHARTSTYLE:;
#DIFFICULTY:Medium;
#METER:12;
#RADARVALUES:0.535560,0.582524,0.269153,0.538306,0.000000,390.000000,362.000000,28.000000,56.000000,0.000000,0.000000,0.000000,0.000000,0.000000,0.535560,0.582524,0.269153,0.538306,0.000000,390.000000,362.000000,28.000000,56.000000,0.000000,0.000000,0.000000,0.000000,0.000000;
#CREDIT:Ben Speirs & kaystar;
#NOTES:
// measure 0
00000000
00000000
00000000
00000000
,  // measure 1
00000000
00000000
00000000
00000000
,  // measure 2
00000000
00000000
00000000
00000000
,  // measure 3
00000000
00000000
00000000
00000000
,  // measure 4
00000000
00000000
00000000
00000000
,  // measure 5
00000000
00000000
00000000
00000000
,  // measure 6
00000000
00000000
00000000
00000000
,  // measure 7
00000000
00000000
00000000
00000000
,  // measure 8
00000000
00000000
00000000
00000000
00000000
00000000
00100000
00001000
,  // measure 9
00100000
00000000
00001000
00010000
00001000
00000000
00010000
00000000
,  // measure 10
00000010
00000000
00001000
00000001
00000000
00000012
00000000
00001003
,  // measure 11
00000010
00000000
00001000
00000001
00001000
00000001
00000020
00000000
,  // measure 12
00000130
00001000
00000010
00010000
00000000
00010100
00000000
00010000
,  // measure 13
00000010
00000000
00010000
00001000
00010000
00000000
00001000
00000000
,  // measure 14
01000000
00000000
00010000
10000000
00000000
20100000
00000000
30010000
,  // measure 15
00100000
00000000
00010000
10000000
00010000
10000000
01000000
00100000
,  // measure 16
00001000
00020000
00000000
00000020
00000000
00030030
00010030
00000000
,  // measure 17
00000100
00000000
00001000
00000100
00000010
00000000
00000001
00000100
,  // measure 18
00000001
00000100
00000010
00002000
00000000
00003002
00000030
00000000
,  // measure 19
00001003
00000000
00000100
00010000
00001000
00000000
00100000
00010000
,  // measure 20
00100000
00010000
10000000
00200000
00000000
02300000
00000000
00000000
,  // measure 21
03010000
20020000
30030000
00022000
,  // measure 22
00033000
00000000
00002002
00000000
00003003
00000000
00000001
00001000
,  // measure 23
00000002
00000023
00002030
00023000
,  // measure 24
02030000
00000000
23000000
00000000
30100000
01000000
00100000
00000000
,  // measure 25
10000000
00010000
10000000
01000000
00200000
00000000
00310000
00000000
,  // measure 26
01010000
00000000
01000000
00001000
00000000
00001000
00020000
00000000
,  // measure 27
00030010
00001000
00000010
00000100
00000002
00000000
00001003
00003000
,  // measure 28
00001100
00000000
00000001
00000010
00000000
00000010
00000100
00000000
,  // measure 29
00000000
00010100
00000000
00000000
00000100
00010000
00001000
00000000
,  // measure 30
00000000
00011000
00000000
00000000
00001000
01000000
00010000
00000000
,  // measure 31
00000000
01010000
00000000
00000000
10100000
00000000
00010000
10000000
,  // measure 32
00010000
10030000
00100000
01000000
00010000
00100000
00002000
00000000
,  // measure 33
00100000
00000000
00103000
00001000
00010000
00000010
00020000
00000000
,  // measure 34
00000010
00000000
00030010
00010000
00001000
00100000
00010000
00010000
,  // measure 35
00000000
10000000
10000000
00000000
00100000
00100000
00000000
01000000
,  // measure 36
01000000
00002000
00013000
00022000
,  // measure 37
00033000
00000000
00010000
00000100
00000010
00000100
00020000
00000000
,  // measure 38
00031000
00000000
00001000
01000000
00100000
01000000
00001000
00001000
,  // measure 39
00000000
00010000
00010000
00000000
00000010
00000010
00000000
00000100
,  // measure 40
00000100
00000000
00000001
00000010
00000100
00001000
00000000
00000000
,  // measure 41
00000000
00000000
00000000
00000000
00000000
00000000
00000001
00001000
,  // measure 42
00000001
00000200
00000000
00001300
00010000
00002000
00000000
00000000
,  // measure 43
00103000
00010000
10000000
00010000
01000000
00000000
01010000
00000000
,  // measure 44
10100000
00000000
00010000
00100000
01000000
00000000
10000000
01000000
,  // measure 45
00010000
01000000
20000000
00000000
30100000
01000000
00000000
01000000
,  // measure 46
00020000
00000000
10030000
01000000
00100000
00001000
00020000
00000000
,  // measure 47
00030010
00001000
00000010
00000000
00001000
00000100
00000010
00000001
,  // measure 48
00000100
00000020
00000300
00000031
00000020
00000000
00001030
00000100
,  // measure 49
00010000
00000000
00011000
00000000
00101000
00000000
00100000
00010000
,  // measure 50
10000000
00100000
00000000
10100000
00000000
10020000
00000000
00000000
,  // measure 51
00130000
00001000
00010000
00001000
02000000
00000000
03020000
00000000
,  // measure 52
00130000
00001000
00010000
00000100
00002000
00030000
00003001
00000100
,  // measure 53
00000001
00000100
00000020
00000000
00001330
00000200
00000000
00001300
,  // measure 54
00000001
00001000
00000020
00000300
00010030
00000000
00010000
00001000
,  // measure 55
00000000
00010000
00001000
00000000
00100000
00010000
00000000
00100000
,  // measure 56
00010000
00000000
20000000
00000000
30100000
00000000
10000000
00100000
,  // measure 57
00010000
00100000
20000000
00000000
31000000
00200000
00000000
00301000
,  // measure 58
00010000
00000010
00000200
00000000
00000310
00000000
00002002
00000000
,  // measure 59
00000000
00000000
00000000
00000000
00003003
00000000
00000000
00000001
,  // measure 60
00000100
00000001
00000100
00001000
00010000
00000000
00000000
00001000
,  // measure 61
00010000
00001000
00010000
01000000
10000000
00000000
00000000
01000000
,  // measure 62
10000000
01000000
10000000
00100000
00010000
00000000
00001000
00010000
,  // measure 63
00001000
00010000
00001000
00000010
00000001
00000000
00000011
00000000
,  // measure 64
00001001
00000000
00001000
00000010
00001000
00000000
00000001
00000100
,  // measure 65
00000001
00001000
00000000
00001100
00000000
00010200
00000000
00010300
,  // measure 66
00001000
00000000
00100000
00010000
00100000
00000000
00010000
01000000
,  // measure 67
00010000
00000000
10000000
00100000
01000000
00000000
00010000
00100000
,  // measure 68
00010000
00100000
02000000
00000000
13000000
00100000
00000000
00100000
,  // measure 69
01000000
00001000
00020000
00000000
00030100
00000000
00010000
00001000
,  // measure 70
00010000
00001000
00000200
00000000
00000310
00001000
00000000
00001000
,  // measure 71
00000002
00000000
00001003
00000100
00000010
00000000
00000011
00000000
,  // measure 72
00001001
00000000
00000001
00000100
00000010
00000000
00001010
00000000
,  // measure 73
00001001
00000000
00001000
00000100
00010000
00000000
00001000
00100000
,  // measure 74
00010000
01000000
00100000
10000000
01000000
00000000
10000000
00100000
,  // measure 75
01000000
00010000
00100000
00001000
00010000
00000020
00000030
00000000
;
