#TITLE:Requiem;
#SUBTITLE:;
#ARTIST:Heaven Pierce Her;
#TITLETRANSLIT:;
#SUBTITLETRANSLIT:;
#ARTISTTRANSLIT:;
#GENRE:;
#CREDIT:Flicks;
#MUSIC:Requiem.ogg;
#BANNER:Requiem.png;
#BACKGROUND:Requiem-bg.png;
#CDTITLE:;
#SAMPLESTART:77.786;
#SAMPLELENGTH:8.786;
#SELECTABLE:YES;
#OFFSET:0.000;
#BPMS:0.000=140.000;
#STOPS:;
#BGCHANGES:;
#FGCHANGES:;

//--------------- dance-single - ----------------
#NOTES:
     dance-single:
     :
     Medium:
     13:
     0,0,0,0,0:
0000
0000
0000
0000
,
0000
0000
0000
0000
,
0000
0000
0000
0000
,
0000
0000
0000
0000
0000
0000
0000
1000
,
0100
1000
0001
1000
0010
1000
0000
0001
,
0010
0001
1000
0001
0100
0001
0000
1000
,
0100
0010
0001
1000
0001
1000
0010
0100
,
0000
0001
1000
0001
0000
1000
0002
0000
,
0100
0000
0103
0002
0000
1000
0000
1003
,
0002
0000
0010
0000
0013
0200
0000
1000
,
1300
0000
0001
2000
0000
0010
0000
3010
,
2000
0000
0001
0000
3001
2000
0000
0100
,
0000
3100
0020
0000
0100
0130
0000
1000
,
0001
0000
0000
0000
1000
0000
0100
0000
0010
0000
0100
0000
1000
0001
1000
0000
,
0001
0000
0000
0000
1000
0000
0010
0000
0100
0000
0010
0000
1000
0001
1000
0000
,
0001
0000
0000
0000
1000
0000
0100
0000
0010
0000
0001
0000
1000
0100
1000
0000
,
0001
0100
0010
1000
0001
1000
0001
0000
,
1000
0000
0100
0000
0010
0000
0100
0000
1000
0001
1000
0000
0001
0000
0000
0000
,
1000
0000
0010
0000
0100
0000
0010
0000
1000
0001
1000
0000
0001
0000
0000
0000
,
1000
0000
0100
0000
0010
0000
0001
0000
1000
0100
1000
0000
0001
0000
0100
0000
,
0010
1000
0001
1000
0002
0000
0010
0000
,
0013
0002
0000
1000
0000
1003
0002
0000
,
0100
0000
0103
0020
0000
1000
1030
0000
,
0001
2000
0000
0100
0000
3100
2000
0000
,
0001
0000
3001
2000
0000
0010
0000
3010
,
0200
0000
0010
0310
0000
1000
0001
0000
,
1000
0000
0010
0000
0100
0000
0010
0000
1000
0001
1000
0000
0001
0000
0000
0000
,
1000
0000
0100
0000
0010
0000
0100
0000
1000
0001
1000
0000
0001
0000
0000
0000
,
1000
0000
0010
0000
0100
0000
0001
0000
1000
0010
1000
0000
0001
0000
0010
0000
,
0100
1000
0001
1000
0001
0000
1000
0010
,
0100
0000
0010
0000
1000
0001
1000
0000
0001
0000
0000
0000
1000
0000
0100
0000
,
0010
0000
0100
0000
1000
0001
1000
0000
0001
0000
0000
0000
1000
0000
0010
0000
,
0100
0000
0001
0000
1000
0010
1000
0000
0001
0000
0010
0000
0100
0000
1000
0000
,
0001
1000
0002
0000
0100
0000
0103
0002
,
0000
1000
0000
1003
0002
0000
0010
0000
,
0013
0200
0000
1000
1300
0000
0001
2000
,
0000
0010
0000
3010
2000
0000
0001
0000
,
3001
2000
0000
0100
0000
3100
0020
0000
,
0100
0130
0000
1000
0002
0000
1000
0000
,
0023
0000
1000
0000
0031
0000
1000
0100
,
1000
0001
2000
0000
,
3020
0000
1000
0000
1030
0001
0000
1000
,
0100
0010
0100
2000
0000
0001
0000
3020
,
0000
0001
0000
1030
0000
0001
0100
0001
,
0000
1000
0000
0002
0000
0000
0000
0023
,
0000
0001
0000
0031
1000
0000
0001
0100
,
0010
0000
0100
0000
0001
0000
0010
0001
0010
0000
0001
0000
1000
0000
0001
0100
,
0001
0000
1000
0000
0001
1000
0000
0010
1000
0000
0001
0000
0100
0000
0001
0000
,
1000
0000
0000
0000
0001
0000
0010
0000
0001
0000
1000
0000
0001
0100
0010
0000
,
1000
0100
0010
0001
1000
0000
0100
0000
,
1001
0000
0000
0000
1000
0010
1000
0000
0001
0000
1000
0000
0001
0100
0001
0000
,
1000
0000
0000
0000
1000
0000
0001
0000
1000
0000
0100
0000
0010
0001
0010
0000
,
0001
0000
0000
0000
1000
0100
0010
0000
0001
0000
0010
0000
0001
0000
1000
0000
,
0010
0000
1000
0010
0100
0000
0001
0000
,
1001
0000
0000
0000
1000
0000
0010
1000
0010
0000
1000
0000
0001
0000
1000
0100
,
1000
0000
0001
0000
1000
0001
0000
0010
0001
0000
1000
0000
0100
0000
1000
0000
,
0001
0000
0000
0000
1000
0000
0010
0000
1000
0000
0001
0000
1000
0100
0010
0000
,
0001
0100
0010
1000
0001
0000
0100
0000
,
1001
0000
0000
0000
0001
0010
0001
0000
1000
0000
0001
0000
1000
0100
1000
0000
,
0001
0000
0000
0000
0001
0000
1000
0000
0001
0000
0100
0000
0010
1000
0010
0000
,
1000
0000
0000
0000
0001
0100
0010
0000
1000
0000
0010
0000
1000
0000
0001
0000
,
0010
0000
0001
0010
0100
0000
1000
0000
,
1001
0000
1000
0100
0010
0100
1000
0001
,
1000
0000
0001
0100
0010
0100
0001
1000
,
0001
0000
1000
0100
0010
0000
0001
0100
,
0010
0200
0000
0320
,
0000
2030
0000
3002
,
0013
0002
0000
2003
,
0000
0000
3002
0000
0000
0000
0000
0013
,
0100
0010
0002
0000
0000
0000
0000
0003
;

//--------------- dance-single - ----------------
#NOTES:
     dance-single:
     :
     Hard:
     15:
     0,0,0,0,0:
0000
0000
0000
0000
,
0000
0000
0000
0000
,
0000
0000
0000
0000
,
0000
0000
0000
0000
0000
0000
0000
1000
,
0100
0010
0001
0100
0010
1000
0000
0001
,
0010
0100
1000
0010
0100
0001
0000
1000
,
0100
0010
0100
1000
0010
1000
0001
1000
,
0000
0100
0010
0001
0000
1000
0002
0000
,
0103
0010
0100
0002
0000
0013
0100
0010
,
0002
0000
1003
0001
1000
0020
0000
0100
,
0130
0000
0001
2000
0000
3100
0010
0100
,
2000
0000
3010
0100
0010
2000
0000
3001
,
1000
0001
0020
0000
0100
0130
0000
1000
,
1001
0000
0000
0000
1000
0000
0010
0000
0100
0000
0001
0000
0100
0010
0100
0000
,
0001
0000
0000
0000
1000
0000
0001
0000
0010
0000
0100
0000
1000
0100
1000
0100
,
0010
0000
0000
0000
0001
0000
0100
0000
0010
0000
1000
0000
0100
0010
0001
0000
,
1000
0001
0100
1000
0100
0010
1000
0000
,
0001
0000
0010
0000
0100
0000
1000
0000
0100
0010
0100
0000
1000
0000
0000
0000
,
0001
0000
1000
0000
0010
0000
0100
0000
0001
0100
0001
0100
0010
0000
0000
0000
,
1000
0000
0100
0000
0010
0000
0001
0000
0100
0010
1000
0000
0001
0000
1000
0000
,
0100
0001
0100
0010
0002
0000
1003
0001
,
0100
0002
0000
0103
0010
1000
0002
0000
,
0013
0100
1000
0001
0000
0100
0010
0000
,
0001
2000
0000
3001
1000
0100
2000
0000
,
3100
0010
0001
2000
0000
3010
0100
0001
,
1000
0000
0100
0010
0000
1000
1001
0000
,
0001
0000
0100
0000
0010
0000
1000
0000
0010
0100
0010
0000
1000
0000
0000
0000
,
0001
0000
1000
0000
0100
0000
0010
0000
0001
0010
0001
0010
0100
0000
0000
0000
,
1000
0000
0010
0000
0100
0000
0001
0000
0010
0100
1000
0000
0001
0000
1000
0000
,
0010
0001
0010
0100
0001
0000
1000
0100
,
0010
0000
0001
0000
0010
0100
0010
0000
0001
0000
0000
0000
1000
0000
0001
0000
,
0100
0000
0010
0000
1000
0010
1000
0010
0100
0000
0000
0000
0001
0000
0010
0000
,
0100
0000
1000
0000
0010
0100
0001
0000
1000
0000
0001
0000
0010
0000
1000
0000
,
0010
0100
2000
0000
3001
1000
0010
2000
,
0000
3010
0100
0001
2000
0000
3100
0010
,
0001
1000
0000
0010
0100
0000
1000
0002
,
0000
1003
0001
0010
0002
0000
0013
0100
,
1000
0002
0000
0103
0010
1000
0001
0000
,
0010
0100
0000
1000
0002
0000
0100
0000
,
0023
0000
1000
0000
0031
0000
1000
0001
,
1000
1001
2000
0100
,
3020
0000
0001
0000
1030
0100
0000
1000
,
0001
0100
0001
2000
0000
0010
0000
3200
,
0000
0001
0000
1300
0000
0001
1000
0001
,
0000
1001
0000
0002
0000
0010
0000
0203
,
0000
1000
0000
0301
0010
0000
0001
1000
,
0010
0000
1000
0000
0001
0010
0100
0000
1000
0000
0001
0100
0010
1000
0001
1000
,
0100
1000
0001
1000
0010
0100
0001
0000
1000
0000
0001
0010
0100
0010
0001
1000
,
0100
0010
0100
1000
0001
0100
0010
0100
0001
0000
1000
0000
0001
0010
0100
1000
,
0001
0100
0010
1000
0001
0000
1000
0000
,
1100
0000
0000
0000
1000
0010
1000
0000
0001
0000
0010
0100
0001
0100
0010
0000
,
0001
0000
0000
0000
1000
0000
0001
0000
1000
0000
0010
1000
0001
1000
0100
0000
,
0010
0000
0000
0000
0001
0010
0001
0000
1000
0000
0010
0100
1000
0100
0010
0000
,
1000
0010
2000
0100
3100
0000
0010
0000
,
1001
0000
0000
0000
0001
0100
0010
0000
1000
0000
0001
0010
0100
1000
0001
1000
,
0010
1000
0001
1000
0100
0010
0001
0000
1000
0000
0001
0100
0010
0100
0001
1000
,
0010
0100
0010
1000
0001
0010
0100
0010
0001
0000
1000
0000
0001
0100
0010
1000
,
0001
0010
0100
1000
0001
0000
1000
0000
,
1010
0000
0000
0000
1000
0100
1000
0000
0001
0000
0100
0010
0001
0010
0100
0000
,
0001
0000
0000
0000
1000
0000
0001
0000
1000
0000
0100
1000
0001
1000
0010
0000
,
0100
0000
0000
0000
0001
0100
0001
0000
1000
0000
0100
0010
1000
0010
0100
0000
,
1000
0100
2000
0010
3010
0000
0100
0000
,
1001
0000
0000
0000
1000
0100
1000
0000
0001
0000
1000
0000
0001
0100
0010
0000
,
1000
0000
0001
0000
1000
0010
1000
0000
0001
0000
1000
0000
0001
0010
0100
0000
,
1000
0000
0001
0000
1000
0010
0100
0000
0001
0000
0000
0000
1000
0100
0010
0000
,
0001
0010
0200
0000
0000
0000
2300
0000
,
0000
3200
0000
0320
,
0031
2000
0000
3002
,
0000
0000
2003
0000
0000
0000
0000
3001
,
0100
0010
2000
0000
0000
0000
0000
3000
;
