#TITLE:乱膳の舞姫;
#SUBTITLE:;
#ARTIST:BEMANI Sound Team "Akhuta Works" feat. mami;
#TITLETRANSLIT:Ranzen no maihime;
#SUBTITLETRANSLIT:;
#ARTISTTRANSLIT:;
#GENRE:BALKANIC ROCK;
#CREDIT:;
#BANNER:Ranzen no maihimi.png;
#BACKGROUND:Ranzen no maihimi-bg.png;
#LYRICSPATH:Ranzen no maihime.lrc;
#CDTITLE:;
#MUSIC:Ranzen no maihime.ogg;
#OFFSET:0.000000;
#SAMPLESTART:72.931000;
#SAMPLELENGTH:12.000000;
#SELECTABLE:YES;
#BPMS:0.000000=171.000000
;
#STOPS:
;
#BGCHANGES:0.000=Ranzen no maihime.mp4=1.000=0=0=0=StretchNoLoop====,
99999=-nosongbg-=1.000=0=0=0 // don't automatically add -songbackground-
;
#KEYSOUNDS:;
#ATTACKS:;

//---------------dance-single - ----------------
#NOTES:
     dance-single:
     :
     Hard:
     16:
     0.846663,1.003943,0.551315,0.491015,0.581465,688.000000,624.000000,64.000000,57.000000,0.000000,0.000000,0.846663,1.003943,0.551315,0.491015,0.581465,688.000000,624.000000,64.000000,57.000000,0.000000,0.000000:
// measure 0
0000
0000
0000
0000
,  // measure 1
0000
0000
0000
0000
,  // measure 2
0000
0000
0000
0000
,  // measure 3
0000
0000
0000
0000
,  // measure 4
2010
0000
0000
0000
3001
0000
0100
0000
1000
0000
0100
0010
0100
0000
0001
0000
,  // measure 5
0012
0000
0000
0000
1003
0000
0100
0000
0001
0000
0100
0010
0100
0000
1000
0000
,  // measure 6
1020
0000
0130
0001
0021
0000
0130
1000
,  // measure 7
0010
0000
1000
0010
1000
0010
0100
0010
0100
0001
1000
0001
0010
0000
0000
0000
,  // measure 8
0012
0000
0000
1003
0100
0000
0010
0000
0100
0000
1000
0001
1000
0000
0010
0000
,  // measure 9
2010
0000
0000
3001
0100
0000
1000
0000
0100
0000
0001
1000
0001
0000
0010
0000
,  // measure 10
0012
0000
0000
1003
0100
0000
0001
0000
0100
0000
1000
0001
1000
0000
0010
0000
,  // measure 11
2000
0010
3002
0010
1003
0010
0100
0001
,  // measure 12
0102
0000
0000
1003
0010
0000
0100
0000
0001
1000
0001
0000
0010
0100
1000
0000
,  // measure 13
2100
0000
0000
3001
0010
0000
0100
0000
1000
0000
0010
0100
0010
0000
0100
0000
,  // measure 14
0110
0000
0000
0010
1000
0000
0100
0000
0110
0000
0000
0010
0001
0000
0100
0000
,  // measure 15
0101
0001
0100
0010
2002
3003
0000
0000
,  // measure 16
0001
0100
0001
0000
1000
0010
1000
0000
0001
0010
0001
0000
1000
0100
1000
0000
,  // measure 17
0001
0100
0001
0100
0010
1000
0010
1000
0001
0010
0001
0010
0100
1000
0001
1000
,  // measure 18
0010
0000
1000
0010
2000
0000
3001
0010
,  // measure 19
0002
0000
0013
0001
1000
0001
0100
0010
,  // measure 20
0200
1000
0010
0302
,  // measure 21
0023
1000
0100
0031
,  // measure 22
0011
0000
0000
0010
0100
0000
1000
0000
0010
0000
0000
0010
0100
0000
0001
0000
,  // measure 23
1000
0000
0001
0010
0000
0100
1000
0000
0001
0000
1000
0010
0000
0100
0001
0000
,  // measure 24
1000
0000
0000
0001
0100
0000
1000
0000
0100
0000
0010
0100
0010
0000
0100
0000
,  // measure 25
0001
0000
0000
1000
0100
0000
0001
0000
0100
0010
0100
0000
0010
0000
0001
1000
,  // measure 26
0001
0000
0000
0001
0010
0000
0001
0000
1000
0000
0000
1000
0010
0000
1000
0000
,  // measure 27
0010
0000
0100
0001
0000
1000
0001
0000
0010
0000
0100
1000
0000
0001
1000
0000
,  // measure 28
2010
0000
0000
3001
1000
0000
0001
0000
0012
0000
0000
1003
0001
0000
1000
0000
,  // measure 29
0001
0000
0100
0000
0010
0000
1000
0000
0001
0000
0000
1000
0000
0000
0100
0000
,  // measure 30
1100
0000
1000
0100
0010
0000
0001
0000
0100
0000
0001
0100
0010
0000
1000
0000
,  // measure 31
0001
0000
1000
0100
0000
0010
0001
0000
1000
0000
0001
0100
0000
0010
1000
0000
,  // measure 32
0001
0000
1000
0010
0100
0000
1000
0000
0100
0000
0010
0000
1000
0000
0001
0000
,  // measure 33
1000
0000
0001
0010
0100
0000
0001
0000
0100
0010
0100
0000
1000
0000
0001
1000
,  // measure 34
0001
0000
0000
0000
1000
0000
0001
0000
1000
0000
0100
0010
0001
0000
1000
0000
,  // measure 35
0010
0000
1000
0001
0000
0100
0001
0000
0010
0000
0001
1000
0000
0100
1000
0000
,  // measure 36
1100
0000
0000
0100
0010
0000
0001
0000
0101
0000
0000
0100
0010
0000
1000
0000
,  // measure 37
0001
0100
0010
1000
0001
1000
0100
0010
,  // measure 38
0100
0000
1000
0000
0001
0000
1000
0000
1010
0000
0000
0110
0000
0000
0101
0000
,  // measure 39
1001
0000
1000
0100
0010
0000
0001
0000
0011
0000
0000
0000
0110
0000
0000
0000
,  // measure 40
1002
0000
0000
0013
0100
0000
0010
0000
2001
0000
0000
3010
0100
0000
0010
0000
,  // measure 41
1001
0001
0100
0010
0001
1000
0100
0010
,  // measure 42
1002
0000
0000
0103
0010
0000
0100
0000
2001
0000
0000
3100
0010
0000
0100
0000
,  // measure 43
1001
1000
0100
0010
0200
0000
0310
0000
,  // measure 44
2001
0000
0000
3100
0010
0000
0100
0000
1002
0000
0000
0103
0010
0000
0100
0000
,  // measure 45
1001
1000
0010
0100
1000
0001
0010
0100
,  // measure 46
2001
0000
0000
3010
0100
0000
0010
0000
0210
0000
0000
0301
1000
0000
0001
0000
,  // measure 47
1001
0000
0000
0000
1100
0000
0000
0000
1000
0100
0010
0001
1000
0000
0000
0000
,  // measure 48
1001
0000
0000
1010
0000
0000
0101
0000
1001
0000
0000
0011
0000
0000
1100
0000
,  // measure 49
1001
0000
0000
1100
0000
0000
0011
0000
1001
0000
0000
0101
0000
0000
1010
0000
,  // measure 50
1001
0000
0001
0100
0000
0010
0100
0000
1001
0000
1000
0100
0000
0010
0100
0000
,  // measure 51
1001
0000
0001
0100
0000
0010
0100
0000
0001
0100
0010
1000
0001
1000
0100
0010
,  // measure 52
0002
0010
1003
0001
2000
0010
3001
1000
,  // measure 53
0100
0000
1000
0100
0010
0000
0002
0000
0010
0000
0010
0000
0013
0000
0001
0000
,  // measure 54
2000
0010
3001
1000
0002
0010
1003
0001
,  // measure 55
0100
0000
0001
0100
0010
0000
1000
0000
1010
0000
0110
0000
1010
0000
0000
0000
,  // measure 56
2000
0100
3001
1000
0002
0100
1003
0001
,  // measure 57
0010
0000
0001
0010
0100
0000
2000
0000
0100
0000
0100
0000
3100
0000
1000
0000
,  // measure 58
0002
0100
1003
0001
2000
0100
3001
1000
,  // measure 59
0010
0000
1000
0010
0100
0000
0001
0000
0101
0000
0110
0000
0101
0000
0000
0000
,  // measure 60
2002
3003
1000
0020
,  // measure 61
0230
0000
0000
0000
0310
0000
1000
0000
0100
0000
0000
1000
0000
0000
0001
0000
,  // measure 62
0010
0000
0001
1000
0200
0000
0301
0100
,  // measure 63
0010
0100
1000
0001
0200
0000
1300
0100
,  // measure 64
0010
0100
0001
1000
0001
0000
0200
0000
,  // measure 65
0320
0000
0000
0000
0130
0000
0001
0000
0010
0000
0000
0100
0000
0000
1000
0000
,  // measure 66
0010
0000
0000
0100
0000
0000
0001
0000
0200
0000
0000
0000
0301
0000
1000
0000
,  // measure 67
0100
0000
0010
0000
0001
0000
1000
0000
0001
0000
0000
0100
0000
0000
0010
0000
,  // measure 68
0220
0000
0000
0000
0330
0000
0000
0000
2001
0000
0000
0000
3010
1000
0010
1000
,  // measure 69
0001
0000
0010
0001
0010
0001
1000
0000
0010
0000
0100
1000
0000
0100
0010
0000
,  // measure 70
1000
0000
0100
1000
0100
0010
0001
0000
0010
0000
0100
0001
0000
0100
0010
0000
,  // measure 71
0001
0000
0100
0001
0100
0010
1000
0000
0010
1000
0010
0100
0001
0000
1000
0000
,  // measure 72
0002
0000
0000
0000
0103
0000
0000
0000
0001
0100
0001
0100
0000
0010
1000
0000
,  // measure 73
0001
0010
0001
0010
0000
0100
1000
0000
0100
0010
0100
0010
0000
0001
1000
0000
,  // measure 74
0010
0000
0000
0000
0100
0000
0010
0000
0002
0000
0000
0000
0013
0100
0010
0100
,  // measure 75
0001
0000
0010
0100
0010
0100
1000
0000
0100
1000
0100
0010
0001
0000
1000
0000
,  // measure 76
0010
1000
0010
0100
0001
0000
1000
0000
1002
0000
0000
0000
0103
0000
0000
0000
,  // measure 77
0010
0000
0000
0000
0100
0000
0001
0000
0010
0000
0000
0001
0000
0000
1000
0000
,  // measure 78
0100
0000
0010
0000
0100
0000
1000
0100
,  // measure 79
0010
0001
1000
0001
0200
0000
0001
0000
,  // measure 80
0310
0000
2002
3003
0000
0000
0000
0000
;

//---------------dance-single - ----------------
#NOTES:
     dance-single:
     :
     Medium:
     13:
     0.618999,0.623137,0.241200,0.516858,0.185208,503.000000,475.000000,28.000000,60.000000,0.000000,0.000000,0.618999,0.623137,0.241200,0.516858,0.185208,503.000000,475.000000,28.000000,60.000000,0.000000,0.000000:
// measure 0
0000
0000
0000
0000
,  // measure 1
0000
0000
0000
0000
,  // measure 2
0000
0000
0000
0000
,  // measure 3
0000
0000
0000
0000
,  // measure 4
2020
0000
3030
0000
1000
0001
0010
0000
,  // measure 5
0022
0000
0033
0000
0001
1000
0100
0000
,  // measure 6
2100
3001
0102
1003
,  // measure 7
0001
1000
0001
0100
0020
0000
0130
0000
,  // measure 8
2001
0000
0010
0000
0001
0000
3100
0010
,  // measure 9
0001
0000
0000
1000
0001
0000
0100
0000
0020
0000
0000
0000
0130
0000
0010
0000
,  // measure 10
1000
0000
0000
0001
1000
0000
0100
0000
0020
0000
0000
0000
0130
0000
0010
0000
,  // measure 11
0001
0000
0000
0100
0010
0000
0100
0000
0001
0000
0100
0000
0010
0000
0000
0000
,  // measure 12
1002
0000
0100
0000
1000
0000
0013
0100
,  // measure 13
1000
0000
0000
0001
1000
0000
0010
0000
0200
0000
0000
0000
1300
0000
0000
0000
,  // measure 14
0110
0000
1000
0001
0110
0000
0001
1000
,  // measure 15
0110
0000
0110
0000
2002
3003
0000
0000
,  // measure 16
0001
1000
0100
0100
1000
0001
0100
0100
,  // measure 17
0001
0010
0100
0100
1000
0010
0100
0100
,  // measure 18
1001
0000
1000
0001
0200
0000
0301
1000
,  // measure 19
0200
0000
1300
0100
0010
0001
1000
0000
,  // measure 20
0002
0100
2003
0100
,  // measure 21
3200
0010
0020
0330
,  // measure 22
1001
0000
0000
0001
0010
0000
0100
0000
0010
0000
0000
0010
0100
0000
1000
0000
,  // measure 23
0010
0000
0000
0010
0100
0000
0001
0000
1000
0000
0000
0000
0001
0000
0100
0000
,  // measure 24
0020
0000
1030
0001
0010
0100
1000
0100
,  // measure 25
0020
0000
0031
1000
0020
0000
1030
0001
,  // measure 26
1001
0000
0000
1000
0100
0000
0010
0000
0100
0000
0000
0100
0010
0000
0001
0000
,  // measure 27
0100
0000
0000
0100
0010
0000
1000
0000
0001
0000
0000
0000
1000
0000
0100
0000
,  // measure 28
0020
0000
0031
0100
0020
0000
0130
0010
,  // measure 29
0001
0000
0010
0000
0100
0000
0001
0000
1000
0000
0000
0001
0000
0000
1000
0000
,  // measure 30
0001
0000
0000
0100
0010
0000
0100
0000
0001
0000
1000
0000
0010
0000
1000
0000
,  // measure 31
0100
0000
0000
0010
0100
0000
1000
0000
0100
0000
0010
0000
0001
0000
1000
0000
,  // measure 32
0200
0000
1300
0100
0001
0100
1000
0001
,  // measure 33
0200
0000
0301
0100
2000
0000
3100
0001
,  // measure 34
1000
0000
0000
0010
0100
0000
0010
0000
1000
0000
0001
0000
0100
0000
0001
0000
,  // measure 35
0010
0000
0000
0100
0010
0000
0001
0000
0010
0000
0100
0000
1000
0000
0001
0000
,  // measure 36
0020
0000
0031
1000
0010
0100
0001
1000
,  // measure 37
0001
0100
0100
0010
1000
0100
0100
0010
,  // measure 38
0001
0000
0010
0000
0100
0000
1000
0000
0001
0000
0000
1000
0000
0000
0001
0000
,  // measure 39
1000
0010
1010
0110
,  // measure 40
0102
0000
1003
0010
0002
0000
0013
0100
,  // measure 41
0001
0100
0010
1000
0100
0010
0100
1000
,  // measure 42
2100
0000
3001
0010
2000
0000
3010
0100
,  // measure 43
1000
0001
0100
0000
0101
0000
0110
0000
,  // measure 44
2010
0000
3001
0100
2000
0000
3100
0010
,  // measure 45
1000
0010
0100
0001
0010
0100
1000
0001
,  // measure 46
0012
0000
1003
0100
0002
0000
0103
1000
,  // measure 47
0020
0000
0130
0000
0010
1000
0001
0000
,  // measure 48
1000
0000
0000
1000
0000
0000
1000
0000
0010
0000
0000
0010
0000
0000
0010
0000
,  // measure 49
0100
0000
0000
0100
0000
0000
0100
0000
0001
0000
0000
0001
0000
0000
0001
0000
,  // measure 50
1000
0000
0000
0100
0000
0000
0010
0000
0001
0000
0000
0100
0000
0000
0010
0000
,  // measure 51
1000
0000
0000
0001
0000
0000
1000
0000
0002
0000
0000
0000
0103
0000
0000
0000
,  // measure 52
0101
0000
0000
0100
0010
0000
1000
0000
0100
0000
0000
0100
0010
0000
0100
0000
,  // measure 53
0001
0000
0000
0001
0100
0000
0010
0000
0100
0000
1000
0000
0100
0000
0000
0000
,  // measure 54
0010
0000
0000
0010
0100
0000
1000
0000
0010
0000
0000
0010
0100
0000
0010
0000
,  // measure 55
0001
0000
0000
0001
0010
0000
0100
0000
0010
0000
0010
0000
0010
0000
0000
0000
,  // measure 56
1010
0000
0000
0010
0100
0000
0001
0000
0010
0000
0000
0010
0100
0000
0010
0000
,  // measure 57
1000
0000
0000
1000
0010
0000
0100
0000
0010
0000
0001
0000
0010
0000
0000
0000
,  // measure 58
0100
0000
0000
0100
0010
0000
0001
0000
0100
0000
0000
0100
0010
0000
0100
0000
,  // measure 59
1000
0000
0000
1000
0100
0000
0010
0000
0100
0000
0100
0000
0100
0000
0000
0000
,  // measure 60
2002
3003
0001
0200
,  // measure 61
0320
0000
0000
0000
1030
0000
0001
0000
0010
0000
0000
0010
0000
0000
0100
0000
,  // measure 62
1000
0100
0002
0103
,  // measure 63
1000
0001
0100
0000
2000
0000
3100
0000
,  // measure 64
0001
1000
0100
0000
1000
0000
0200
0000
,  // measure 65
0320
0000
0000
0000
0031
0000
1000
0000
0010
0000
0000
0010
0000
0000
0100
0000
,  // measure 66
0001
0000
0000
0001
0000
0000
0100
0000
0020
0000
0000
0000
1030
0000
0000
0000
,  // measure 67
0200
0000
0000
0000
0310
0000
0001
0000
1000
0000
0000
0001
0000
0000
0100
0000
,  // measure 68
0020
0000
0030
0000
2001
0000
3010
1000
,  // measure 69
0001
0000
1000
0000
0100
0000
0010
0000
0001
0000
0000
0100
0000
0000
0010
0000
,  // measure 70
0010
0000
1000
0000
0010
0000
0100
0000
0001
0000
0000
0010
0000
0000
0100
0000
,  // measure 71
0100
1000
0100
0010
0001
1000
0010
0100
,  // measure 72
0020
0000
0130
0000
0001
0100
1000
0100
,  // measure 73
0001
0000
0100
0000
1000
0000
0100
0000
0001
0000
0000
0010
0000
0000
0100
0000
,  // measure 74
2000
0000
3100
1000
0020
0000
1030
0010
,  // measure 75
0100
0001
0010
0100
1000
1000
0001
0001
,  // measure 76
0100
0010
1000
0100
1100
0000
0200
0000
,  // measure 77
0320
0000
0000
0000
0031
0000
1000
0000
0010
0000
0000
0010
0000
0000
0100
0000
,  // measure 78
0001
0100
2000
3100
,  // measure 79
0001
1000
0100
0000
0020
0000
0100
0000
,  // measure 80
0130
0000
2002
3003
0000
0000
0000
0000
;

//---------------dance-single - ----------------
#NOTES:
     dance-single:
     :
     Easy:
     9:
     0.388874,0.450743,0.215358,0.559930,0.000000,316.000000,291.000000,25.000000,65.000000,0.000000,0.000000,0.388874,0.450743,0.215358,0.559930,0.000000,316.000000,291.000000,25.000000,65.000000,0.000000,0.000000:
// measure 0
0000
0000
0000
0000
,  // measure 1
0000
0000
0000
0000
,  // measure 2
0000
0000
0000
0000
,  // measure 3
0000
0000
0000
0000
,  // measure 4
2002
3003
1000
0100
,  // measure 5
0220
0330
0001
1000
,  // measure 6
2002
3003
0220
0330
,  // measure 7
1000
0001
1000
0000
0001
0000
0000
0000
,  // measure 8
2002
3003
0002
0203
,  // measure 9
0320
0000
1030
0001
2000
0000
3100
0000
,  // measure 10
0200
0000
0310
0001
0020
0000
0031
0000
,  // measure 11
0002
0000
2003
0000
3010
0100
0010
0000
,  // measure 12
0220
0330
2000
3020
,  // measure 13
0230
0000
0301
0100
0002
0000
1003
0000
,  // measure 14
2000
0000
3001
0010
0002
0000
2003
0000
,  // measure 15
3001
0100
0001
0100
0002
0000
0003
0000
,  // measure 16
1000
0001
0100
0010
,  // measure 17
1000
0100
0010
0001
,  // measure 18
2002
0000
0000
0000
,  // measure 19
0000
0000
0000
3003
,  // measure 20
0001
0100
0010
1000
,  // measure 21
0100
0100
0100
0000
,  // measure 22
1000
0001
1000
0010
,  // measure 23
0010
0100
0001
1000
,  // measure 24
0200
0310
0200
0310
,  // measure 25
0001
1000
0010
0000
,  // measure 26
1000
0010
0100
0001
,  // measure 27
1000
1000
0001
0001
,  // measure 28
0020
0130
0020
0130
,  // measure 29
1000
0001
0100
0000
,  // measure 30
1001
0000
0001
0000
0100
0000
0010
1000
,  // measure 31
0010
0100
0001
1000
,  // measure 32
0100
0000
0100
0000
0010
0001
0010
0000
,  // measure 33
0001
1000
0010
0000
,  // measure 34
1000
0000
0010
0000
0100
0000
0001
0100
,  // measure 35
0001
0000
1000
0000
0001
0000
0010
0100
,  // measure 36
0010
0001
1000
0010
,  // measure 37
1000
0100
1000
0000
0001
0100
0001
0000
,  // measure 38
1000
0001
1000
0000
0001
0000
0100
0000
,  // measure 39
0010
0000
1000
0010
,  // measure 40
2002
3003
2002
3003
,  // measure 41
0001
0000
0010
0000
0001
0100
0001
0000
,  // measure 42
2000
3000
2000
3000
,  // measure 43
0001
1000
0100
0100
,  // measure 44
2002
3003
2002
3003
,  // measure 45
1000
0000
0100
0000
1000
0010
1000
0000
,  // measure 46
0002
0003
0002
0003
,  // measure 47
1000
0001
0100
0000
,  // measure 48
0001
0001
0100
0100
,  // measure 49
0010
0010
1000
1000
,  // measure 50
0100
0100
0010
0010
,  // measure 51
0001
1000
0010
0000
,  // measure 52
2001
3010
1002
0013
,  // measure 53
0001
0000
1000
0000
0010
0010
0010
0000
,  // measure 54
2001
3100
1002
0103
,  // measure 55
0001
0000
1000
0000
0100
0100
0100
0000
,  // measure 56
2001
3100
2001
3100
,  // measure 57
1000
0000
0001
0000
1000
1000
1000
0000
,  // measure 58
1002
0103
1002
0103
,  // measure 59
0001
0000
1000
0000
0001
0001
0001
0000
,  // measure 60
0020
0030
1001
0001
,  // measure 61
0100
0010
1000
0100
,  // measure 62
0010
0001
1000
1000
,  // measure 63
0001
0001
1000
0010
,  // measure 64
0200
0300
1001
1000
,  // measure 65
0100
0010
0001
0001
,  // measure 66
1000
1000
0001
0100
,  // measure 67
0010
1000
0100
0100
,  // measure 68
0200
0300
2002
3003
,  // measure 69
0001
0100
0001
0000
2000
0000
0010
0000
,  // measure 70
3010
1000
0002
0010
,  // measure 71
0013
0000
0001
0000
1000
0000
0010
0100
,  // measure 72
0010
0000
1000
0000
0001
0010
0001
0000
,  // measure 73
1000
0010
1000
0000
0100
0000
0100
0000
,  // measure 74
0100
0000
1000
0001
,  // measure 75
0100
0010
0100
0000
0001
0000
0010
0000
,  // measure 76
0100
1000
0100
0000
2002
0000
0000
0000
,  // measure 77
0000
0000
0000
0000
,  // measure 78
0000
3003
1000
0010
,  // measure 79
0100
0001
0010
0010
,  // measure 80
0010
2002
3003
0000
;

//---------------dance-single - ----------------
#NOTES:
     dance-single:
     :
     Beginner:
     4:
     0.194437,0.242708,0.034457,0.206743,0.000000,158.000000,154.000000,4.000000,24.000000,0.000000,0.000000,0.194437,0.242708,0.034457,0.206743,0.000000,158.000000,154.000000,4.000000,24.000000,0.000000,0.000000:
// measure 0
0000
0000
0000
0000
,  // measure 1
0000
0000
0000
0000
,  // measure 2
0000
0000
0000
0000
,  // measure 3
0000
0000
0000
0000
,  // measure 4
2000
0000
3000
0000
,  // measure 5
0002
0000
0003
0000
,  // measure 6
0200
0300
0200
0300
,  // measure 7
0020
0030
0010
0000
,  // measure 8
2002
3003
0000
0000
,  // measure 9
0001
0001
0001
0000
,  // measure 10
0010
0010
0010
0000
,  // measure 11
0100
0000
0100
0000
,  // measure 12
0220
0000
0330
0000
,  // measure 13
1000
1000
1000
0000
,  // measure 14
0001
0001
0001
0000
,  // measure 15
0100
0100
0100
0000
,  // measure 16
0002
0000
0003
0000
,  // measure 17
2000
0000
3000
0000
,  // measure 18
2002
0000
0000
0000
,  // measure 19
0000
0000
0000
0000
,  // measure 20
3003
0000
0000
0000
,  // measure 21
0000
0000
0000
0000
,  // measure 22
0001
0000
1000
0000
,  // measure 23
0010
0000
0010
0000
,  // measure 24
1000
0000
0100
0000
,  // measure 25
0010
0010
0010
0000
,  // measure 26
0001
0000
1000
0000
,  // measure 27
0010
0000
0010
0000
,  // measure 28
0100
0000
0001
0000
,  // measure 29
1000
1000
1000
0000
,  // measure 30
0001
0000
0010
0000
,  // measure 31
0100
0100
0100
0000
,  // measure 32
1000
0000
0001
0000
,  // measure 33
0100
0100
0100
0000
,  // measure 34
0001
0000
1000
0000
,  // measure 35
0010
0010
0010
0000
,  // measure 36
1000
0000
0001
0000
,  // measure 37
0010
0010
0010
0000
,  // measure 38
0100
0100
0100
0000
,  // measure 39
0000
0000
1000
1000
,  // measure 40
1000
0000
0100
0000
,  // measure 41
0000
0010
0010
0000
,  // measure 42
0001
0000
0001
0000
,  // measure 43
0000
0000
0100
0100
,  // measure 44
0100
0000
0010
0000
,  // measure 45
0000
1000
1000
0000
,  // measure 46
0010
0000
0010
0000
,  // measure 47
0100
0000
0000
0000
,  // measure 48
0001
0000
0001
0000
,  // measure 49
0010
0000
0010
0000
,  // measure 50
0100
0000
0100
0000
,  // measure 51
1000
0000
0000
0000
,  // measure 52
0002
0003
0001
0000
,  // measure 53
2000
3000
1000
0000
,  // measure 54
0020
0030
0010
0000
,  // measure 55
0100
0100
0100
0000
,  // measure 56
0002
0003
0001
0000
,  // measure 57
0020
0030
0010
0000
,  // measure 58
0200
0300
0100
0000
,  // measure 59
1000
1000
1000
1000
,  // measure 60
1000
0000
0001
0000
,  // measure 61
0000
0000
0100
0100
,  // measure 62
0100
0000
0010
0000
,  // measure 63
0010
0000
0010
0000
,  // measure 64
0000
0000
1000
0000
,  // measure 65
0000
0000
0100
0100
,  // measure 66
0100
0000
0010
0000
,  // measure 67
0010
0000
0001
0000
,  // measure 68
0001
0000
2000
0000
,  // measure 69
3000
0000
0010
0010
,  // measure 70
0010
0000
0100
0100
,  // measure 71
0100
0000
0001
0001
,  // measure 72
0001
0000
0020
0000
,  // measure 73
0030
0000
0100
0000
,  // measure 74
0100
0000
1000
0000
,  // measure 75
1000
0000
0010
0010
,  // measure 76
0010
0010
0020
0000
,  // measure 77
0000
0000
0000
0000
,  // measure 78
0030
0000
1000
0000
,  // measure 79
0001
0000
0010
0010
,  // measure 80
0010
2002
3003
0000
;
