#VERSION:0.83;
#TITLE:Psychosis Safari;
#SUBTITLE:;
#ARTIST:The Eighties Matchbox B-Line Disaster;
#TITLETRANSLIT:;
#SUBTITLETRANSLIT:;
#ARTISTTRANSLIT:;
#GENRE:PSYCHOBILLY;
#ORIGIN:;
#TAGS:;
#CREDIT:YonabearCWY;
#BANNER:Psychosis Safari.png;
#BACKGROUND:Psychosis Safari-bg.png;
#PREVIEWVID:;
#JACKET:Psychosis Safari-jacket.png;
#CDIMAGE:;
#DISCIMAGE:;
#LYRICSPATH:;
#CDTITLE:Hörse Of the Dög.png;
#MUSIC:Psychosis Safari.ogg;
#OFFSET:-0.360000;
#SAMPLESTART:34.123901;
#SAMPLELENGTH:22.987244;
#SELECTABLE:YES;
#DISPLAYBPM:168.000000;
#BPMS:0.000000=171.000000
,2.000000=160.000000
,4.000000=167.000000
,6.000000=166.500000
,8.000000=167.199997
,10.000000=166.000000
,12.000000=168.100006
,14.000000=166.000000
,15.000000=170.000000
,16.000000=168.660004
,20.000000=166.399994
,24.000000=166.500000
,28.000000=167.000000
,30.000000=168.850006
,32.000000=165.000000
,36.000000=166.750000
,40.000000=168.449997
,44.000000=169.000000
,48.000000=170.000000
,52.000000=168.850006
,56.000000=168.449997
,60.000000=168.660004
,64.000000=168.100006
,68.000000=169.100006
,72.000000=168.100006
,76.000000=169.100006
,80.000000=168.500000
,84.000000=167.500000
,88.000000=168.500000
,92.000000=169.500000
,94.500000=175.000000
,96.000000=167.100006
,100.000000=165.000000
,104.000000=166.500000
,108.000000=166.000000
,112.000000=167.500000
,116.000000=166.550003
,120.000000=166.000000
,124.000000=167.100006
,126.000000=170.000000
,128.000000=169.119995
,132.000000=168.949997
,136.000000=169.000000
,140.000000=170.050003
,144.000000=170.100006
,148.000000=171.100006
,152.000000=171.250000
,156.000000=169.000000
,160.000000=168.949997
,164.000000=169.449997
,172.000000=168.949997
,176.000000=168.850006
,184.000000=170.100006
,188.000000=170.500000
,192.000000=172.000000
,196.000000=171.300003
,197.000000=175.000000
,202.000000=177.500000
,208.000000=172.000000
,209.000000=172.350006
,216.000000=172.300003
,224.000000=171.000000
,232.000000=171.500000
,256.000000=171.250000
,287.500000=160.000000
;
#STOPS:;
#DELAYS:;
#WARPS:;
#TIMESIGNATURES:0.000000=4=4
;
#TICKCOUNTS:0.000000=4
;
#COMBOS:0.000000=1
;
#SPEEDS:0.000000=1.000000=0.000000=0
;
#SCROLLS:0.000000=1.000000
;
#LABELS:0.000000=Song Start
;
#BGCHANGES:-3.600=Psychosis Safari.mp4=1.000=1=0=0=StretchNoLoop==CrossFade==,
99999.000=-nosongbg-=1.000=0=0=0=StretchNoLoop====,
99999=-nosongbg-=1.000=0=0=0 // don't automatically add -songbackground-
;
#KEYSOUNDS:;
#ATTACKS:
;

//---------------dance-single - ----------------
#NOTEDATA:;
#CHARTNAME:BASIC;
#CHARTHASH:2089625243;
#STEPSTYPE:dance-single;
#BANNER:;
#DESCRIPTION:;
#CHARTSTYLE:;
#DIFFICULTY:Easy;
#METER:6;
#METERF:6.000000;
#LASTSECONDHINT:103.425423;
#RADARVALUES:0.297146,0.453267,0.162951,0.134195,0.000000,217.000000,200.000000,17.000000,14.000000,0.000000,0.000000,0.000000,0.000000,0.000000,0.297146,0.453267,0.162951,0.134195,0.000000,217.000000,200.000000,17.000000,14.000000,0.000000,0.000000,0.000000,0.000000,0.000000;
#CREDIT:YonabearCWY;
#DISPLAYBPM:168.000000;
#NOTES:
0000
0000
0000
0000
,
0000
0000
0000
0000
,
0000
0000
0000
0000
,
0000
0000
0000
0000
,
1000
0000
1000
0000
,
0001
0000
0001
0000
,
0100
0000
0100
0000
,
0010
0000
0010
0000
,
1000
1000
1000
0000
,
1000
1000
1000
0000
,
0100
0100
0100
0000
,
0100
0100
0100
0000
,
0010
0010
0010
0000
,
0010
0010
0010
0000
,
0001
0001
0001
0000
,
0001
0001
0001
0000
,
0000
0001
0000
0001
,
0010
0100
1000
0001
,
0000
1000
0000
1000
,
0100
0010
0001
0100
,
0000
0100
0000
0100
,
0010
1000
0001
0010
,
0000
0010
0000
0010
,
0000
0010
0001
1000
,
1001
0001
0001
0001
,
0010
0010
0010
0010
,
0100
0100
0100
0100
,
1000
1000
1000
1000
,
0100
0010
0100
0010
,
0001
1000
0001
1000
,
0001
0100
1000
0100
,
0001
1000
0010
0001
,
0010
0010
0010
0010
,
0100
0100
0100
0100
,
0001
0001
0001
0001
,
1000
1000
1000
1000
,
0001
1000
0001
1000
,
0010
0100
0010
0100
,
1000
0100
0001
0100
,
1000
0100
0010
1001
,
0220
0000
0000
0330
,
2000
0000
0000
3000
,
0220
0000
0000
0330
,
0002
0000
0000
0003
,
2002
0000
0000
3003
,
0200
0000
0000
0300
,
2002
0000
0000
3003
,
0020
0000
0000
0030
,
1000
0000
1000
0000
,
1000
0001
0010
0100
,
0010
0000
0010
0000
,
0010
0001
1000
0010
,
0100
0000
0100
0000
,
0100
0001
0010
0100
,
1000
1100
0001
0101
,
1000
1000
0001
1001
,
0110
0010
0010
0010
,
0010
0000
0010
0000
,
0100
0100
0100
0100
,
0100
0000
0100
0000
,
1001
1001
1001
0000
,
0100
0000
0100
0000
,
1001
1001
1001
0000
,
0010
0000
0010
0000
,
1000
1000
1000
1000
,
1000
0000
1000
0000
,
0001
0001
0001
0001
,
0001
0000
0001
0000
,
0100
0100
0100
0100
,
0100
0000
0100
0000
,
0010
0010
0010
0010
,
0010
0000
0010
0000
,
2002
0000
0000
3003
;

//---------------dance-single - ----------------
#NOTEDATA:;
#CHARTNAME:DIFFICULT;
#CHARTHASH:740530763;
#STEPSTYPE:dance-single;
#BANNER:;
#DESCRIPTION:;
#CHARTSTYLE:;
#DIFFICULTY:Medium;
#METER:9;
#METERF:9.000000;
#LASTSECONDHINT:103.425423;
#RADARVALUES:0.518978,0.557867,0.392999,0.249219,0.000000,379.000000,338.000000,41.000000,26.000000,0.000000,0.000000,0.000000,0.000000,0.000000,0.518978,0.557867,0.392999,0.249219,0.000000,379.000000,338.000000,41.000000,26.000000,0.000000,0.000000,0.000000,0.000000,0.000000;
#CREDIT:YonabearCWY;
#DISPLAYBPM:168.000000;
#NOTES:
0000
0000
0000
0000
,
0000
0000
0000
0000
,
0000
0000
0000
0000
,
0000
0000
0000
0000
,
1000
0000
0100
0000
1000
0001
1000
0000
,
0001
0000
0010
0000
0001
1000
0001
0000
,
0100
0000
0010
0000
1000
0001
1000
0000
,
0010
0000
0100
0000
0001
1000
0001
0000
,
1100
1100
2002
3003
,
0010
0001
0010
0001
0010
0000
0100
0000
,
1001
1001
0220
0330
,
1000
0001
1000
0000
0010
0010
0010
0000
,
0101
0101
0022
0033
,
0001
1000
0001
1000
0001
0000
0100
0000
,
1010
1010
0220
0330
,
1000
0001
1000
0001
0000
0010
0010
0000
,
0100
1000
0001
1000
,
0100
0000
1000
0000
0010
0100
0010
0001
,
0010
0100
0001
0100
,
0010
0000
1000
0000
0100
0001
0100
1000
,
0100
1000
0001
0010
,
0001
0000
0100
0000
0010
1000
0100
0010
,
0100
0010
0001
1000
,
0001
0000
0100
0000
0001
1000
0010
0001
,
0010
1010
0010
0011
,
0010
0000
0110
0000
0010
1000
0010
0000
,
1000
1001
1000
1100
,
1000
0001
1000
0000
0100
0100
0100
0000
,
0011
0001
1001
0001
,
0101
0000
0001
0000
1001
0000
0001
0010
,
0100
1100
0100
0101
,
0100
0000
0110
0000
0100
1000
0001
1000
,
0010
0010
0100
0100
,
0001
0010
0001
0000
1000
0010
0001
0010
,
1000
1000
0001
0001
,
0100
0001
0100
0000
0001
0100
1000
0100
,
0001
1000
0100
0010
,
0001
0010
0100
0000
1000
0100
0001
0000
,
0100
0010
0001
0010
,
0100
1000
0001
0000
0100
0100
0110
0000
,
2002
0000
0000
3003
,
1000
0100
0010
0002
0000
0000
0003
0100
,
0101
0202
0000
0303
,
0001
0000
1000
0010
1000
0000
0010
0000
,
0110
0220
0000
0330
,
0001
0010
0100
2000
0000
0000
3000
0001
,
1000
2020
0000
3030
,
1000
0000
0100
0010
0100
0000
0010
0000
,
0001
0000
0010
0100
0010
0000
0001
0000
,
1000
0000
0001
0100
0001
1000
0001
0000
,
0100
0000
0010
1000
0010
0000
1000
0000
,
0100
0000
0010
0001
0010
0100
1000
0000
,
1001
0220
0000
0330
,
0100
0001
0010
0100
1000
0001
1000
0010
,
1000
0000
0001
0100
0001
0000
1000
0010
,
1010
0000
0101
0000
0010
0010
0110
0000
,
1020
0001
0100
0001
,
0130
0000
0010
1000
0100
0100
0100
0000
,
1200
0001
1000
0001
,
1300
0000
0010
0100
0001
0001
0001
0000
,
1000
0001
2000
0000
0010
0010
0010
0000
,
0100
0100
0100
0000
0001
0001
3001
0000
,
0001
1000
0002
0000
1000
1000
1000
0000
,
0010
0010
0010
0000
0100
0100
0103
0000
,
0001
0010
0100
1000
,
0001
0000
1000
0100
0010
0001
0100
0010
,
1000
0001
0100
0010
,
1000
0001
0010
0100
1000
0001
0100
0010
,
0100
0001
1000
0010
,
0100
0000
0001
0010
0001
1000
0010
1000
,
0100
0010
0001
1000
,
0001
0010
0100
1000
0001
0100
0010
0000
,
1001
1001
2002
0000
0000
0000
3003
0000
;

//---------------dance-single - ----------------
#NOTEDATA:;
#CHARTNAME:EXPERT;
#CHARTHASH:4065152850;
#STEPSTYPE:dance-single;
#BANNER:;
#DESCRIPTION:;
#CHARTSTYLE:;
#DIFFICULTY:Hard;
#METER:10;
#METERF:10.000000;
#LASTSECONDHINT:103.425423;
#RADARVALUES:0.640848,0.627600,0.623047,0.258804,0.000000,468.000000,403.000000,65.000000,27.000000,0.000000,0.000000,0.000000,0.000000,0.000000,0.640848,0.627600,0.623047,0.258804,0.000000,468.000000,403.000000,65.000000,27.000000,0.000000,0.000000,0.000000,0.000000,0.000000;
#CREDIT:YonabearCWY;
#DISPLAYBPM:168.000000;
#NOTES:
0000
0000
0000
0000
,
0000
0000
0000
0000
,
0000
0000
0000
0000
,
0000
0000
0000
0000
,
1010
0000
0100
0001
0010
0100
1000
0010
,
0101
0000
1000
0010
0100
0001
0010
0100
,
0011
0000
0001
0100
0001
1000
0010
0100
,
1010
0000
0100
0010
0001
1000
0010
0100
,
1002
0100
0010
0103
,
0001
0010
0010
0100
0010
0100
0100
1000
,
2001
0100
0010
3100
,
0010
0010
0001
1000
0001
1000
1000
0000
,
0201
0000
1000
0000
0010
0010
0310
0000
,
0100
0001
1000
0010
0001
1000
0100
0001
,
1020
0000
0001
0000
0100
0100
0130
0000
,
0010
1000
0100
0001
1000
0010
0001
1000
,
0001
0100
0001
0000
1000
0010
1000
0010
,
0000
0100
0001
0100
0010
0010
0010
0010
,
1000
0100
1000
0000
0100
0010
0100
0010
,
0000
0001
1000
0010
0100
0100
0100
0100
,
0001
0100
0010
0000
1000
0010
0001
0010
,
0000
0100
0010
0100
1000
1000
1000
1000
,
0100
0010
1000
0000
0100
0010
0001
0010
,
0000
0100
1000
0100
0001
0001
0001
0001
,
0101
1100
1010
0011
,
0110
0000
0001
0100
0110
0000
1000
0001
,
0011
1010
1100
0101
,
0001
0010
0100
1000
0010
0100
0001
1000
,
1100
0011
1010
0101
,
0001
0010
0100
1000
0101
0000
1000
0001
,
0110
0011
1001
1100
,
1010
0000
0100
0001
0010
1000
0010
0001
,
1000
0200
0001
0000
0301
0100
1000
0000
,
0110
0000
0001
1000
0100
0010
0001
1000
,
0010
0001
0010
0000
0100
1000
0100
0000
,
0101
0000
0011
0000
0001
1000
0100
0010
,
0001
0020
1000
0000
1030
0010
0001
0000
,
0110
0000
0001
0010
0100
1000
0010
0001
,
0010
0100
0010
0000
0100
0001
0100
0000
,
0010
1000
0100
0010
1001
1001
1001
0000
,
0120
0200
0000
0300
,
1030
0010
0100
0002
0000
0000
0000
1003
,
2001
0002
0000
0003
,
3001
0010
0100
1000
0100
0000
0010
0000
,
0201
0020
0000
0300
,
1030
0010
0001
0010
0100
1000
0100
0001
,
0120
2000
0000
0030
,
3100
0001
0100
0010
0100
0010
0001
0010
,
1100
0000
1001
0000
0010
0001
0100
0000
,
0010
0000
1000
0010
0000
0010
0100
0000
,
0101
0000
0011
0000
0001
1000
0100
0000
,
0010
0001
0100
0000
0010
1000
0100
0001
,
1100
2002
0000
3000
,
0013
0100
1000
0001
0010
0100
0010
0000
,
0001
0100
1000
0000
1000
0100
0001
0000
,
0110
0000
1001
0000
0110
0110
0110
0000
,
2001
0000
0100
0000
0010
0000
0100
3100
,
0000
1000
0001
0000
0110
0110
0110
0000
,
1002
0000
0010
0000
0100
0000
0010
0013
,
0000
0001
1000
0000
1001
1001
1001
0000
,
0100
0010
0200
0000
0001
0001
0001
0000
,
1000
1000
1000
0000
0001
0001
0301
0000
,
0010
0100
0020
0000
1000
1000
1000
0000
,
0001
0001
0001
0000
1000
1000
1030
0000
,
1002
0000
0100
0100
0100
0000
0010
0013
,
0000
0001
0010
0100
1000
0010
0010
0010
,
2001
0000
0100
0100
0100
0000
0010
3010
,
0000
1000
0010
0100
0001
0010
0010
0010
,
0201
0000
1000
1000
1000
0000
0010
0310
,
0000
1000
0001
0100
1000
0001
0010
1000
,
0021
0000
1000
1000
1000
0000
0001
0031
,
0000
1000
0010
0001
1000
0100
0001
0000
,
1001
1001
2002
0000
0000
0000
3003
0000
;

//---------------dance-single - ----------------
#NOTEDATA:;
#CHARTNAME:CHALLENGE;
#CHARTHASH:3080972232;
#STEPSTYPE:dance-single;
#BANNER:;
#DESCRIPTION:;
#CHARTSTYLE:;
#DIFFICULTY:Challenge;
#METER:13;
#METERF:13.000000;
#LASTSECONDHINT:103.425423;
#RADARVALUES:0.794214,0.767067,0.431340,0.325902,0.531986,580.000000,535.000000,45.000000,34.000000,0.000000,0.000000,0.000000,0.000000,0.000000,0.794214,0.767067,0.431340,0.325902,0.531986,580.000000,535.000000,45.000000,34.000000,0.000000,0.000000,0.000000,0.000000,0.000000;
#CREDIT:YonabearCWY;
#DISPLAYBPM:168.000000;
#NOTES:
0000
0000
0000
0000
,
0000
0000
0000
0000
,
0000
0000
0000
0000
,
0000
0000
0000
0000
,
2010
0000
0001
3001
1000
0010
0100
0001
,
0002
1000
1000
1003
0001
0010
0100
1000
,
0120
0000
1000
1030
0100
0010
0001
1000
,
0200
0010
0010
0310
0001
1000
1000
0001
,
1000
0010
0000
0000
1000
0010
0000
0000
0100
0001
0000
0000
0100
0001
0000
0000
,
0010
0000
0001
1000
0001
0000
0100
0000
0020
0000
1000
0000
1000
0000
1030
0000
,
0001
0010
0000
0000
0010
0100
0000
0000
0100
1000
0000
1000
0002
0000
0000
0000
,
0103
0010
0100
0010
0100
0000
0001
0000
0020
0000
0100
0000
0130
0000
1000
0000
,
0001
0010
0000
0000
0001
0010
0000
0000
0100
1000
0000
0000
0100
1000
0000
0000
,
0001
0000
1000
0010
1000
0000
0010
0000
0200
0000
0001
0000
0001
0000
0301
0000
,
0010
0001
0000
0000
0001
1000
0000
0000
1000
0010
0000
0010
0200
0000
0000
0000
,
0301
1000
0001
1000
0001
0000
1000
0000
0020
0000
0100
0000
0130
0000
0001
0000
,
2001
0000
3100
0010
0001
1000
0010
0001
,
1000
0100
0001
1000
0010
0010
0010
0010
,
1002
0000
0013
0100
1000
0001
0100
1000
,
0001
0010
1000
0001
0100
0100
0100
0100
,
1002
0000
1003
1000
0100
0001
1000
1000
,
0010
0001
1000
1000
0110
0110
0110
0110
,
2001
0000
3001
0001
0010
1000
0001
0001
,
0100
1000
0001
0001
0110
0110
0110
0110
,
0100
0001
0000
0000
0001
1000
0000
0000
1000
0010
0000
0000
0010
1000
0000
0000
,
1000
0100
0000
0000
0100
0010
0000
0000
0010
0001
0010
0001
0010
0000
0001
0000
,
1000
0010
0000
0000
0010
0001
0000
0000
0001
0010
0000
0000
0010
1000
0000
0000
,
1000
0100
0000
0000
0100
0010
0000
0000
0010
0100
0010
0100
0010
0000
0100
0000
,
1000
0001
0000
0000
0001
1000
0000
0000
1000
0010
0000
0000
0010
0100
0000
0000
,
0100
0010
0000
0000
0010
0001
0000
0000
0001
0010
0000
0010
0100
0000
0010
0000
,
0100
0001
0000
0000
0001
1000
0000
0000
1000
0100
0000
0000
0100
0010
0000
0000
,
0010
0001
0000
0001
1000
0000
0010
0000
1001
0000
1001
0000
1001
0000
1001
0000
,
1000
0100
0000
0000
0100
0001
0000
0000
0001
0100
0000
0000
0100
1000
0000
0000
,
1000
0001
0000
0000
0001
0010
0000
0000
0010
0100
0010
0100
0010
0000
0100
0000
,
0001
0100
0000
0000
0100
1000
0000
0000
1000
0010
0000
0000
0010
0001
0000
0000
,
0010
1000
0010
1000
0010
0000
0100
0000
0001
0000
0010
0000
0100
0000
1000
0000
,
0001
0010
0000
0000
0010
0100
0000
0000
0100
1000
0000
0000
1000
0001
0000
0000
,
0001
1000
0000
1000
0010
0000
0100
0000
0001
0010
0001
0010
0001
0000
1000
0000
,
0010
0100
0000
0000
0100
0001
0000
0000
0001
1000
0000
0000
1000
0100
0000
0000
,
0100
0010
0000
0010
0001
0000
1000
0000
1001
0000
1001
0000
1001
0000
0000
0000
,
0110
0000
0220
0000
0000
0000
0000
0300
,
1030
0100
0020
0002
0000
0000
0030
1003
,
1010
0000
2020
0000
0000
0000
0000
0030
,
3001
0100
0020
0000
1030
0100
0010
0001
,
1001
0000
2002
0000
0000
0000
0000
3000
,
1003
0001
0010
0100
1000
0010
0100
0001
,
0011
0000
0022
0000
0000
0000
0000
0030
,
1003
0000
0010
1000
0010
0000
0100
0000
0001
0000
1000
0000
0010
0000
0100
0000
,
0101
0000
0000
0000
1200
0000
0000
0000
0001
0000
0000
0302
0000
0000
1003
0000
,
0020
0000
0130
0010
0100
0001
1000
0100
,
0011
0000
0000
0000
0000
0000
0000
0000
0000
0000
0000
0000
0000
0000
0000
0000
0000
0000
0001
0000
0000
0000
0000
0000
0000
0000
0000
0000
0000
0000
0000
0000
0000
0000
0000
0000
1000
0000
0000
0000
0000
0000
0000
0000
0000
0000
0000
0000
0000
0000
0000
0000
0000
0000
0000
0000
0000
0000
0000
0000
0000
0000
0000
0000
0000
0000
0000
0000
0010
0000
0000
0000
0000
0000
0000
0000
0000
0000
0000
0000
0000
0000
0000
0000
0000
0000
0000
0000
0000
0000
0000
0000
0000
0000
0000
0000
0100
0000
0000
0000
0000
0000
0000
0000
0000
0000
0000
0000
0010
0000
0000
0000
0000
0000
0000
0000
0000
0000
0000
0000
0000
0000
0000
0000
0000
0000
0000
0000
0000
0000
0000
0000
0000
0000
0000
0000
0000
0000
0000
0000
0000
0000
0000
0000
0010
0000
0000
0000
0000
0000
0000
0000
0000
0000
0000
0000
1000
0000
0000
0000
0000
0000
0000
0000
0000
0000
0000
0000
0000
0000
0000
0000
0000
0000
0000
0000
0000
0000
0000
0000
0000
0000
0000
0000
0000
0000
0000
0000
0000
0000
0000
0000
,
1000
0001
1000
0001
0010
0000
0100
0000
0010
0000
0100
0000
1000
0000
0001
0000
,
0011
0000
2002
0000
0000
0000
0000
0003
,
3100
1000
0001
0010
1000
0010
0001
1000
,
0010
0001
1010
0000
1000
0100
0011
0000
,
0001
1000
0000
0000
0100
0010
0000
0000
0001
1000
0001
1000
0001
0000
0100
0000
,
0001
0100
0000
0100
0010
0000
1000
0000
0010
0000
0010
0000
0010
0000
0010
0000
,
0100
0001
1000
0100
0010
0010
0010
0010
,
0001
1000
0000
1000
0100
0000
0010
0000
0100
0000
0100
0000
0100
0000
0100
0000
,
1000
0001
0100
0010
0100
0100
0100
0100
,
1001
1001
1002
0000
0010
0010
0010
0000
,
0100
0100
0100
0000
1000
1000
1000
1003
,
1001
1001
2001
0000
0010
0010
0010
0000
,
0100
0100
0100
0000
0001
0001
0001
3001
,
0001
0100
0001
0100
0010
0000
1000
0000
0100
0000
0100
0000
0100
0000
0100
0000
,
1000
0010
1000
0010
0100
0000
0001
0000
0010
0000
0010
0000
0010
0000
0010
0000
,
0100
0010
0100
0010
0001
0000
0010
0000
0100
0000
0100
0000
0100
0000
0100
0000
,
1000
0001
1000
0001
0100
0000
0001
0000
0010
0000
0010
0000
0010
0000
0010
0000
,
0001
1000
0001
1000
0100
0000
0001
0000
1000
0000
0010
0000
0001
0000
1000
0000
,
0100
1000
0100
1000
0001
0000
0010
0000
1000
0000
0001
0000
0100
0000
1000
0000
,
0001
0010
0001
0010
0100
0000
0010
0000
0001
0000
1000
0000
0010
0000
0001
0000
,
0010
1000
0001
0100
1000
0100
0001
1000
,
1001
1001
2002
0000
0000
0000
3003
0000
;

//---------------dance-single - ----------------
#NOTEDATA:;
#CHARTNAME:BEGINNER;
#CHARTHASH:1589265642;
#STEPSTYPE:dance-single;
#BANNER:;
#DESCRIPTION:;
#CHARTSTYLE:;
#DIFFICULTY:Beginner;
#METER:4;
#METERF:4.000000;
#LASTSECONDHINT:0.360000;
#RADARVALUES:0.183491,0.313800,0.105439,0.124609,0.000000,134.000000,123.000000,11.000000,13.000000,0.000000,0.000000,0.000000,0.000000,0.000000,0.183491,0.313800,0.105439,0.124609,0.000000,134.000000,123.000000,11.000000,13.000000,0.000000,0.000000,0.000000,0.000000,0.000000;
#CREDIT:YonabearCWY;
#DISPLAYBPM:168.000000;
#NOTES:
// measure 0
0000
0000
0000
0000
,  // measure 1
0000
0000
0000
0000
,  // measure 2
0000
0000
0000
0000
,  // measure 3
0000
0000
0000
0000
,  // measure 4
1000
0000
1000
0000
,  // measure 5
1000
0000
0000
0000
,  // measure 6
0001
0000
0001
0000
,  // measure 7
0001
0000
0000
0000
,  // measure 8
1000
1000
1000
0000
,  // measure 9
0001
0000
0000
0000
,  // measure 10
0001
0001
0001
0000
,  // measure 11
1000
0000
0000
0000
,  // measure 12
0100
0100
0100
0000
,  // measure 13
0010
0000
0000
0000
,  // measure 14
0010
0010
0010
0000
,  // measure 15
0100
0000
0000
0000
,  // measure 16
0000
1000
0000
1000
,  // measure 17
0000
0000
0000
0000
,  // measure 18
0000
0001
0000
0001
,  // measure 19
0000
0000
0000
0000
,  // measure 20
0000
0100
0000
0100
,  // measure 21
0000
0000
0000
0000
,  // measure 22
0000
0010
0000
0010
,  // measure 23
0000
0000
0000
0000
,  // measure 24
1000
1000
1000
1000
,  // measure 25
1000
0000
1000
0000
,  // measure 26
0001
0001
0001
0001
,  // measure 27
0001
0000
0001
0000
,  // measure 28
0100
0100
0100
0100
,  // measure 29
0100
0000
0100
0000
,  // measure 30
0010
0010
0010
0010
,  // measure 31
0010
0000
0010
0000
,  // measure 32
0100
0100
0100
0100
,  // measure 33
0010
0010
0010
0010
,  // measure 34
1000
1000
1000
1000
,  // measure 35
0001
0001
0001
0001
,  // measure 36
1000
0000
1000
0000
,  // measure 37
0001
0000
0001
0000
,  // measure 38
0100
0000
0100
0000
,  // measure 39
0010
0000
0010
0000
,  // measure 40
2002
0000
0000
0000
,  // measure 41
3003
0000
0000
0000
,  // measure 42
0220
0000
0000
0000
,  // measure 43
0330
0000
0000
0000
,  // measure 44
2002
0000
0000
0000
,  // measure 45
3003
0000
0000
0000
,  // measure 46
0220
0000
0000
0000
,  // measure 47
0330
0000
0000
0000
,  // measure 48
1000
0000
1000
0000
,  // measure 49
2000
0000
3000
0000
,  // measure 50
0001
0000
0001
0000
,  // measure 51
0002
0000
0003
0000
,  // measure 52
0100
0000
0100
0000
,  // measure 53
0200
0000
0300
0000
,  // measure 54
0010
0000
0010
0000
,  // measure 55
0010
0010
0010
0000
,  // measure 56
0000
1000
0000
1000
,  // measure 57
0000
1001
0000
0000
,  // measure 58
0000
0001
0000
0001
,  // measure 59
0000
1001
0000
0000
,  // measure 60
0100
0100
0100
0000
,  // measure 61
0100
0000
0000
0000
,  // measure 62
0010
0010
0010
0000
,  // measure 63
0010
0000
0000
0000
,  // measure 64
0000
0100
0000
0100
,  // measure 65
0000
0110
0000
0000
,  // measure 66
0000
0010
0000
0010
,  // measure 67
0000
0110
0000
0000
,  // measure 68
0000
1000
0000
1000
,  // measure 69
0000
1001
0000
0000
,  // measure 70
0000
0001
0000
0001
,  // measure 71
0000
1001
0000
0000
,  // measure 72
2002
0000
0000
3003
;
