#VERSION:0.83;
#TITLE:PSYCHO;
#SUBTITLE:;
#ARTIST:Hakos Baelz;
#TITLETRANSLIT:;
#SUBTITLETRANSLIT:;
#ARTISTTRANSLIT:;
#GENRE:;
#CREDIT:K.S. V.S. K.S.;
#MUSIC:PSYCHO.ogg;
#BANNER:PSYCHO.png;
#BACKGROUND:PSYCHO-bg.png;
#CDTITLE:;
#SAMPLESTART:47.523;
#SAMPLELENGTH:12.000;
#SELECTABLE:YES;
#OFFSET:0.102;
#BPMS:0.000=160.000
,161.000=320.000
,162.000=160.000
,341.000=320.000
,342.000=160.000
;
#STOPS:161.000=0.094
,161.500=0.094
,341.000=0.094
,341.500=0.094
;
#DISPLAYBPM:160.000;
#BGCHANGES:0.102=PSYCHO.avi=1.000=1=0=1===CrossFade==,
99999.000=-nosongbg-=1.000=0=0=0=StretchNoLoop====
;
#FGCHANGES:1.000=lua=1.000=0=0=1;

//--------------- dance-single - ----------------
#NOTEDATA:;
#STEPSTYPE:dance-single;
#DESCRIPTION:;
#DIFFICULTY:Beginner;
#METER:3;
#RADARVALUES:0.165477,0.225877,0.013238,0.21843,0,175,173,2,33,0,0,0.165477,0.225877,0.013238,0.21843,0,175,173,2,33,0,0;
#CREDIT:K.S. & K.S.;
#NOTES:
0000
0000
0000
0000
,
0000
0000
0000
0000
,
0000
0000
0000
0000
,
0000
0000
0000
0000
,
0000
0000
0000
0000
,
0001
0000
0001
0000
,
0100
0000
0001
0000
,
1000
0000
1000
0000
,
0100
0000
2000
0000
,
3000
0001
0000
0100
,
0000
0010
0000
1000
,
0000
1000
0000
0002
,
0000
0003
0000
1000
,
0000
0000
0000
0001
,
0000
0010
0000
0001
,
0000
0000
0000
1000
,
0000
0010
0000
0000
,
0000
1000
0000
0100
,
0000
0010
0000
0002
,
0000
0003
0000
2000
,
0000
3000
0000
0020
,
0000
0000
0000
0030
,
0000
0000
0000
0200
,
0000
0000
0000
0300
,
0000
0000
0000
0001
,
0000
0001
0000
0001
,
0000
0000
0000
1000
,
0000
1000
0000
1000
,
0000
0000
0000
0200
,
0000
0000
0000
0300
,
0000
0000
0000
0020
,
0000
0000
0000
0030
,
0000
0000
0000
0001
,
0000
1000
0000
0010
,
0000
0010
0000
1000
,
0000
0001
0000
0010
,
0000
0010
0000
0002
,
0000
0003
0000
0100
,
0000
0100
0000
0010
,
0000
1000
0000
0200
,
0000
0300
0000
1000
,
0000
0001
0000
0010
,
0000
0010
0000
0001
,
0000
1000
0000
0010
,
0000
0010
0000
2000
,
0000
3000
0000
0100
,
0000
0100
0000
0010
,
0000
0001
0000
1000
,
0000
0000
0000
0010
,
0010
0010
0000
2000
,
0000
3000
0000
0200
,
0000
0300
0000
0020
,
0000
0030
0000
0002
,
0000
0003
0000
1000
,
0000
1000
0000
1000
,
0000
0000
0000
0001
,
0000
0001
0000
0001
,
0000
0000
0000
0200
,
0000
0000
0000
0000
,
0000
0300
0000
0020
,
0000
0000
0000
0000
,
0000
0000
0030
0000
,
0000
1001
2002
0000
,
0000
3003
0000
0000
,
0000
0110
0220
0000
,
0000
0330
0000
0000
,
0000
1000
2000
3000
,
0001
0002
0003
1000
,
0000
0100
0000
0010
,
0010
0010
0000
0000
,
0001
0000
0001
0000
,
0100
0000
0001
0000
,
1000
0000
1000
0000
,
0100
0000
2000
0000
,
3000
0001
0000
0100
,
0000
0010
0000
1000
,
0000
1000
0000
0002
,
0000
0003
0000
1000
,
0000
0001
0000
0010
,
0000
0010
0000
0001
,
0000
1000
0000
0010
,
0000
0010
0000
2000
,
0000
3000
0000
0100
,
0000
0100
0000
0010
,
0000
0001
0000
0200
,
0000
0300
0000
0001
,
0000
1000
0000
0010
,
0000
0010
0000
1000
,
0000
0001
0000
0010
,
0000
0010
0000
0002
,
0000
0003
0000
0100
,
0000
0100
0000
0010
,
0000
1000
0000
0001
,
0000
0000
0000
0010
,
0020
0030
0000
0100
,
0200
0300
0000
1000
,
2000
3000
0000
2002
,
0000
0000
0000
3003
;

//--------------- dance-single - ----------------
#NOTEDATA:;
#STEPSTYPE:dance-single;
#DESCRIPTION:;
#DIFFICULTY:Easy;
#METER:6;
#RADARVALUES:0.297859,0.387714,0.066191,0.158858,0,315,305,10,24,0,0,0.297859,0.387714,0.066191,0.158858,0,315,305,10,24,0,0;
#CREDIT:K.S. & K.S.;
#NOTES:
0000
0000
0000
0000
,
0000
0000
0000
0000
,
0000
0000
0000
0000
,
0000
0000
0000
0000
,
0000
0000
0000
0000
,
1000
0100
0000
0010
,
0001
1000
1000
0000
,
0001
0100
0000
0010
,
1000
0001
0002
0003
,
1000
0100
1000
0001
,
0100
0001
0000
0010
,
0000
0100
0000
2000
,
0000
0000
0000
3001
,
0000
0100
0000
1000
,
0000
0100
0000
0001
,
0000
0100
0000
1000
,
0000
0100
0000
0000
,
0001
0010
0001
1000
,
0010
1000
0000
0100
,
0000
0010
0000
0002
,
0000
0000
0000
2003
,
3000
0010
1000
0002
,
0003
0010
0001
2000
,
3000
0010
1000
0001
,
0010
0100
1000
0020
,
0030
1000
0100
0020
,
0030
0001
0100
0020
,
0030
1000
0100
0010
,
0001
0100
0010
2000
,
0000
0000
0000
3002
,
0000
0000
0000
0023
,
0000
0000
0000
0030
,
0000
0000
1001
0001
,
1000
0010
0100
0001
,
0000
0010
0000
0010
0000
0000
0001
0000
,
0100
0010
1000
0100
,
0001
0100
1000
0000
,
0020
0000
0230
0000
,
0301
1000
0100
0010
,
0001
0000
1000
0000
0001
1000
0001
0000
,
2002
0000
3003
1000
,
0001
0010
0100
1000
,
0000
0010
0000
0010
0000
0000
1000
0000
,
0100
0010
0001
0100
,
1000
0100
0001
0000
,
0020
0000
0230
0000
,
1300
0010
0100
0001
,
0001
1000
1000
2002
,
0000
0000
3003
0001
,
1000
0002
0000
2003
,
3000
0100
1000
0002
,
0003
0100
0001
2000
,
3000
0100
1000
0001
,
0100
0010
1000
0200
,
0300
1000
0010
0200
,
0300
0001
0010
0200
,
0300
1000
0010
0100
,
0001
0010
0100
2000
,
0000
0000
0000
3002
,
0000
0000
0000
0203
,
0000
0000
0000
0000
,
0000
0300
0000
2002
,
0000
3003
0000
0000
1000
0000
0010
1000
,
0000
0010
1000
0000
0001
0000
2002
0000
,
0000
3003
0000
0000
0001
0000
0010
0001
,
0000
0010
0001
0000
1000
0000
2002
0000
,
0000
3003
0000
0000
1000
0000
0010
0000
,
0100
0001
0010
0220
,
0330
1000
1000
0001
,
0001
0100
0000
0000
,
0010
1000
0100
0000
,
0010
0001
0100
0000
,
0010
0010
0010
0000
,
1000
0001
1000
0000
,
0100
1000
0010
0100
,
0001
0010
0010
0000
,
0001
0100
0010
1000
,
0000
0000
1001
0001
,
1000
0100
0010
0001
,
0000
0100
0000
0100
0000
0000
0001
0000
,
0010
0100
1000
0010
,
0001
0010
1000
0000
,
0200
0000
0320
0000
,
0031
1000
0010
0100
,
0001
0000
1000
0000
0001
1000
0001
0000
,
2002
0000
3003
1000
,
0001
0100
0010
1000
,
0000
0100
0000
0100
0000
0000
1000
0000
,
0010
0100
0001
0010
,
1000
0010
0001
0000
,
0200
0000
0320
0000
,
1030
0100
0010
0001
,
0001
1000
1000
2002
,
3003
0000
0000
0001
,
0001
0110
0000
1000
,
1000
0110
0000
0001
,
0001
0110
0000
2002
,
0000
0000
0000
3003
;

//--------------- dance-single - ----------------
#NOTEDATA:;
#STEPSTYPE:dance-single;
#DESCRIPTION:;
#DIFFICULTY:Medium;
#METER:10;
#RADARVALUES:0.377289,0.420023,0.059572,0.258145,0.006619,399,390,9,39,0,0,0.377289,0.420023,0.059572,0.258145,0.006619,399,390,9,39,0,0;
#CREDIT:K.S. & K.S.;
#NOTES:
0000
0000
0000
0000
,
0000
0000
0000
0000
,
0000
0000
0000
0000
,
0000
0000
0000
0000
,
0000
0000
0000
0000
,
0001
0000
0100
0001
0100
0000
0010
0000
,
1000
0001
0002
0003
,
1000
0000
0100
1000
0100
0000
0010
0000
,
0001
0000
0000
0000
1000
0000
0000
0000
2000
0000
0000
3000
0000
0000
0000
0000
,
0001
0000
1000
0001
0100
0000
0010
0000
,
1000
0000
0001
1000
0100
0000
0020
0000
,
0031
2000
3010
2002
,
0000
0000
3003
0001
,
0010
0100
1000
0001
,
0100
0001
0000
0000
1000
0100
0000
1000
,
0100
0010
0001
0100
,
0100
0010
0020
0030
,
1000
0000
0001
1000
0100
0000
0010
0000
,
0001
0000
1000
0001
0100
0000
0001
0000
,
0001
0000
0001
0100
0001
0000
1000
0000
,
1000
0000
1000
0100
1000
0000
0020
0000
,
0000
1030
0100
0020
,
0000
0031
0100
0020
,
0000
1030
0100
0010
,
0010
0001
0001
2000
,
0000
3010
0100
2000
,
0000
3100
0010
2000
,
0000
3100
0010
1000
,
0010
0100
0010
0001
,
0001
1000
1000
0001
,
0001
0000
1000
0000
1000
0000
0010
1000
,
0010
0000
0100
0001
0100
0000
0002
0000
,
0000
0000
1003
0100
0010
0000
0001
1000
,
0010
0000
0100
0000
0100
0000
0001
1000
,
0100
0000
0010
0000
0010
0000
0001
1000
,
0010
0000
0100
0001
1000
0000
0100
1000
,
0100
0010
0010
0002
,
0103
0000
2000
0000
3100
0000
0001
0100
,
0010
0000
1000
0001
1000
0000
0001
0000
,
0010
2000
0000
3010
0100
2000
0000
0001
,
0002
0000
0000
0000
3003
0000
1000
0001
,
0010
0000
0100
0000
0100
0000
1000
0001
,
0100
0000
0010
0000
0010
0000
1000
0001
,
0010
0000
0100
1000
0001
0000
0100
0001
,
0100
0010
0010
2000
,
3100
0000
0002
0000
0103
0000
1000
0100
,
0010
0000
0001
1000
0001
0000
0100
0000
,
0100
0000
0010
1000
0100
0000
0020
0000
,
0030
0000
0000
0001
,
1000
1002
0003
0020
,
0000
0031
0100
0020
,
0000
1030
0100
0020
,
0000
0031
0100
0010
,
0010
1000
1000
0002
,
0000
0013
0100
0002
,
0000
0103
0010
0002
,
0000
0103
0010
0001
,
0010
0100
0010
1000
,
1000
0001
0001
1000
,
1000
0001
0001
0020
,
0000
0000
0000
0000
,
0000
0030
0000
1001
,
1000
0010
1000
0010
1000
0000
0001
0100
,
0000
0100
0001
0000
1000
0000
1000
0000
,
0001
0010
0001
0010
0001
0000
1000
0100
,
0000
0100
1000
0000
0001
0000
0001
0000
,
0100
0010
0100
0010
1000
0000
1000
0000
,
0100
0100
0010
0010
,
0001
1000
0001
1000
0010
0000
0100
0000
,
0001
1001
0000
0000
,
1000
1000
0100
1000
,
0001
0100
0001
0000
0001
0000
0000
0000
,
1000
0100
0010
0000
0100
0010
0001
0000
,
1000
0001
1000
0000
1001
0000
0000
0000
,
0001
0001
0100
0001
,
1000
0100
1000
0000
1000
0000
0010
0100
,
0000
0001
0010
0000
0100
0000
2000
0000
,
0000
0000
3001
0100
0010
0000
1000
0100
,
0001
0000
0100
0000
0100
0000
0001
0100
,
1000
0000
0001
0000
0001
0000
1000
0010
,
0100
0000
0001
0010
0100
0000
1000
0001
,
0100
0010
0010
2000
,
3100
0000
0002
0000
0103
0000
1000
0100
,
0010
0000
0001
0010
0100
0000
1000
0000
,
0010
0002
0000
0013
0100
0002
0000
1000
,
2000
0000
0000
0000
3003
0000
0001
0100
,
1000
0000
0100
0000
0100
0000
1000
0100
,
0001
0000
1000
0000
1000
0000
0001
0010
,
0100
0000
1000
0010
0100
0000
0001
1000
,
0100
0010
0010
0002
,
0103
0000
2000
0000
3100
0000
0001
0100
,
0010
0000
1000
0001
0010
0000
0100
0000
,
0100
0000
0010
0001
0100
0000
0220
0000
,
0330
0000
0000
1000
,
1000
0000
1001
0000
0000
0000
0001
1000
,
0001
0000
1001
0000
0000
0000
0010
0100
,
0010
0100
0110
0000
0000
0000
2002
0000
,
0000
0000
0000
3003
;

//--------------- dance-single - ----------------
#NOTEDATA:;
#STEPSTYPE:dance-single;
#DESCRIPTION:;
#DIFFICULTY:Hard;
#METER:13;
#RADARVALUES:0.534256,0.710808,0.132382,0.529528,0.109215,565,545,20,80,0,0,0.534256,0.710808,0.132382,0.529528,0.109215,565,545,20,80,0,0;
#CREDIT:K.S. & K.S.;
#NOTES:
0000
0000
0000
0000
,
0000
0000
0000
0000
,
0000
0000
0000
0000
,
0000
0000
0000
0000
,
0000
0000
0000
0000
0000
0000
0000
1000
,
0001
0010
0001
0100
0000
0010
1000
0100
,
0010
0100
1000
0000
1001
0000
0000
0001
,
1000
0010
1000
0100
0000
0010
0001
0100
,
0010
0000
1000
0000
0100
0000
0000
0020
0000
0000
0000
0000
0030
0000
0001
0000
,
1000
0000
0001
0100
1000
0100
0001
0100
,
0010
0000
1000
0001
1000
0100
0002
0000
,
0103
0010
0002
0000
0103
0010
1000
0000
,
1000
0000
0000
0100
0010
0100
0010
0000
0000
0002
0000
0000
,
1000
0100
1003
0001
,
0010
1000
0000
0010
0001
0000
2000
0000
,
0001
0000
0000
0000
0100
0000
0000
0000
3001
0000
0000
0000
1000
0000
0000
0010
,
0000
0000
0001
0000
0010
0000
0000
2000
0000
0000
0000
0000
3000
0000
0001
0000
,
1000
0000
0001
1000
0100
0001
0100
1000
,
0100
0010
0001
0100
0010
0000
1000
0000
,
1000
0000
0000
0100
0010
0100
0010
0000
0000
0001
0000
0000
,
0001
0000
0000
0100
0010
0100
0010
0000
0000
0210
0000
0000
,
0000
0302
0023
0230
,
0000
2300
3010
0210
,
0000
0302
0023
0230
,
0302
0203
2300
3001
,
0100
0000
0000
0110
0000
0000
1000
0000
0100
0010
0000
0000
,
0001
0000
0100
0010
0000
0000
1000
0000
0100
0010
0000
0000
,
0001
0100
0001
0100
0000
0000
0010
1000
0010
1000
0000
0000
,
1002
0023
0230
1300
,
1000
0001
0001
0100
,
0100
0000
0010
0000
0010
0000
1000
0100
,
1000
0100
0010
0001
0010
0001
0100
0000
,
0100
0000
0010
1000
0200
0000
1300
0001
,
1000
0010
0100
0001
0010
0001
0100
0010
,
1000
0100
0001
0100
1000
0001
0010
0001
,
0100
0010
0100
0001
0010
0100
1000
0001
,
0100
0020
0000
0001
0000
1030
0001
0000
,
0012
0000
1003
0000
2100
0000
3001
0100
,
0001
0010
0100
1000
0010
1000
0001
0010
,
0100
0002
0000
1003
0010
0002
0000
1003
,
0020
0000
0100
0100
0130
0000
0001
1000
,
0001
0010
0100
1000
0010
1000
0100
0010
,
0001
0100
1000
0100
0001
1000
0010
1000
,
0100
0010
0100
1000
0010
0100
0001
1000
,
0100
0020
0000
1000
0000
0031
1000
0000
,
2010
0000
3001
0000
0102
0000
1003
0100
,
1000
0000
0000
0010
0000
0000
0100
0000
0000
0001
0000
0000
0010
0000
0000
0001
0000
0000
1000
0000
0000
0000
0010
0000
,
0100
0000
0001
1000
0001
1000
0100
0000
0000
0020
0000
0000
,
0030
0000
0000
0011
,
0110
2200
3300
0210
,
0000
2300
3020
0230
,
0000
0302
0013
0210
,
0000
2300
3020
0230
,
2300
3200
0301
1001
,
1000
0000
1000
0100
0000
0100
0010
0000
0010
0001
0000
0000
,
1000
0000
0010
0100
0000
0000
0001
0000
0010
0100
0000
0000
,
1000
0010
1000
0010
0000
0100
0001
0100
0001
2000
0000
0000
,
3200
0320
0031
1002
,
0100
0100
0100
2003
,
0100
0000
0100
0000
0100
0000
3001
0100
,
0010
1000
0100
0010
0001
0100
0010
0000
,
0010
0000
0000
0000
1000
0001
1000
0000
2002
0000
0000
0000
3003
0000
0000
0000
,
0001
0010
0001
0010
0100
0000
1000
0000
1020
0000
0000
0000
0000
0000
0032
0000
,
0000
0000
1003
0100
0001
0010
0100
0000
,
1000
0010
1000
0010
0100
0000
0001
0000
0021
0000
0000
0000
0000
0000
2030
0000
,
0000
0000
3001
0100
1000
0010
0100
0000
,
0001
0000
0000
1000
0000
0000
0001
0000
0000
1000
0000
0000
0100
0000
0000
0000
0000
0000
0010
0000
0000
0000
0000
0000
0001
0000
0000
0000
0100
0000
0000
0000
0001
0000
0000
0000
0100
0000
0000
0000
0000
0000
0010
0000
0000
0000
0000
0000
,
1000
0000
0100
0000
1000
0000
0100
0000
0000
0010
0000
0000
0001
0000
0100
0000
0010
0000
1000
0000
0000
0000
0000
0000
,
0001
1000
0001
1000
0100
0000
0010
0000
0001
0000
0000
0000
0101
0000
0000
0000
,
0110
1010
0000
0000
,
0001
0010
0200
0000
0001
0000
1300
0000
,
0001
0100
0020
0000
0001
0000
1030
0000
,
0001
0010
0001
0000
1000
0100
1000
0002
,
0000
1000
1003
0000
2002
0000
3003
0000
,
1000
0010
0100
1000
0100
0010
1000
0001
,
1000
0100
0020
0000
1000
0000
0031
0000
,
1000
0010
0100
0001
0010
0000
0100
0000
,
0100
0000
0010
0001
0200
0000
0301
1000
,
0001
0100
0010
1000
0100
1000
0010
0100
,
0001
0010
1000
0010
0001
0100
0010
1000
,
0100
0001
0100
1000
0010
0100
0001
1000
,
0100
0020
0000
1000
0000
0031
1000
0000
,
2010
0000
3001
0000
0102
0000
1003
0100
,
1000
0010
0100
0001
0010
0001
1000
0010
,
0100
2000
0000
3001
0010
2000
0000
3001
,
0020
0000
0100
0100
0130
0000
1000
0001
,
1000
0100
0010
0001
0100
0001
0010
0100
,
1000
0010
0001
0010
1000
0100
0010
0001
,
0100
1000
0100
0001
0010
0100
1000
0001
,
0100
0020
0000
0001
0000
1030
0001
0000
,
0012
0000
1003
0000
2100
0000
3001
0100
,
0001
0000
0000
0010
0000
0000
0100
0000
0000
1000
0000
0000
0010
0000
0000
1000
0000
0000
0001
0000
0010
0000
0001
0000
,
0010
0000
0100
1000
0100
1000
0001
0000
0000
0200
0000
0000
,
0300
0000
0000
2001
,
3200
0000
0000
0000
0301
0000
0000
1000
0000
0000
0010
0000
0002
0000
0000
0000
,
0203
0000
0000
0000
1300
0000
0000
0001
0000
0000
0010
0000
1000
0000
0100
0000
,
0010
0000
0001
0000
0200
0000
0000
0010
0000
0000
0310
0000
2002
0000
0000
0000
,
0000
0000
0000
3003
;

//--------------- dance-single - ----------------
#NOTEDATA:;
#STEPSTYPE:dance-single;
#DESCRIPTION:;
#DIFFICULTY:Challenge;
#METER:16;
#RADARVALUES:0.716754,0.808771,0.317717,0.582481,0.688386,758,708,48,88,27,2,0.716754,0.808771,0.317717,0.582481,0.688386,758,708,48,88,27,2;
#CREDIT:K.S. V.S. K.S.;
#NOTES:
0000
0000
0000
0000
,
0000
0000
0000
0000
,
0000
0000
0000
0000
,
0000
0000
0000
0000
,
0000
0000
0000
0000
0000
0000
0000
0001
,
1000
0000
0010
0000
1000
0000
0100
0000
0010
0000
0001
1000
0001
0000
0100
0000
,
0010
1000
1100
0000
0101
0000
1001
1000
,
0001
0000
0010
0000
0001
0000
0100
0000
0010
0000
1000
0001
1000
0000
0100
0000
,
0001
0000
0100
0000
1000
0000
0000
2002
0000
0000
3003
0000
0000
0000
0001
0100
,
0010
1000
0002
0100
2003
0100
3001
0010
,
0100
1000
0001
0100
1000
0100
0102
0000
,
0013
0000
0000
0100
0000
0000
2100
0000
0000
0000
0000
0000
3010
0000
0000
0100
0000
0000
0001
0000
1000
0000
0000
0000
,
0001
1000
0000
0100
0010
0100
0010
0000
0000
1002
0000
0000
,
0103
0010
0001
0010
1000
0001
0010
0001
,
0100
0010
2000
0000
3100
0010
1000
0010
,
0001
0000
1000
0000
0010
0000
1000
0000
0100
0000
0010
0000
0002
0000
0000
0203
,
0000
0000
2300
0000
3002
0000
0000
0023
0000
0000
0030
0000
0000
0000
1000
0010
,
0100
0001
2000
0100
3002
0100
1003
0010
,
0100
0000
0000
0001
0000
0000
1000
0000
0000
1000
0000
0000
1001
0000
0000
0000
0000
0000
0001
0000
0010
0000
0000
0000
,
0100
0010
0000
0100
1000
0100
1000
0000
0000
0001
0100
0000
,
1000
0100
0000
0001
1000
0001
1000
0000
0000
1200
0000
0000
,
0310
0001
0010
0001
0000
1000
0100
00M0
0100
0001
0000
0000
,
0100
0001
0100
0001
0000
1000
0010
0M00
0010
0001
0000
0000
,
0010
0001
0010
0001
0000
1000
0100
00M0
0100
0001
0000
0000
,
0021
0230
2300
3001
,
1001
0000
0000
1000
0010
1000
0010
0100
0001
1000
0000
0001
,
0010
0001
0010
0100
0000
1000
0001
1000
0001
0100
0000
0010
,
1000
0010
1000
0100
0000
0010
0001
0010
0001
0200
0000
0000
,
2300
0000
3002
0000
0023
0000
1030
0001
,
0010
0001
1000
0010
0100
0001
1000
0100
,
1000
0000
0001
0000
0100
0000
0010
0000
2000
0000
0000
0000
3001
0010
0100
0000
,
0010
0100
1000
0000
0001
0100
0010
0000
1000
0001
1000
0001
0010
0000
0000
0000
,
1001
0000
0000
0000
0001
0100
0010
1000
0200
0000
0000
0000
0310
0000
0001
1000
,
0010
0000
1000
0001
0010
0000
1000
0010
0001
0000
2000
0000
0000
0000
3010
0100
,
0001
0000
1000
0100
0010
0000
0100
0010
0001
0000
0200
0000
0000
0000
0301
1000
,
0100
0000
1000
0001
0100
0000
0001
0010
0100
0000
2000
0000
0000
0000
3010
0000
,
1000
0000
0100
0010
0001
0000
1000
0010
0100
0000
0010
0100
0001
0000
1000
0000
,
1200
0000
0000
0000
0301
0000
1000
0000
1020
0000
0000
0000
0031
0000
1000
0010
,
1000
0000
0001
0000
1000
0000
0001
0010
0001
0000
1000
0000
0001
0000
1000
0010
,
0100
2000
0000
3100
0001
1002
0000
0013
,
0100
1000
0100
1000
0001
0000
0001
0000
2001
0000
0000
0000
3010
0000
1000
0001
,
0010
0000
0001
1000
0010
0000
0001
0010
1000
0000
0002
0000
0000
0000
0013
0100
,
1000
0000
0001
0100
0010
0000
0100
0010
1000
0000
0200
0000
0000
0000
1300
0001
,
0100
0000
0001
1000
0100
0000
1000
0010
0100
0000
0002
0000
0000
0000
0013
0000
,
0001
0000
0100
0010
1000
0000
0001
0010
0100
0000
0010
0100
1000
0000
0001
0000
,
0201
0000
0000
0000
1300
0000
0001
0000
0021
0000
0000
0000
1030
0000
0001
0010
,
0100
0000
0000
0000
0000
0000
0010
0000
0000
0100
0000
0000
1000
0000
0000
0000
0000
0000
0001
0000
0000
1000
0000
0000
0010
0000
0000
0000
0000
0000
0100
0000
0000
0000
0000
0000
0001
0000
0000
0000
0000
0000
0000
0000
0001
0000
0000
0000
,
1000
0000
1000
0100
0010
0100
0001
0000
0000
0220
0000
0000
,
0330
0000
0000
1001
,
1001
0000
0000
0220
0000
0000
0330
0000
0000
1001
0000
0001
,
1000
0010
1000
0010
0000
1000
0100
00M0
0100
0001
0000
0000
,
1000
0100
1000
0100
0000
1000
0010
0M00
0010
0001
0000
0000
,
1000
0010
1000
0010
0000
1000
0100
00M0
0100
0002
0000
0000
,
0023
0230
1300
1001
,
0001
0100
0001
1000
0010
1000
0001
0010
0100
1000
0000
0001
,
0100
0010
0100
1000
0000
1000
0100
0010
0100
0001
0000
1000
,
0100
0010
0001
0100
0000
0001
0100
0010
1000
0200
0000
0000
,
0302
2003
3020
0032
,
0010
1000
0010
2003
,
0010
0001
0010
3400
,
0000
0000
0000
0300
,
1100
0000
0000
0000
0001
0100
0010
0000
1010
0000
0000
0000
1000
0000
0000
0000
,
0001
0010
0001
0010
0100
1000
0001
0100
0020
0000
0000
0000
0000
0000
1101
0000
,
0000
0000
0000
0000
1030
0001
0010
0000
0100
0000
01M0
0000
0001
0000
0000
0000
,
1000
0010
1000
0010
0100
0001
1000
0100
0020
0000
0000
0000
0000
0000
1101
0000
,
0000
0000
0000
0000
0000
0000
0031
0000
0000
0100
0000
0000
010M
0000
1000
0000
0010
0000
0100
0000
0000
0000
0000
0000
,
0001
0000
0000
0100
0000
0000
0001
0000
0000
0100
0000
0000
0010
0000
0000
1000
0000
0000
0001
0000
0000
0010
0000
0000
0100
0000
0000
0000
1000
0000
0000
0000
0001
0000
0000
0000
0100
0000
0000
0000
0010
0000
0000
0000
0100
0000
0000
0000
,
1000
0001
0010
0100
0010
1000
0001
0010
0100
1000
0000
0000
,
0001
1000
0010
0100
0002
0000
0010
0000
1003
0000
0000
0000
1010
0000
0000
0000
,
0011
1001
0000
0000
,
1000
0001
1000
0100
0002
0000
0103
1000
,
0001
1000
0020
0000
0032
0000
0013
1000
,
0100
0010
0001
0100
2000
0000
3100
0001
,
0000
0010
2000
0000
3020
0000
0031
1000
,
0010
0100
0001
0010
1000
0001
0100
1000
,
0010
0001
2000
0000
3200
0000
0301
0010
,
0000
0100
1000
0010
0100
0001
2002
0000
,
3003
0000
0000
0000
1000
0100
0010
0001
0400
0000
0000
0000
0310
0000
1000
0001
,
0010
0000
0001
1000
0010
0000
0001
0010
0100
0000
2000
0000
0000
0000
3100
0010
,
1000
0000
0001
0010
0100
0000
0010
0100
1000
0000
0020
0000
0000
0000
1030
0001
,
0010
0000
0100
1000
0001
0000
0100
0010
1000
0000
0100
00M0
0100
0000
0001
0000
,
0010
0000
0100
1000
0001
0000
1000
0010
0100
0000
0010
0100
0001
0000
1000
0000
,
1200
0000
0000
0000
0301
0000
1000
0000
1020
0000
0000
0000
0031
0000
1000
0010
,
1000
0000
0001
0000
1000
0000
0001
0010
0001
0000
1000
0000
0001
0000
0100
0010
,
0001
2000
0000
3100
0010
2010
0000
0001
,
3001
0000
0000
0000
1000
0000
1000
0000
1002
0000
0000
0000
0013
0000
0001
1000
,
0010
0000
1000
0001
0010
0000
1000
0010
0100
0000
0002
0000
0000
0000
0103
0010
,
0001
0000
1000
0010
0100
0000
0010
0100
0001
0000
0020
0000
0000
0000
0031
1000
,
0010
0000
0100
0001
1000
0000
0100
0010
0001
0000
0100
00M0
0100
0000
1000
0000
,
0010
0000
0100
0001
1000
0000
0001
0010
0100
0000
0010
0100
1000
0000
0001
0000
,
0201
0000
0000
0000
1300
0000
0001
0000
0021
0000
0000
0000
1030
0000
0001
0010
,
0100
0000
0010
0100
1000
0000
0001
1000
0010
0000
0100
0000
0001
0000
1000
0001
,
1000
0000
0001
0010
0100
0010
1000
0000
0000
0220
0000
0000
,
0330
0000
0000
1001
,
2001
0000
0000
0000
3020
0000
0000
0032
0000
0000
1003
0000
1001
0000
1001
0000
,
2001
0000
0000
0000
3200
0000
0000
0302
0000
0000
1003
0000
1001
0000
1001
0000
,
2001
0000
0000
0000
0000
0000
0100
0000
0000
0000
0000
0000
3200
0000
0000
0000
0000
0000
0000
0000
0000
0302
0000
0000
0000
0000
0000
0000
0000
0000
1003
0000
0000
0000
0000
0000
2002
0000
0000
0000
0000
0000
0000
0000
00M0
0000
0M00
0000
,
00M0
0000
0M00
0000
00M0
0000
0M00
00M0
0M00
00M0
0M00
00M0
0M00
00M0
0M00
00M0
0M00
00M0
3003
0000
0000
0000
0000
0000
;

//--------------- dance-double - ----------------
#NOTEDATA:;
#STEPSTYPE:dance-double;
#DESCRIPTION:;
#DIFFICULTY:Easy;
#METER:6;
#RADARVALUES:0,0,0,0,0;
#CREDIT:K.S. & K.S.;
#NOTES:
00000000
00000000
00000000
00000000
,
00000000
00000000
00000000
00000000
,
00000000
00000000
00000000
00000000
,
00000000
00000000
00000000
00000000
,
00000000
00000000
00000000
00000000
,
10000000
01000000
00000000
00100000
,
00001000
00010000
00010000
00000000
,
00000100
00001000
00000000
00000100
,
00000010
00000002
00002000
00003003
,
00000001
00000100
00000010
00010000
,
00001000
00010000
00001000
01000000
,
00000000
00010000
00000000
20020000
,
00000000
00000000
30030000
10000000
,
00000000
01000000
00000000
00100000
,
00000000
00100000
00000000
00010000
,
00000000
01000000
00000000
00100000
,
00000000
00200000
00000000
00300000
,
10000000
01000000
00100000
00001000
,
00010000
00001000
00010000
00000100
,
00000000
00001000
00000000
00002002
,
00000000
00000000
00003003
00000002
,
00000000
00000003
00000000
00000200
,
00000000
00000300
00000000
00002000
,
00000000
00003000
00000000
00010000
,
00100000
01000000
00100000
20000000
,
00000000
31000000
00000000
02000000
,
00000000
03010000
00000000
00020000
,
00000000
00031000
00000000
00001000
,
00000010
00000100
00000010
00000002
,
00000000
00000000
00000000
00000203
,
00000000
00000000
00000000
00002300
,
00000000
00000000
00000000
00003000
,
00000000
00000000
00011000
00010000
,
00001000
00100000
00010000
01000000
,
00000000
00001000
00000000
00001000
00000000
00000000
00010000
00000000
,
00000100
00001000
00000010
00010000
,
00001000
01000000
00010000
00000000
,
00200000
00000000
02300000
00000000
,
13000000
00100000
01000000
00010000
,
00100000
00000000
00001000
00000000
00010000
00001000
00010000
00000000
,
00022000
00000000
00033000
00001000
,
00010000
00000010
00001000
00000100
,
00000000
00010000
00000000
00010000
00000000
00000000
00001000
00000000
,
01000000
00010000
00100000
00001000
,
00010000
00000100
00001000
00000000
,
00000020
00000000
00000230
00000000
,
00000301
00000010
00000100
00001000
,
00000010
00000000
00010000
00001000
00010000
00000000
00022000
00000000
,
00033000
00000000
00000000
00001000
,
01000000
00010000
00000000
20000000
,
00000000
30000000
00000000
02000000
,
00000000
03000000
00000000
00020000
,
00000000
00030000
00000000
00001000
,
00000010
00000100
00000010
00000002
,
00000000
00000103
00000000
00000200
,
00000000
00001300
00000000
00002000
,
00000000
00013000
00000000
00010000
,
00100000
01000000
00100000
20000000
,
00000000
00000000
00000000
32000000
,
00000000
00000000
00000000
03020000
,
00000000
00000000
00000000
00030000
,
00000000
00000000
00000000
00022000
,
00000000
00033000
00000000
00000000
00001000
00000000
01000000
00010000
,
00000000
01000000
00001000
00000000
00001000
00000000
00022000
00000000
,
00000000
00033000
00000000
00000000
00010000
00000000
00000100
00001000
,
00000000
00000100
00010000
00000000
00010000
00000000
00022000
00000000
,
00000000
00033000
00000000
00000000
00001000
00000000
01000000
00000000
,
00100000
01000000
00001000
00022000
,
00033000
00010000
00010000
00000100
,
00001000
00000001
00000000
00000000
,
00001000
00000010
00001000
00000000
,
00000001
00000010
00000001
00000000
,
00001000
00000010
00010000
00000000
,
00001000
01000000
00010000
00000000
,
10000000
01000000
10000000
00000000
,
00010000
01000000
00010000
00000000
,
10000000
01000000
00100000
00001000
,
00000000
00010000
00011000
00001000
,
00010000
00000010
00001000
00000100
,
00000000
00010000
00000000
00010000
00000000
00000000
00001000
00000000
,
01000000
00010000
00100000
00001000
,
00010000
00000100
00001000
00000000
,
00000020
00000000
00000230
00000000
,
00000301
00000010
00000100
00001000
,
00000010
00000000
00010000
00000000
00001000
00010000
00001000
00000000
,
00022000
00000000
00033000
00010000
,
00001000
00100000
00010000
01000000
,
00000000
00001000
00000000
00001000
00000000
00000000
00010000
00000000
,
00000100
00001000
00000010
00010000
,
00001000
01000000
00010000
00000000
,
00200000
00000000
02300000
00000000
,
13000000
00100000
01000000
00010000
,
00100000
00000000
00001000
00010000
00001000
00000000
00022000
00000000
,
00033000
00000000
00000000
00010000
,
00001000
02000000
00000000
03001000
,
00010000
00000200
00000000
00001300
,
00000010
00000100
00000001
00002002
,
00000000
00000000
00000000
00003003
;

//--------------- dance-double - ----------------
#NOTEDATA:;
#STEPSTYPE:dance-double;
#DESCRIPTION:;
#DIFFICULTY:Medium;
#METER:10;
#RADARVALUES:0,0,0,0,0;
#CREDIT:K.S. & K.S.;
#NOTES:
00000000
00000000
00000000
00000000
,
00000000
00000000
00000000
00000000
,
00000000
00000000
00000000
00000000
,
00000000
00000000
00000000
00000000
,
00000000
00000000
00000000
00000000
,
10000000
00000000
01000000
10000000
01000000
00000000
00100000
00000000
,
00010000
01000000
02000000
03000000
,
00001000
00000000
00001000
00010000
00001000
00000000
00100000
00000000
,
00001000
00010000
00000200
00000300
,
00001000
00000000
00000100
00001000
00000100
00000000
00000010
00000000
,
00000001
00000000
00000100
00000010
00001000
00000000
00000002
00000000
,
00000013
00000200
00010300
00022000
,
00000000
00000000
00033000
00002000
,
00000000
00013000
00000000
00100000
,
01000000
00001000
00000000
00020000
,
00000000
00031000
00000000
00000010
,
00000100
00020000
00000000
00030000
,
00010000
00000000
00010000
00001000
00010000
00000000
00000010
00000000
,
00010000
00001000
01000000
00010000
,
00010000
00000000
00010000
00100000
00010000
00000000
10000000
00000000
,
10000000
00000000
10000000
01000000
10000000
00000000
00020000
00000000
,
00000000
01030000
00000000
00200000
,
00000000
10300000
00000000
02000000
,
00000000
03010000
00000000
00001000
,
00010000
00000100
00000100
00002000
,
00000000
00003002
00000203
00000320
,
00000000
00002030
00003200
00000320
,
00000000
00000032
00000203
00000320
,
00020030
00032000
02003000
03010000
,
00010000
10000000
10000000
01000000
,
01000000
00000000
00010000
00000000
00010000
00000000
00001000
00010000
,
00001000
00000000
00010000
00001000
00010000
00000000
00002000
00000000
,
00000000
00000000
00013000
00000100
00001000
00000000
00000001
00000100
,
00000010
00000000
00001000
00000000
00001000
00000000
00000100
00000010
,
00000001
00000000
00000100
00000000
00000100
00000000
00001000
00010000
,
00001000
00000000
00010000
00001000
01000000
00000000
00010000
00100000
,
01000000
10000000
10000000
00200000
,
00310000
00002000
00013000
00000100
,
00000010
00000001
00000001
00001000
,
00000010
00010000
00000000
00001000
01000000
00010000
00000000
20000000
,
00020000
00000000
00000000
00000000
30030000
00000000
10000000
01000000
,
00100000
00000000
00010000
00000000
00010000
00000000
01000000
00100000
,
10000000
00000000
01000000
00000000
01000000
00000000
00010000
00001000
,
00010000
00000000
00001000
00010000
00000100
00000000
00001000
00000010
,
00000100
00000001
00000001
00000020
,
00001030
00020000
00031000
01000000
,
00100000
00000000
10000000
00000000
01000000
00000000
00100000
00001000
,
00010000
00000000
00001000
00010000
00000100
00000000
00002000
00000000
,
00003000
00000000
00000000
00000001
,
00001000
00002002
00003003
00002000
,
00000000
00003100
00000000
00000020
,
00000000
00000031
00000000
00000200
,
00000000
00001300
00000000
00010000
,
00001000
01000000
01000000
00020000
,
00000000
20030000
32000000
03200000
,
00000000
00320000
02030000
03200000
,
00000000
20300000
32000000
03200000
,
00302000
00023000
00030200
00001300
,
00001000
00000001
00000001
00000100
,
00000100
00001000
00001000
00020000
,
00000000
00000000
00000000
00000000
,
00000000
00030000
00000000
00011000
,
00001000
01000000
00001000
01000000
00010000
00000000
10000000
01000000
,
00000000
10000000
01000000
00000000
00010000
00000000
00001000
00000000
,
00010000
00000100
00010000
00000100
00001000
00000000
00000001
00000100
,
00000000
00000001
00000100
00000000
00001000
00000000
00010000
00000000
,
00001000
00010000
00001000
00000000
00021000
00000000
02030000
00000000
,
03200000
00302000
00023000
00031000
,
00010000
00001000
00010000
00001000
01000000
00000000
00010000
00000000
,
10000000
10010000
00000000
00000000
,
10000000
10000000
01000000
10000000
,
00010000
01000000
00010000
00000000
00010000
00000000
10000000
00000000
,
01000000
00100000
00001000
00010000
,
00000100
00001000
00001000
00000000
,
00000001
00000001
00000100
00000001
,
00001000
00000100
00001000
00000000
00001000
00000000
00000001
00000000
,
00000100
00000010
00010000
00011000
,
00000000
00000000
00001000
01000000
00010000
00000000
10000000
01000000
,
00010000
00000000
01000000
00000000
01000000
00000000
00010000
01000000
,
10000000
00000000
00010000
00000000
00010000
00000000
01000000
00001000
,
00010000
00000000
00001000
00010000
00000010
00000000
00001000
00000100
,
00000010
00000001
00000001
00000200
,
00001300
00020000
00031000
00100000
,
01000000
10000000
10000000
00010000
,
01000000
00001000
00000000
00010000
00000010
00001000
00000000
00000002
,
00002000
00000000
00000000
00000000
00003003
00000000
00000001
00000100
,
00001000
00000000
00000100
00000000
00000100
00000000
00001000
00000100
,
00000001
00000000
00001000
00000000
00001000
00000000
00000100
00010000
,
00001000
00000000
00010000
00001000
00100000
00000000
00010000
01000000
,
00100000
10000000
10000000
02000000
,
03010000
00002000
00013000
00000010
,
00000100
00000000
00000001
00000000
00000010
00000000
00000100
00010000
,
00001000
00000000
00010000
00001000
00100000
00000000
00020000
00000000
,
00030000
00000000
00000000
20000000
,
30200000
00320000
00000000
00032000
,
00003020
00000032
00000000
00000203
,
00000320
00020030
00031000
00022000
,
00000000
00000000
00000000
00033000
;

//--------------- dance-double - ----------------
#NOTEDATA:;
#STEPSTYPE:dance-double;
#DESCRIPTION:;
#DIFFICULTY:Hard;
#METER:13;
#RADARVALUES:0,0,0,0,0;
#CREDIT:K.S. & K.S.;
#NOTES:
00000000
00000000
00000000
00000000
,
00000000
00000000
00000000
00000000
,
00000000
00000000
00000000
00000000
,
00000000
00000000
00000000
00000000
,
00000000
00000000
00000000
00000000
00000000
00000000
00000000
10000000
,
00100000
10000000
00100000
01000000
00010000
00000000
00100000
00001000
,
00100000
00001000
00010000
00000000
00000010
00000000
00001000
00000001
,
00000010
00000001
00000010
00000100
00001000
00000000
00000010
00010000
,
00000010
00000000
00010000
00000000
00001000
00000000
00000000
00022000
00000000
00000000
00033000
00000000
00000000
00000000
01000000
00000000
,
00010000
00000000
10000000
01000000
00010000
01000000
10000000
01000000
,
00100000
00000000
00001000
00010000
00001000
00010000
00000200
00000000
,
00001300
00000010
00000200
00000000
00000301
00000010
00000100
00000000
,
00000100
00000000
00000000
00001000
00000001
00001000
00000001
00000000
00000000
00000201
00000000
00000000
,
00000000
00001300
00010000
00001000
,
01000000
00010000
10000000
12000000
,
00000000
00000000
00000000
00000000
03010000
00000000
00000000
00000000
00001000
00000000
00000000
00000000
00010000
00000000
00000000
00000100
,
00000000
00000000
00001000
00000000
00000001
00000000
00000000
00000200
00000000
00000000
00000000
00000000
00000000
00000000
00000310
00000000
,
00001000
00000000
00000001
00000100
00001000
00000100
00000001
00000100
,
00000010
00010000
00001000
00010000
00001000
00000000
00100000
00000000
,
00100000
00000000
00000000
00010000
10000000
00010000
10000000
00000000
00000000
00100000
00000000
00000000
,
00100000
00000000
00000000
00010000
00001000
00010000
00001000
00000000
00000000
00012000
00000000
00000000
,
00000000
00003020
00000032
00000203
,
00000000
00002300
00023000
02030000
,
00000000
23000000
30200000
02300000
,
03002000
00023000
02030000
13000000
,
00010000
00000000
00000000
10010000
00000000
00000000
10000000
00000000
00100000
01000000
00000000
00000000
,
00010000
00000000
00100000
01000000
00000000
00000000
10000000
00000000
00100000
01000000
00000000
00000000
,
00010000
00100000
00010000
00100000
00000000
00000000
00100000
00001000
00100000
00002000
00000000
00000000
,
00023000
00030020
00000230
00000301
,
00000001
00000010
00000010
00000100
,
00000100
00000000
00001000
00000000
00001000
00000000
00000010
00010000
,
00000010
00010000
00001000
01000000
00001000
01000000
00020000
00000000
,
00030000
00000000
00000000
00000000
10010000
00000000
10000000
01000000
,
00100000
00010000
00100000
00001000
00010000
00100000
00010000
00001000
,
00100000
00010000
00100000
01000000
10000000
00020000
00000000
01030000
,
00100000
10000000
00010000
10000000
01000000
00010000
00001000
00010000
,
00001000
00000200
00000000
00000010
00000000
00000301
00001000
00000000
,
00001100
00000000
00000001
00000000
00000011
00000000
00001000
00000010
,
00000100
00001000
00010000
00100000
01000000
00020000
00000000
10030000
,
01000000
00200000
00000000
00301000
00010000
00000200
00000000
00001300
,
00000002
00000000
00001000
00001000
00001003
00000000
00000001
00000100
,
00000010
00001000
00000010
00010000
00001000
00000010
00001000
00010000
,
00000010
00001000
00000010
00000100
00000001
00002000
00000000
00003100
,
00000010
00000001
00001000
00000001
00000100
00001000
00010000
00001000
,
00010000
02000000
00000000
00100000
00000000
13000000
00010000
00000000
,
01010000
00000000
10000000
00000000
10100000
00000000
00010000
00100000
,
01000000
00000000
00000000
00010000
00000000
00000000
00001000
00000000
00000000
00000010
00000000
00000000
00000100
00000000
00000000
00001000
00000000
00000000
00000001
00000000
00000000
00000000
00000001
00000000
,
00000100
00000000
00000100
00001000
00000000
00001000
00010000
00000000
00000000
00022000
00000000
00000000
,
00033000
00000000
00000000
00010010
,
00101000
00022000
00033000
00021000
,
00000000
00230000
20300000
32000000
,
00000000
03020000
00032000
00003200
,
00000000
00000302
00000023
00000230
,
00020300
00032000
00003200
00000301
,
00001000
00000000
00000100
00000010
00000000
00000000
00000001
00000000
00000100
00000010
00000000
00000000
,
00001000
00000000
00000100
00000010
00000000
00000000
00000001
00000100
00000001
00000100
00000000
00000000
,
00000010
00001000
00000010
00001000
00000000
00000000
00000010
00010000
00000010
00020000
00000000
00000000
,
00032000
00203000
02300000
23000000
,
00000000
00000000
00000000
30020000
,
00000000
00000000
00000000
00032000
,
00000000
00000000
00000000
00003001
,
00001001
00000000
00000000
00000000
00001000
00000100
00000010
00000000
00000001
00000000
00000000
00000000
00000201
00000000
00000000
00000000
,
00001300
00010000
00001000
00000000
00010000
00000000
00010000
00000000
00021000
00000000
00000000
00000000
00000000
00000000
02030000
00000000
,
00000000
00000000
13000000
00010000
10000000
00100000
10200000
00000000
,
00310000
00001000
00010000
00000000
00001000
00000000
00001000
00000000
00012000
00000000
00000000
00000000
00000000
00000000
00003020
00000000
,
00000000
00000000
00000031
00001000
00000001
00000100
00000201
00000000
,
00001300
00000000
00000000
00010000
00000000
00000000
00001000
00000000
00000000
00000000
00000000
00000000
00010000
00000000
00000000
00000000
00000000
00000000
00010000
00000000
00000000
00000000
00000000
00000000
00001000
00000000
00000000
00000000
00100000
00000000
00000000
00000000
00001000
00000000
00000000
00000000
00100000
00000000
00000000
00000000
00000000
00000000
00001000
00000000
00000000
00000000
00000000
00000000
,
00010000
00000000
00000010
00000000
00010000
00000000
00000010
00000000
00000000
00010000
00000000
00000000
00001000
00000000
00000000
01000000
00000000
00000000
00020000
00000000
00000000
00000000
00000000
00000000
,
10030000
01000000
00100000
00000000
00010000
00000000
00100000
00000000
00001000
00000000
00000000
00000000
00101000
00000000
00000000
00000000
,
00010010
00011000
00000000
00000000
,
00001000
00020000
00100000
00000000
00031000
00000000
00011000
00000000
,
00010000
00002000
00000010
00000000
00013000
00000000
00021000
00000000
,
00230000
00000000
20300000
00000000
32000000
00000000
03100000
00002000
,
00000000
00010000
00013000
00000000
00011000
00000000
00000000
00000000
,
00001000
00020000
01000000
00000000
00031000
00000000
00010000
00001000
,
00010000
00002000
00000100
00000000
00013000
00000000
00012000
00000000
,
00003020
00000032
00000203
00000310
,
00000000
00000000
00000110
00000000
00001001
00000000
00000001
00000010
,
00000100
00001000
00000010
00010000
00001000
00000010
00001000
00010000
,
00000010
00001000
00000100
00000010
00000001
00002000
00000000
00003010
,
00000100
00000001
00000010
00000100
00010000
00001000
00000100
00001000
,
00010000
02000000
00000000
00100000
00000000
13000000
00010000
00000000
,
01010000
00000000
10000000
00000000
10100000
00000000
00010000
00100000
,
01000000
00010000
00001000
00000010
00000100
00002000
00000000
00003001
,
00000100
00000020
00000000
00010030
00001000
02000000
00000000
03010000
,
20000000
00000000
00010000
00010000
30010000
00000000
10000000
00100000
,
01000000
00010000
00100000
00001000
00010000
00100000
00010000
00001000
,
00100000
00010000
01000000
00100000
10000000
00020000
00000000
00130000
,
01000000
10000000
00100000
01000000
00001000
00010000
01000000
00010000
,
00001000
00000200
00000000
00000010
00000000
00000301
00001000
00000000
,
00001100
00000000
00000001
00000000
00000011
00000000
00001000
00000010
,
00000100
00000000
00000000
00001000
00000000
00000000
00010000
00000000
00000000
00100000
00000000
00000000
01000000
00000000
00000000
00010000
00000000
00000000
10000000
00000000
00000000
00000000
10000000
00000000
,
01000000
00000000
01000000
00010000
00000000
00010000
00001000
00000000
00000000
00022000
00000000
00000000
,
00033000
00000000
00000000
00012000
,
00003200
00000000
00000000
00000000
00000310
00000000
00000000
00010000
00000000
00000000
00001000
00000000
00021000
00000000
00000000
00000000
,
02030000
00000000
00000000
00000000
03100000
00000000
00000000
00001000
00000000
00000000
00010000
00000000
00001000
00000000
00001000
00000000
,
00010000
00000000
00010000
00000000
00001000
00000000
00000000
00000100
00000000
00000000
00000001
00000000
00002002
00000000
00000000
00000000
,
00000000
00000000
00000000
00003003
;

//--------------- dance-double - ----------------
#NOTEDATA:;
#STEPSTYPE:dance-double;
#DESCRIPTION:;
#DIFFICULTY:Challenge;
#METER:16;
#RADARVALUES:0.700679,0.841122,0.271383,0.529528,0.638743,741,700,41,80,27,0,0.700679,0.841122,0.271383,0.529528,0.638743,741,700,41,80,27,0;
#CREDIT:K.S. V.S. K.S.;
#NOTES:
00000000
00000000
00000000
00000000
,
00000000
00000000
00000000
00000000
,
00000000
00000000
00000000
00000000
,
00000000
00000000
00000000
00000000
,
00000000
00000000
00000000
00000000
00000000
00000000
00000000
10000000
,
00010000
00000000
00100000
00000000
00010000
00000000
01000000
00000000
00100000
00000000
10000000
00010000
10000000
00000000
01000000
00000000
,
00100000
00001000
00021000
00000000
00030100
00000000
00000010
00000001
,
00001000
00000000
00000010
00000000
00001000
00000000
00000100
00000000
00000010
00000000
00000001
00001000
00000001
00000000
00000100
00000000
,
00000010
00000000
00010000
00000000
00001000
00000000
00000000
00022000
00000000
00000000
00033000
00000000
00000000
00000000
00001000
01000000
,
00010000
10000000
00020000
00100000
20030000
00100000
30010000
01000000
,
00100000
10000000
01000000
00100000
00001000
00010000
00012000
00000000
,
00103000
00000000
00000000
00001000
00000000
00000000
00021000
00000000
00000000
00000000
00000000
00000000
00030010
00000000
00000000
00000100
00000000
00000000
00000001
00000000
00001000
00000000
00000000
00000000
,
00000001
00001000
00000000
00000100
00000010
00000100
00000010
00000000
00000000
00000002
00000000
00000000
,
00000103
00001000
00010000
00000100
00001000
00000010
00010000
00001000
,
01000000
00010000
20000000
00000000
31000000
00010000
00001000
01000000
,
00010000
00000000
00100000
00000000
00001000
00000000
00010000
00000000
00000100
00000000
00001000
00000000
00000002
00000000
00000000
00000203
,
00000000
00000000
00000320
00000000
00000230
00000000
00000000
00002300
00000000
00000000
00003000
00000000
00000000
00000000
00010000
00000100
,
00001000
00000001
00002000
00000010
00003002
00000010
00001003
00000100
,
00000010
00000000
00000000
00000001
00000000
00000000
00000100
00000000
00000000
00000010
00000000
00000000
00020000
00000000
00000000
00000000
00000000
00000000
00031000
00000000
01000000
00000000
00000000
00000000
,
01000000
00010000
00000000
00100000
00010000
00100000
00001000
00000000
00000000
00010000
00000100
00000000
,
00000100
00001000
00000000
00000010
00001000
00000010
00020000
00000000
00000000
00031000
00000000
00000000
,
00010000
00001000
00010000
00001000
00000000
00100000
00010000
0M000000
00010000
00001000
00000000
00000000
,
00001000
00010000
00001000
00010000
00000000
00000010
00001000
00000M00
00001000
00010000
00000000
00000000
,
00010000
00001000
00010000
00001000
00000000
00100000
00010000
0M000000
00010000
00002000
00000000
00000000
,
00003020
00000032
00000203
00000310
,
00001001
00000000
00000000
00000001
00001000
00000100
00001000
00000100
00000010
00000001
00000000
00001000
,
00000010
00010000
00000010
00010000
00000000
00001000
01000000
00001000
01000000
00010000
00000000
10000000
,
01000000
10000000
01000000
00100000
00000000
00010000
01000000
00010000
01000000
00100000
00000000
00000000
,
20000000
00000000
32000000
00000000
03200000
00000000
00310000
10000000
,
00100000
10000000
00010000
00100000
00001000
00010000
00001000
00010000
,
00000010
00000000
00001000
00000000
00000001
00000000
00000010
00000000
00000002
00000000
00000000
00000000
00001003
00000010
00000100
00000000
,
00000010
00000100
00000001
00000000
00001000
00000100
00000010
00000000
00000001
00001000
00000001
00001000
00000010
00000000
00000000
00000000
,
00011000
00000000
00000000
00000000
00010000
00001000
00010000
00001000
00200000
00000000
00000000
00000000
00310000
00000000
10000000
00100000
,
01000000
00000000
00010000
10000000
01000000
00000000
00100000
00001000
00010000
00000000
00100000
00000000
10000000
00000000
01000000
00000000
,
00100000
00000000
00001000
00010000
00001000
00000000
00010000
00000100
00001000
00000000
00000002
00000000
00000000
00000000
00000103
00000010
,
00001000
00000000
00000001
00000010
00000100
00000000
00001000
00000001
00000100
00000000
00002000
00000000
00000000
00000000
00013000
00000000
,
00100000
00000000
10000000
01000000
00100000
00000000
00010000
00100000
00001000
00000000
00010000
00001000
00010000
00000000
00001000
00000000
,
00012000
00000000
00003010
00001000
00021000
00000000
00130000
00010000
,
00001000
00000000
00010000
00000000
01000000
00000000
10000000
00000000
00100000
00000000
01000000
00000000
00010000
00000000
10000000
01000000
,
00100000
20000000
00000000
30100000
00010000
10020000
00000000
01030000
,
00001000
00010000
00001000
00010000
00000010
00000000
00000010
00000000
00010020
00000000
00000000
00000000
00001030
00000000
00000001
00000010
,
00000100
00000000
00001000
00000001
00000100
00000000
00000010
00010000
00001000
00000000
00000010
00000000
00000001
00000000
00000100
00000000
,
00000010
00000000
00010000
00001000
00010000
00000000
00001000
01000000
00010000
00000000
20000000
00000000
00000000
00000000
31000000
00100000
,
00010000
00000000
10000000
00100000
01000000
00000000
00010000
10000000
01000000
00000000
00020000
00000000
00000000
00000000
00031000
00000000
,
00000010
00000000
00000001
00000100
00000010
00000000
00001000
00000010
00010000
00000000
00001000
00010000
00001000
00000000
00010000
00000000
,
00021000
00000000
00130000
00010000
00012000
00000000
00003010
00001000
,
00010000
00000000
00000000
00001000
00000000
00000000
00000100
00000000
00000000
00000001
00000000
00000000
00000010
00000000
00000000
00000100
00000000
00000000
00001000
00000000
00000000
00000000
00000010
00000000
,
00000100
00000000
00001000
00010000
00001000
00010000
00100000
00000000
00000000
02200000
00000000
00000000
,
03300000
00000000
00000000
10010000
,
00011000
00002002
00003003
00011000
,
00001000
00010000
00001000
00010000
00000000
00000010
00001000
00000M00
00001000
00010000
00000000
00000000
,
00010000
00001000
00010000
00001000
00000000
00100000
00010000
0M000000
00010000
00001000
00000000
00000000
,
00001000
00010000
00001000
00010000
00000000
00000010
00001000
00000M00
00001000
00020000
00000000
00000000
,
00230000
20300000
32000000
03100000
,
00010000
10000000
00100000
10000000
00010000
01000000
00010000
10000000
01000000
00100000
00000000
00001000
,
00010000
00001000
00010000
00100000
00000000
00010000
00001000
00010000
00001000
00000010
00000000
00000001
,
00000100
00000010
00000100
00001000
00000000
00001000
00000100
00000010
00000100
00000002
00000000
00000000
,
00000023
00000230
00001300
00002001
,
00000100
00000001
00000010
00023000
,
01000000
10000000
00100000
00034000
,
00000000
00000000
00000000
00003000
,
00001100
00000000
00000000
00000000
00000100
00000010
00000001
00000000
00000011
00000000
00000000
00000000
00001001
00000000
00000000
00000000
,
00001000
00000010
00001000
00000010
00000100
00000001
00001000
00000100
00000020
00000000
00000000
00000000
00000000
00000000
00020030
00000000
,
00000000
00000000
00000000
00000000
01030000
00100000
10000000
00000000
01000000
00000000
01M00000
00000000
00010000
00000000
10000000
00000000
,
00010000
00100000
00010000
00100000
01000000
10000000
00010000
01000000
00200000
00000000
00000000
00000000
00000000
00000000
00302000
00000000
,
00000000
00000000
00000000
00000000
00000000
00000000
00003100
00000000
00000000
000001M0
00000000
00000000
00000001
00000000
00000010
00000000
00000100
00000000
00001000
00000000
00000000
00000001
00000000
00000000
,
00001000
00000000
00000000
00000010
00000000
00000000
00001000
00000000
00000000
00000010
00000000
00000000
00000100
00000000
00000000
00000001
00000000
00000000
00001000
00000000
00000000
00000100
00000000
00000000
00000010
00000000
00000000
00000000
00000001
00000000
00000000
00000000
00001000
00000000
00000000
00000000
00000001
00000000
00000000
00000000
00000100
00000000
00000000
00000000
00001000
00000000
00000000
00000000
,
00010000
00000000
00001000
00000000
00010000
00000000
01000000
00000000
10000000
00000000
00010000
00000000
10000000
00000000
00100000
00000000
01000000
00000000
00010000
00000000
00000000
00100000
00000000
00000000
,
00001000
00010000
00001000
00010000
00000010
00000000
00000100
00000000
00000001
00000000
00000000
00000000
00001001
00000000
00000000
00000000
,
00011000
10010000
00000000
00000000
,
10000000
00010000
00100000
01000000
00020000
00000000
00031000
00000100
,
00000010
00001000
00000002
00000000
00000023
00000000
00000130
00001000
,
00000001
00000100
00001000
00010000
00000100
00000010
00000000
00000002
,
00000000
00000103
00002000
00000000
00013000
00000000
00000000
00001000
,
00010000
01000000
00100000
00010000
10000000
00100000
00010000
00001000
,
00010000
01000000
20000000
00000000
30200000
00000000
01300000
00010000
,
00000000
10000000
01000000
00100000
00001000
00010000
00022000
00000000
,
00033000
00000000
00000000
00000000
00001000
00010000
00001000
00010000
00000400
00000000
00000000
00000000
00001300
00000000
00000001
00000100
,
00000010
00000000
00001000
00000001
00000010
00000000
00000100
00010000
00001000
00000000
00000100
00000000
00000001
00000000
00000010
00000000
,
00000100
00000000
00010000
00001000
00010000
00000000
00001000
01000000
00010000
00000000
20000000
00000000
00000000
00000000
31000000
00100000
,
00010000
00000000
10000000
00100000
01000000
00000000
00010000
10000000
01000000
00000000
00010000
0000M000
00010000
00000000
00100000
00000000
,
00001000
00000000
00010000
00001000
00010000
00000000
00000100
00000010
00000001
00000000
00001000
00000010
00010000
00000000
00001000
00000000
,
00021000
00000000
00130000
10000000
12000000
00000000
03100000
00001000
,
00010000
00000000
00001000
00000000
00000100
00000000
00000001
00000000
00000010
00000000
00000100
00000000
00001000
00000000
00000001
00000100
,
00000010
00000002
00000000
00000013
00001000
00002001
00000000
00003100
,
00010000
00000000
00001000
00000000
01000000
00000000
01000000
00000000
02001000
00000000
00000000
00000000
03010000
00000000
10000000
01000000
,
00100000
00000000
00010000
10000000
00100000
00000000
01000000
00001000
00010000
00000000
01000000
00000000
10000000
00000000
00100000
00000000
,
01000000
00000000
00001000
00010000
00001000
00000000
00010000
00000100
00001000
00000000
00000002
00000000
00000000
00000000
00000103
00000010
,
00001000
00000000
00000001
00000010
00000100
00000000
00001000
00000001
00000100
00000000
00001000
000M0000
00001000
00000000
00000010
00000000
,
00010000
00000000
00001000
00010000
00001000
00000000
01000000
00100000
10000000
00000000
00010000
00100000
00001000
00000000
00010000
00000000
,
00012000
00000000
00003010
00000001
00000201
00000000
00000310
00010000
,
00001000
00000000
00010000
00000000
01000000
00000000
10000000
00000000
00100000
00000000
01000000
00000000
00010000
00000000
00010000
00100000
,
01000000
00000000
00010000
00001000
00010000
00001000
00000010
00000000
00000000
00000220
00000000
00000000
,
00000330
00000000
00000000
00001001
,
00002010
00000000
00000000
00000000
00013000
00000000
00000000
01000000
00000000
00000000
00100000
00000000
10100000
00000000
10010000
00000000
,
00120000
00000000
00000000
00000000
00031000
00000000
00000000
00000100
00000000
00000000
00000010
00000000
00000011
00000000
00001001
00000000
,
00001010
00000000
00000000
00000000
00000000
00000000
00002000
00000000
00000000
00000000
00000000
00000000
00013000
00000000
00000000
00000000
00000000
00000000
00000000
00000000
00000000
01000000
00000000
00000000
00000000
00000000
00000000
00000000
00000000
00000000
00100000
00000000
00000000
00000000
00000000
00000000
20020000
00000000
00000000
00000000
00000000
00000000
00000000
00000000
00M00000
00000000
0M000000
00000000
,
00M00000
00000000
0M000000
00000000
00M00000
00000000
0M000000
00M00000
0M000000
00M00000
0M000000
00M00000
0M000000
00M00000
0M000000
00M00000
0M000000
00M00000
30030000
00000000
00000000
00000000
00000000
00000000
;
