#VERSION:0.83;
#TITLE:PARANOiA ~HADES~;
#SUBTITLE:;
#ARTIST:αTYPE-300;
#TITLETRANSLIT:;
#SUBTITLETRANSLIT:;
#ARTISTTRANSLIT:;
#GENRE:;
#ORIGIN:;
#CREDIT:Flicks & Evergreen;
#BANNER:PARANOiA ~HADES~.png;
#BACKGROUND:PARANOiA ~HADES~-bg.png;
#PREVIEWVID:;
#JACKET:PARANOiA ~HADES~-jacket.png;
#CDIMAGE:;
#DISCIMAGE:;
#LYRICSPATH:;
#CDTITLE:;
#MUSIC:PARANOiA ~HADES~.ogg;
#OFFSET:0.000000;
#SAMPLESTART:1.610000;
#SAMPLELENGTH:15.000000;
#SELECTABLE:YES;
#DISPLAYBPM:75.000000:300.000000;
#BPMS:0.000=300.000,
264.000=150.000,
344.000=300.000;
#STOPS:;
#DELAYS:;
#WARPS:;
#TIMESIGNATURES:0.000=4=4;
#TICKCOUNTS:0.000=4;
#COMBOS:0.000=1;
#SPEEDS:0.000=1.000=0.000=0;
#SCROLLS:0.000=1.000,
268.000=0.000,
268.500=1.000,
272.000=0.000,
272.500=1.000,
276.000=0.000,
276.500=1.000;
#FAKES:;
#LABELS:312.000=break before ending run;
#BGCHANGES:0.000=PARANOiA ~HADES~.avi=1.000=0=0=0=StretchNoLoop====,
99999=-nosongbg-=1.000=0=0=0 // don't automatically add -songbackground-
;
#KEYSOUNDS:;
#ATTACKS:
;

//---------------dance-single - ----------------
#NOTEDATA:;
#CHARTNAME:;
#STEPSTYPE:dance-single;
#DESCRIPTION:;
#CHARTSTYLE:;
#DIFFICULTY:Easy;
#METER:13;
#RADARVALUES:0.652472,0.904327,0.076923,0.057692,0.168269,475.000000,467.000000,8.000000,6.000000,0.000000,0.000000,0.000000,0.000000,0.000000,0.652472,0.904327,0.076923,0.057692,0.168269,475.000000,467.000000,8.000000,6.000000,0.000000,0.000000,0.000000,0.000000,0.000000;
#CREDIT:Flicks & evergreen;
#DISPLAYBPM:75.000000:300.000000;
#NOTES:
// measure 0
0000
0000
0000
0000
,  // measure 1
0000
0000
0000
0000
,  // measure 2
0000
0000
0000
0000
,  // measure 3
0000
0000
0000
0000
,  // measure 4
0000
0000
0000
0000
,  // measure 5
0000
0000
0000
0000
,  // measure 6
1000
0010
0001
0010
,  // measure 7
1000
0000
0001
0100
0001
0000
0000
0000
,  // measure 8
1000
0100
0010
0001
,  // measure 9
1000
0000
0010
0000
0100
0001
1000
0000
,  // measure 10
0001
0000
0010
0000
0100
1000
0100
0000
,  // measure 11
1000
0000
0001
0001
,  // measure 12
1000
0000
0010
0000
0100
0001
0100
0000
,  // measure 13
0001
0000
0000
0000
1000
0000
1000
0010
,  // measure 14
1000
0001
0010
1000
,  // measure 15
0010
0001
1000
0010
,  // measure 16
0100
0001
1000
0100
,  // measure 17
0010
0000
0001
0000
1000
0000
0010
0100
,  // measure 18
0001
0010
0001
0100
,  // measure 19
0001
0000
0010
0100
,  // measure 20
1000
0010
1000
0000
0010
0000
0100
0000
,  // measure 21
0001
1000
0100
0000
,  // measure 22
1000
0100
1000
0010
,  // measure 23
1000
0000
0010
0100
,  // measure 24
0001
0010
0001
0000
0010
0000
0100
0000
,  // measure 25
1000
0000
0001
0000
0100
0001
1000
0000
,  // measure 26
0001
0000
0000
0010
0001
0000
0000
0010
,  // measure 27
0100
0000
0000
1000
0100
0000
0000
1000
,  // measure 28
0001
0000
0000
0100
0001
0000
0000
0100
,  // measure 29
0010
0000
0000
1000
0010
0000
0100
0001
,  // measure 30
1000
0000
0000
0010
1000
0000
0000
0010
,  // measure 31
0100
0000
0000
0001
0100
0000
0000
0001
,  // measure 32
1000
0000
0000
0100
1000
0000
0000
0100
,  // measure 33
0010
0000
0000
0001
0010
0100
1000
0000
,  // measure 34
0001
1000
0010
0100
,  // measure 35
0001
0000
0000
1000
0100
0000
1000
0001
,  // measure 36
1000
0001
0010
0100
,  // measure 37
1000
0000
0000
0001
0100
0000
0001
1000
,  // measure 38
0001
1000
0010
0100
,  // measure 39
0001
0000
0000
1000
0001
0000
1000
0100
,  // measure 40
1000
0010
0100
0001
,  // measure 41
1000
0100
1000
0000
0001
0100
0001
0000
,  // measure 42
1000
1000
0010
0100
,  // measure 43
1000
0100
0001
0000
,  // measure 44
1000
0100
1000
0000
,  // measure 45
0001
0010
0001
0010
,  // measure 46
0001
0001
0010
0100
,  // measure 47
0001
0100
1000
0000
,  // measure 48
0001
0100
0001
0000
,  // measure 49
1000
0000
0010
0000
1000
0000
0010
1000
,  // measure 50
0001
0010
0100
1000
,  // measure 51
0010
0000
0100
0000
0001
0000
0010
0001
,  // measure 52
1000
0010
0100
0001
,  // measure 53
1000
0000
0100
0000
0010
0000
0001
1000
,  // measure 54
0001
0010
0100
1000
,  // measure 55
0010
0000
0100
0000
0010
0000
1000
0010
,  // measure 56
0100
0001
1000
0100
,  // measure 57
0010
0100
0010
0000
1000
0001
1000
0000
,  // measure 58
0010
0100
0001
0100
,  // measure 59
0101
0000
0000
0000
0001
1000
0001
0000
,  // measure 60
0010
0100
1000
0100
,  // measure 61
1100
0000
0000
0000
0001
1000
0001
0000
,  // measure 62
1000
0010
0100
0001
,  // measure 63
1001
0000
0000
0000
0001
1000
0001
0000
,  // measure 64
1000
0010
1000
0000
0001
0010
0001
0000
,  // measure 65
1000
0100
1000
0000
0001
0100
0001
1000
,  // measure 66
0100
0000
0000
0000
0010
0001
0010
0001
,  // measure 67
2000
3000
0000
0000
0010
1000
0010
1000
,  // measure 68
0002
0003
0000
0000
0100
0001
0100
0001
,  // measure 69
2000
3000
0000
0000
0100
1000
0100
1000
,  // measure 70
0002
0000
0010
0003
0001
0000
1000
0000
0000
0000
0000
0000
0010
0000
0000
0000
0100
0000
0001
0000
0000
0000
1000
0000
,  // measure 71
0010
0100
0001
1000
0000
0000
0001
0000
0010
0100
0000
1000
,  // measure 72
0001
0100
0001
1000
0000
0000
0100
0000
0010
0001
0000
1000
,  // measure 73
0010
0100
0010
1000
0000
0000
0001
0000
0010
0100
0000
1000
,  // measure 74
0001
0000
0100
0001
0000
0010
0001
0000
1000
0010
0000
1000
,  // measure 75
0100
0000
1000
0001
0000
0010
0100
0000
1000
0001
0000
0100
,  // measure 76
0010
0000
1000
0001
0000
0010
0100
0000
1000
0100
0000
1000
,  // measure 77
0001
0000
1000
0010
0000
0100
0001
0000
0010
0100
1000
0001
,  // measure 78
0100
0000
0000
0000
0001
0000
1000
0100
,  // measure 79
1100
0000
0000
0000
1000
0000
0001
0100
,  // measure 80
0101
0000
0000
0000
0001
0000
1000
0010
,  // measure 81
1010
0000
0000
0000
1000
0000
0001
0010
,  // measure 82
0011
0000
0000
0000
0001
0000
0010
0000
0100
0000
1000
0100
1000
0000
0001
0000
,  // measure 83
0100
0000
0000
0000
0001
0000
0100
0000
0010
0000
1000
0010
1000
0000
0001
0000
,  // measure 84
0010
0000
0100
1000
0010
0000
0100
0001
,  // measure 85
0010
0100
1000
0001
0100
0001
1000
0100
,  // measure 86
0010
0001
1000
0010
,  // measure 87
0100
0000
0001
0000
1000
0000
0100
1000
,  // measure 88
0100
1000
0010
0100
,  // measure 89
0001
0000
1000
0000
0100
0000
0010
0001
,  // measure 90
0010
0001
1000
0010
,  // measure 91
0010
0000
1000
0000
0010
0000
0100
0001
,  // measure 92
1000
0000
0001
0000
0100
0000
0001
1000
,  // measure 93
0100
0000
0010
0000
0001
0000
1000
0010
,  // measure 94
0100
0001
1000
0100
,  // measure 95
0010
0000
0001
0000
1000
0000
0010
1000
,  // measure 96
0010
1000
0100
0010
,  // measure 97
0001
0000
1000
0000
0010
0000
0100
0001
,  // measure 98
0100
0001
1000
0100
,  // measure 99
0100
0000
1000
0000
0100
0000
0010
0001
,  // measure 100
1000
0000
0001
0000
0010
0000
0001
1000
,  // measure 101
0010
0000
1000
0001
0010
0000
0100
0000
,  // measure 102
1000
0010
0000
0100
,  // measure 103
0001
0000
2002
0000
,  // measure 104
0000
0000
3003
0000
;

//---------------dance-single - ----------------
#NOTEDATA:;
#CHARTNAME:;
#STEPSTYPE:dance-single;
#DESCRIPTION:;
#CHARTSTYLE:;
#DIFFICULTY:Medium;
#METER:15;
#RADARVALUES:0.732143,1.070192,0.067308,0.057692,0.206731,533.000000,526.000000,7.000000,6.000000,0.000000,0.000000,0.000000,0.000000,0.000000,0.732143,1.070192,0.067308,0.057692,0.206731,533.000000,526.000000,7.000000,6.000000,0.000000,0.000000,0.000000,0.000000,0.000000;
#CREDIT:Flicks & evergreen;
#DISPLAYBPM:75.000000:300.000000;
#NOTES:
// measure 0
0000
0000
0000
0000
,  // measure 1
0000
0000
0000
0000
,  // measure 2
0000
0000
0000
0000
,  // measure 3
0000
0000
0000
0000
,  // measure 4
0000
0000
0000
0000
,  // measure 5
0000
0000
0000
0000
,  // measure 6
0001
1000
0100
0010
,  // measure 7
0001
0000
0100
0000
0010
1000
0001
0000
,  // measure 8
0000
0001
0010
0100
,  // measure 9
1000
0000
0010
0000
0100
0001
1000
0000
,  // measure 10
0001
0010
0001
0000
1000
0000
0010
0000
,  // measure 11
0100
0001
0100
0000
0010
0000
1000
0000
,  // measure 12
0100
0000
1000
0000
0100
0010
0100
0000
,  // measure 13
0010
0001
0010
0001
0010
0000
0100
0000
,  // measure 14
1000
0010
0100
0001
,  // measure 15
1000
0001
1000
0000
0000
0000
0001
0000
,  // measure 16
0010
0100
1000
0001
,  // measure 17
1000
0010
1000
0010
1000
0000
0001
0000
,  // measure 18
1000
0100
0010
0001
,  // measure 19
1000
0000
0000
0010
1000
0010
1000
0000
,  // measure 20
0001
0100
0010
1000
,  // measure 21
0001
0000
0000
0010
0001
0010
0001
0000
,  // measure 22
0010
0100
1000
0100
,  // measure 23
0100
0000
0000
0001
0100
0001
0100
0000
,  // measure 24
0100
0010
1000
0010
,  // measure 25
0010
0000
0000
0001
0010
0001
0010
0000
,  // measure 26
0001
0000
0000
1000
0010
0000
0000
0100
,  // measure 27
0001
0000
0000
0010
0100
0010
0100
0000
,  // measure 28
1000
0000
0000
0001
0100
0000
0000
0010
,  // measure 29
1000
0000
0000
0100
0010
0100
0010
0000
,  // measure 30
0001
0000
0000
0100
0001
0000
0000
0100
,  // measure 31
0100
0000
0000
1000
0100
0010
0001
0000
,  // measure 32
1000
0000
0000
0010
1000
0000
0000
0010
,  // measure 33
0010
0000
0000
0001
0010
0100
1000
0000
,  // measure 34
0001
0100
0010
1000
,  // measure 35
0001
0000
0000
0100
0100
0000
1000
0000
,  // measure 36
0100
0010
0001
0010
,  // measure 37
0001
0000
0000
0010
0010
0000
1000
0000
,  // measure 38
0010
0100
0001
0100
,  // measure 39
0001
0000
0000
0100
0100
0000
1000
0000
,  // measure 40
0100
0001
0100
0010
,  // measure 41
0001
0000
0000
0010
0001
0010
0001
1000
,  // measure 42
0001
0000
1000
0000
0001
0100
0010
0100
,  // measure 43
0001
0100
0010
0000
,  // measure 44
1000
0000
0100
0000
0001
0100
0010
0001
,  // measure 45
0010
0100
1000
0000
,  // measure 46
0001
0000
1000
0000
0001
0010
0100
0010
,  // measure 47
0001
0010
0100
0000
,  // measure 48
1000
0000
0010
0000
0001
0010
0100
0001
,  // measure 49
0100
0010
1000
0000
,  // measure 50
0001
1000
0001
0000
1000
0100
1000
0000
,  // measure 51
0001
0100
0001
0000
1000
0100
0010
0100
,  // measure 52
1000
0001
1000
0000
0001
0100
0001
0000
,  // measure 53
1000
0100
1000
0000
0001
0100
0010
0100
,  // measure 54
0001
1000
0001
0000
1000
0100
1000
0000
,  // measure 55
0001
0100
0001
0000
1000
0100
0010
0001
,  // measure 56
0010
0100
1000
0000
0001
0100
0001
0000
,  // measure 57
1000
0100
1000
0000
0001
0100
0010
1000
,  // measure 58
0010
0100
0001
0000
1000
0000
0000
0000
,  // measure 59
0001
0010
0100
1000
,  // measure 60
0010
0100
0001
0000
1000
0000
0000
0000
,  // measure 61
0001
0010
1000
0010
,  // measure 62
0001
0010
0100
0000
1000
0000
0000
0000
,  // measure 63
0001
0100
1000
0100
,  // measure 64
0001
0100
0010
0000
1000
0000
0000
0000
,  // measure 65
0001
0000
1000
0000
1000
0100
1000
0100
,  // measure 66
2000
0000
0000
0000
3001
0100
1000
0100
,  // measure 67
0002
0003
0000
0000
1000
0100
0001
0100
,  // measure 68
2000
3000
0000
0000
0001
0100
1000
0100
,  // measure 69
0002
0003
0000
0000
1000
0100
1000
0000
,  // measure 70
0100
0010
0100
1000
0000
0000
0001
0000
0100
0100
0000
1000
,  // measure 71
0100
0010
0001
1000
0000
0000
0001
0000
0010
0010
0000
1000
,  // measure 72
0010
0100
0001
1000
0000
0000
0001
0000
0010
0100
0000
1000
,  // measure 73
0001
0100
0100
0100
0000
0000
0001
0100
0010
0100
0001
1000
,  // measure 74
0001
0000
0000
1000
0100
0010
0100
1000
0001
1000
0000
0000
,  // measure 75
0001
0100
0010
1000
0010
0100
0001
0000
0000
1000
0001
0010
,  // measure 76
0100
0001
0100
1000
0000
0000
0001
1000
0010
0100
1000
0100
,  // measure 77
0001
0000
0000
0001
0010
0100
1000
0100
0010
0001
0000
0000
,  // measure 78
1001
0001
0100
0010
,  // measure 79
1000
0100
0010
0001
,  // measure 80
0100
0010
1000
0001
,  // measure 81
0010
0000
0000
0000
1000
0000
0000
0000
0010
0000
0000
0000
0001
0010
0001
0010
,  // measure 82
0001
0000
0000
0000
1000
0000
0010
0000
0100
0000
0001
1000
0001
0000
0000
0000
,  // measure 83
1000
0000
0000
0000
0001
0000
0010
0000
0100
0000
1000
0001
1000
0000
0000
0000
,  // measure 84
0001
0000
0000
0000
1000
0000
0100
0000
0001
0000
0100
0010
0001
0000
0000
0000
,  // measure 85
1010
1001
1100
0101
,  // measure 86
1000
0100
1000
0100
0010
0001
0010
0001
,  // measure 87
1000
0001
1000
0001
0100
0010
0100
0000
,  // measure 88
0010
0000
1000
0001
0000
1000
0100
0000
,  // measure 89
0010
0000
0001
1000
0000
0001
1000
0000
,  // measure 90
0001
0100
0001
0100
0010
1000
0010
1000
,  // measure 91
0001
1000
0001
1000
0100
0010
0100
0000
,  // measure 92
0010
0000
0001
1000
0000
0001
0100
0000
,  // measure 93
0010
0000
1000
0001
0000
1000
0001
0000
,  // measure 94
1000
0100
1000
0100
1000
0100
1000
0000
,  // measure 95
0001
0100
0001
0100
0001
0100
0001
0000
,  // measure 96
1000
0100
0010
0001
0010
0100
1000
0000
,  // measure 97
0001
0100
0010
1000
0010
0100
0001
0000
,  // measure 98
1000
0100
0010
0000
1000
0010
0001
0000
,  // measure 99
0001
0010
0001
0000
0001
1000
0001
0000
,  // measure 100
0001
0100
0010
0000
0001
0010
1000
0000
,  // measure 101
0001
1000
0100
0010
0001
0100
0010
1000
,  // measure 102
0001
1000
0000
0100
,  // measure 103
1001
0000
2020
0000
,  // measure 104
0000
0000
0000
0000
,  // measure 105
0000
0000
0000
0000
,  // measure 106
3030
0000
0000
0000
;

//---------------dance-single - ----------------
#NOTEDATA:;
#CHARTNAME:;
#STEPSTYPE:dance-single;
#DESCRIPTION:;
#CHARTSTYLE:;
#DIFFICULTY:Hard;
#METER:17;
#RADARVALUES:0.925824,1.274038,0.086538,0.019231,0.293269,674.000000,665.000000,9.000000,2.000000,0.000000,0.000000,0.000000,0.000000,0.000000,0.925824,1.274038,0.086538,0.019231,0.293269,674.000000,665.000000,9.000000,2.000000,0.000000,0.000000,0.000000,0.000000,0.000000;
#CREDIT:Flicks & evergreen;
#DISPLAYBPM:75.000000:300.000000;
#NOTES:
// measure 0
0000
0000
0000
0000
,  // measure 1
0000
0000
0000
0000
,  // measure 2
0000
0000
0000
0000
,  // measure 3
0000
0000
0000
0000
,  // measure 4
0000
0000
0000
0000
,  // measure 5
0000
0000
0000
0000
,  // measure 6
1000
0100
0010
0001
,  // measure 7
0010
0000
0001
1000
0010
0000
0100
0001
,  // measure 8
1000
0100
0000
0010
0001
0000
1000
0010
,  // measure 9
1000
0001
0010
0100
1000
0001
0100
0010
,  // measure 10
1000
0100
1000
0010
1000
0000
0001
0000
,  // measure 11
0100
0000
0000
0001
0010
0001
1000
0010
,  // measure 12
1000
0100
1000
0010
1000
0000
0010
0000
,  // measure 13
0100
0000
0001
0010
0100
1000
0001
1000
,  // measure 14
0001
0100
0001
0010
0001
0000
1000
0000
,  // measure 15
0010
0000
0000
1000
0010
0100
0001
1000
,  // measure 16
0001
0100
0001
0010
0001
0000
1000
0000
,  // measure 17
0010
0100
0001
1000
0100
0010
0001
1000
,  // measure 18
0010
0000
0001
1000
0100
0000
0010
0001
,  // measure 19
1000
0000
0010
0100
1000
0100
0010
1000
,  // measure 20
0001
0010
0001
0000
1000
0010
1000
0000
,  // measure 21
0001
0100
0001
0000
1000
0100
0000
0010
,  // measure 22
0001
0000
1000
0001
0100
0000
0010
1000
,  // measure 23
0001
0000
0010
0100
0001
0100
0010
0001
,  // measure 24
1000
0010
1000
0000
0001
0010
0001
0000
,  // measure 25
1000
0001
0100
0100
1000
0001
0010
0010
,  // measure 26
1000
0000
0000
0001
1000
0000
0000
0010
,  // measure 27
1000
0000
0000
0010
0100
0010
0001
0010
,  // measure 28
1000
0000
0000
0001
1000
0000
0000
0100
,  // measure 29
1000
0000
0100
0010
0100
0001
0100
1000
,  // measure 30
0001
0000
0000
1000
0001
0000
0000
0010
,  // measure 31
0001
0000
0000
0010
0100
0010
1000
0010
,  // measure 32
0001
0000
0000
1000
0001
0000
0000
0100
,  // measure 33
0001
0000
0100
0010
0100
1000
0100
0001
,  // measure 34
1000
0010
1000
0000
0001
0010
0001
0000
,  // measure 35
1000
0000
0000
0100
0001
0100
1000
0010
,  // measure 36
0100
0001
0100
0000
1000
0100
1000
0000
,  // measure 37
0001
0000
0100
1000
0100
0001
1000
0001
,  // measure 38
0010
0100
1000
0000
0010
0100
0001
0000
,  // measure 39
1000
0000
0100
0001
0100
1000
0010
0100
,  // measure 40
0001
0010
0001
0010
0100
1000
0100
1000
,  // measure 41
0010
1000
0010
1000
0001
0100
0001
0100
,  // measure 42
0001
0000
1000
0010
0001
0010
0100
0001
,  // measure 43
1000
0000
0100
0000
1100
0000
1000
0100
,  // measure 44
1000
0000
0001
0010
1000
0010
0100
1000
,  // measure 45
0001
0000
0100
0100
1000
0000
0100
0100
,  // measure 46
0001
0000
1000
0010
0100
1000
0100
0010
,  // measure 47
1000
0000
0001
0000
0101
0000
0100
0001
,  // measure 48
0100
0000
0001
0010
0100
0001
0100
0010
,  // measure 49
0001
0000
1000
0000
1001
0000
0001
1000
,  // measure 50
0001
0000
0010
0100
0000
0100
0010
0000
,  // measure 51
0010
0001
0000
1000
0010
0100
1000
0100
,  // measure 52
0001
0000
0010
0100
0000
0100
1000
0000
,  // measure 53
1000
0001
0000
0001
0010
1000
0010
0100
,  // measure 54
1000
0000
0010
0100
0000
0100
0010
0000
,  // measure 55
0010
1000
0000
0001
0010
0100
0001
0100
,  // measure 56
1000
0000
0010
0100
0000
0100
0001
0000
,  // measure 57
0001
1000
0000
1000
0010
0001
0010
0100
,  // measure 58
0001
0000
0010
0100
0000
1000
0001
0000
,  // measure 59
0100
0010
0000
1000
0001
0010
0100
1000
,  // measure 60
0001
0000
1000
0010
0000
0100
0001
0000
,  // measure 61
0010
0010
1000
0001
0100
0100
1000
0001
,  // measure 62
1000
0000
0010
0100
0000
0001
1000
0000
,  // measure 63
0010
0100
0000
0001
0010
0100
1000
0001
,  // measure 64
1000
0000
0100
0010
0000
0001
1000
0000
,  // measure 65
0010
0100
0000
0001
1000
0100
0100
0001
,  // measure 66
1000
0000
0000
0000
0100
0001
0100
1000
,  // measure 67
0001
0000
0000
0000
0100
1000
0100
0001
,  // measure 68
1000
0000
0000
0000
0010
0001
0010
1000
,  // measure 69
0001
0000
0000
0000
0010
1000
0010
0001
,  // measure 70
1000
0010
1000
0010
0000
0000
0100
0001
1000
0100
0001
0100
,  // measure 71
0010
0100
1000
0001
0000
0000
0100
0001
0100
0010
0100
1000
,  // measure 72
0100
0001
1000
0001
0000
0000
0100
0001
1000
0100
1000
0001
,  // measure 73
0010
0001
1000
0010
0000
0000
1000
0100
0010
0001
0100
0010
,  // measure 74
1000
0100
0010
0001
0100
0010
1000
0100
0010
0100
0001
0100
,  // measure 75
1000
0001
0100
0010
0100
1000
0100
0001
1000
0010
0001
1000
,  // measure 76
0100
0001
0010
0100
1000
0001
0010
1000
0001
0100
1000
0001
,  // measure 77
0010
1000
0001
0100
0010
0001
1000
0010
1000
0001
0010
0001
,  // measure 78
1000
0000
0010
1000
0010
0000
0100
0001
,  // measure 79
0100
0000
0001
0100
0010
0000
1000
0100
,  // measure 80
0010
0000
0001
0010
0001
0000
1000
0100
,  // measure 81
1000
0000
0000
0000
0010
0000
0100
0000
0001
0000
0000
0000
1000
0100
0010
0001
,  // measure 82
1000
0000
0000
0000
0001
0000
0100
0000
0010
0000
0100
0001
0100
0000
0000
0000
,  // measure 83
0101
0000
0000
0000
1000
0000
0100
0000
0010
0000
0100
1000
0100
0000
0000
0000
,  // measure 84
1100
0000
0000
0000
0010
0000
0100
0000
0001
0000
0010
0100
1000
0000
0000
0000
,  // measure 85
1001
1000
0010
0100
0001
0010
0100
1000
,  // measure 86
0010
0100
1000
0100
0010
1000
0001
0010
,  // measure 87
0100
0010
0001
1000
0010
0100
0001
0010
,  // measure 88
0100
0001
0100
0010
0001
1000
0010
0100
,  // measure 89
0010
1000
0001
0010
0100
1000
0001
0100
,  // measure 90
0001
1000
0010
0100
1000
0100
0010
1000
,  // measure 91
0100
0010
0001
0100
0010
0001
0010
0100
,  // measure 92
0001
0010
1000
0010
0001
1000
0010
0100
,  // measure 93
0001
0010
0001
0010
0100
1000
0100
1000
,  // measure 94
0010
0100
1000
0100
0001
0010
0100
0001
,  // measure 95
0100
1000
0010
0100
0001
1000
0100
0100
,  // measure 96
0001
0010
0100
0001
0100
1000
0010
0100
,  // measure 97
1000
0100
0001
0010
1000
0010
0001
1000
,  // measure 98
0010
0100
1000
0001
0010
1000
0001
0010
,  // measure 99
0100
0001
1000
0010
0001
1000
0010
0100
,  // measure 100
0010
1000
0001
0100
0100
1000
0100
0100
,  // measure 101
0001
0010
0010
1000
0100
0010
0001
0010
,  // measure 102
0001
0011
0000
0100
,  // measure 103
1100
0000
2020
0000
,  // measure 104
0000
0000
0000
0000
,  // measure 105
0000
0000
0000
0000
,  // measure 106
3030
0000
0000
0000
;

//---------------dance-single - ----------------
#NOTEDATA:;
#CHARTNAME:;
#STEPSTYPE:dance-single;
#DESCRIPTION:;
#CHARTSTYLE:;
#DIFFICULTY:Challenge;
#METER:19;
#RADARVALUES:1.053571,1.362981,0.048077,0.048077,0.509615,767.000000,762.000000,5.000000,5.000000,0.000000,0.000000,0.000000,0.000000,0.000000,1.053571,1.362981,0.048077,0.048077,0.509615,767.000000,762.000000,5.000000,5.000000,0.000000,0.000000,0.000000,0.000000,0.000000;
#CREDIT:Flicks & evergreen;
#DISPLAYBPM:75.000000:300.000000;
#NOTES:
// measure 0
0000
0000
0000
0000
,  // measure 1
0000
0000
0000
0000
,  // measure 2
0000
0000
0000
0000
,  // measure 3
0000
0000
0000
0000
,  // measure 4
0000
0000
0000
0000
,  // measure 5
0000
0000
0000
0000
,  // measure 6
1000
0000
0001
0010
0001
0000
0010
0100
,  // measure 7
1000
0000
0001
0000
1000
0001
0100
0001
,  // measure 8
1000
0000
0001
0010
0000
0100
1000
0000
,  // measure 9
0001
0100
0010
0001
0010
0000
0100
0000
,  // measure 10
0001
0010
1000
0010
0100
0000
1000
0010
,  // measure 11
0100
0000
1000
0100
0001
0010
0001
0000
,  // measure 12
1000
0010
0001
0010
0100
0000
0001
0010
,  // measure 13
0100
0000
0001
0100
1000
0010
1000
0001
,  // measure 14
0010
0000
0100
1000
0010
0000
0100
0001
,  // measure 15
0010
0100
0001
0100
0010
0001
1000
0010
,  // measure 16
1000
0010
0100
0001
,  // measure 17
1000
0100
0100
0001
1000
0010
0010
0001
,  // measure 18
1000
0010
1000
0000
0001
0000
1000
0100
,  // measure 19
0010
0100
1000
0001
0100
0100
1000
0000
,  // measure 20
0001
0010
0001
0000
1000
0000
0001
0100
,  // measure 21
0010
0100
0001
1000
0100
0100
0001
0000
,  // measure 22
1000
0100
1000
0000
0001
0000
1000
0010
,  // measure 23
0001
0010
1000
0001
0100
0100
1000
0000
,  // measure 24
0001
0010
0100
0000
0001
0100
1000
0000
,  // measure 25
0100
0100
0001
0000
0100
0010
0001
0010
,  // measure 26
1000
0000
0001
0010
0100
0000
0001
0100
,  // measure 27
1000
0000
0001
0100
0010
1000
0010
0100
,  // measure 28
0100
1000
0100
0010
0001
0000
0000
1000
,  // measure 29
0001
0000
0000
1000
0100
0010
0001
0010
,  // measure 30
0100
0100
0001
0100
0010
1000
0001
0000
,  // measure 31
1000
0100
0010
1000
0010
0100
1000
0000
,  // measure 32
0001
0100
0010
0001
0010
0100
0001
0000
,  // measure 33
1000
0100
1000
0000
0001
0100
0001
0000
,  // measure 34
1000
0000
0010
0001
0000
0010
1000
0000
,  // measure 35
0001
0000
0010
0100
0001
0100
1000
0001
,  // measure 36
1000
0000
0100
0001
0000
0100
1000
0010
,  // measure 37
0100
1000
0100
0010
1000
0100
0001
0100
,  // measure 38
1000
0000
0001
0100
0000
0010
0001
0000
,  // measure 39
0010
1000
0100
0001
0100
1000
0010
0001
,  // measure 40
0010
1000
0100
0010
0001
0100
1000
0100
,  // measure 41
0001
1000
0100
0010
0001
1000
0010
0100
,  // measure 42
0001
0000
1000
0100
0100
0001
0010
0010
,  // measure 43
1000
0000
0100
1000
0001
0000
0100
1000
,  // measure 44
0100
0000
0001
0010
0010
1000
0100
0100
,  // measure 45
0001
0000
0010
0100
0001
0100
0010
0001
,  // measure 46
1000
0000
0001
0100
0100
1000
0010
0010
,  // measure 47
0001
0000
0100
0001
1000
0000
0100
0001
,  // measure 48
0100
0000
1000
0010
0010
0001
0100
0100
,  // measure 49
1000
0000
0010
0100
1000
0100
0010
1000
,  // measure 50
0001
0100
0100
1000
0100
0001
1000
0010
,  // measure 51
0001
1000
0100
0010
0100
0100
0001
1000
,  // measure 52
0001
0010
0010
1000
0010
0001
1000
0100
,  // measure 53
0001
1000
0010
0100
0010
0010
0001
1000
,  // measure 54
0100
0100
0001
0010
0010
0100
1000
0100
,  // measure 55
0010
1000
0001
0010
0100
0001
0100
0010
,  // measure 56
0100
0100
0001
0010
0010
0100
1000
0100
,  // measure 57
0010
1000
0001
0010
0100
0001
0100
0010
,  // measure 58
0001
0100
0001
0100
0001
0000
0100
0100
,  // measure 59
0100
0000
0001
0100
0010
1000
0010
0100
,  // measure 60
0001
0010
0100
0010
0001
0000
0010
0100
,  // measure 61
1000
0000
0001
0100
0010
1000
0001
0010
,  // measure 62
0100
0001
0100
0010
0001
0000
0010
0010
,  // measure 63
0010
0000
0001
0010
0100
1000
0001
0100
,  // measure 64
0010
0001
0010
0100
0001
0000
0010
0010
,  // measure 65
0010
0000
1000
0010
0100
0001
0010
0100
,  // measure 66
1000
0000
0001
1000
0000
0000
0100
0100
0000
0000
0001
0100
0010
0100
0010
1000
,  // measure 67
0020
0000
0130
0001
0000
0000
0100
0100
0000
0000
1000
0100
0010
0100
0010
0001
,  // measure 68
0020
0000
0130
1000
0000
0000
0010
0010
0000
0000
0001
0010
0100
0001
0100
0010
,  // measure 69
0002
0000
1003
0001
0000
0000
0010
0010
0000
0000
1000
0010
0100
1000
0100
0010
,  // measure 70
1000
0010
0001
1000
0000
0000
0100
0001
1000
0100
0001
1000
,  // measure 71
0010
0001
1000
0010
0000
0000
0100
0010
0001
1000
0100
0001
,  // measure 72
0010
0100
0001
1000
0000
0000
0100
0001
1000
0010
0001
1000
,  // measure 73
0010
0001
1000
0100
0000
0000
0001
1000
0100
0010
1000
0010
,  // measure 74
0001
1000
0010
0100
1000
0001
0010
1000
0001
0010
0100
0001
,  // measure 75
1000
0010
0001
1000
0100
0001
1000
0100
0001
1000
0010
0001
,  // measure 76
1000
0010
0001
1000
0100
0010
1000
0100
0010
1000
0010
0001
,  // measure 77
0100
0010
0001
0010
0100
0001
1000
0100
1000
0001
0100
0001
,  // measure 78
1000
0000
0001
0010
0001
0000
0010
0000
0100
1000
0100
1000
0010
0100
0010
0100
,  // measure 79
0001
0000
1000
0010
1000
0000
0001
0000
0100
0001
0100
0001
1000
0100
1000
0100
,  // measure 80
1000
0000
0100
0010
0001
0000
0010
0000
0010
0000
1000
0010
1000
0000
0001
0010
,  // measure 81
0001
0000
1000
0100
0010
0001
1000
0010
0100
0000
0001
0100
0010
1000
0001
0000
,  // measure 82
1001
0000
0000
0000
1000
0000
0100
0000
0010
0000
0001
0010
0001
0000
0010
0000
,  // measure 83
0011
0000
0000
0000
0001
0000
0100
0000
0010
0000
1000
0010
1000
0000
0010
0000
,  // measure 84
1010
0000
0000
0000
1000
0000
0010
0000
0010
0000
0001
0100
0001
0000
0100
0000
,  // measure 85
0101
0000
0000
0000
0001
0000
0010
0000
0100
0000
1000
0100
0010
0001
1000
0010
,  // measure 86
0100
1000
0100
0001
0010
1000
0010
0001
,  // measure 87
1000
0100
0010
0100
1000
0001
0010
1000
,  // measure 88
0001
0010
0100
0001
1000
0010
0001
0010
,  // measure 89
1000
0001
0100
1000
0001
0010
0100
0001
,  // measure 90
1000
0100
0001
1000
0010
0100
0001
0100
,  // measure 91
0010
1000
0010
0100
1000
0010
0100
1000
,  // measure 92
0001
0010
0100
0001
0010
0100
0001
0100
,  // measure 93
1000
0010
0100
1000
0001
0010
1000
0001
,  // measure 94
1000
0100
0010
1000
0010
0001
0100
1000
,  // measure 95
0100
0001
1000
0010
0100
0010
1000
0001
,  // measure 96
0100
1000
0001
0100
0010
0001
1000
0100
,  // measure 97
0001
0100
1000
0001
0010
1000
0001
0100
,  // measure 98
0010
0001
1000
0010
0001
1000
0100
0010
,  // measure 99
0001
0010
0100
1000
0100
0010
1000
0100
,  // measure 100
0010
1000
0001
0100
0010
0001
0100
0010
,  // measure 101
0001
0000
0000
0010
0000
0000
1000
0000
0000
0100
0000
0000
0010
0000
0001
0000
1000
0000
0010
0000
0100
0000
0001
0000
,  // measure 102
1000
0100
0010
0001
0000
0000
0000
0000
0000
1000
0000
0000
,  // measure 103
0001
0000
2002
0000
,  // measure 104
0000
0000
0000
0000
,  // measure 105
3003
0000
0000
0000
;
