#VERSION:0.83;
#TITLE:Over The Christmas;
#SUBTITLE:;
#ARTIST:LUCY;
#TITLETRANSLIT:;
#SUBTITLETRANSLIT:;
#ARTISTTRANSLIT:;
#GENRE:;
#ORIGIN:;
#CREDIT:;
#BANNER:Over The Christmas.png;
#BACKGROUND:Over The Christmas-bg.png;
#PREVIEWVID:;
#JACKET:Over The Christmas-jacket.png;
#CDIMAGE:;
#DISCIMAGE:;
#LYRICSPATH:;
#CDTITLE:;
#MUSIC:Over The Christmas.ogg;
#OFFSET:2.000001;
#SAMPLESTART:82.674667;
#SAMPLELENGTH:15.980000;
#SELECTABLE:YES;
#DISPLAYBPM:90.000000;
#BPMS:0.000=90.000;
#STOPS:;
#DELAYS:;
#WARPS:4.000=16.000,
20.500=16.000,
37.000=16.000,
54.000=16.000,
70.500=16.000,
87.000=16.000,
104.000=16.000,
120.500=16.000,
137.000=16.000,
154.000=16.000,
171.500=16.000,
188.500=13.000,
233.000=16.000,
249.500=16.000,
266.000=16.000,
282.500=16.000,
299.000=16.000,
315.500=16.000,
332.000=8.000,
341.000=8.000,
501.000=16.000,
517.500=16.000,
534.000=16.000,
551.000=16.000,
567.500=16.000,
584.000=16.000,
601.000=16.000,
617.500=16.000,
634.000=16.000,
651.000=16.000,
668.500=16.000,
686.500=16.000;
#TIMESIGNATURES:0.000=4=4;
#TICKCOUNTS:0.000=4;
#COMBOS:0.000=1;
#SPEEDS:0.000=1.000=0.000=0,
425.000=2.000=3.000=0;
#SCROLLS:0.000=0.000,
4.000=1.000,
20.000=0.000,
20.500=1.000,
36.500=0.000,
37.000=1.000,
53.000=0.000,
54.000=1.000,
70.000=0.000,
70.500=1.000,
86.500=0.000,
87.000=1.000,
103.000=0.000,
104.000=1.000,
120.000=0.000,
120.500=1.000,
136.500=0.000,
137.000=1.000,
153.000=0.000,
154.000=1.000,
170.000=0.000,
171.500=1.000,
187.500=0.000,
188.500=1.000,
201.500=0.000,
203.000=0.500,
205.000=1.000,
249.000=0.000,
249.500=1.000,
265.500=0.000,
266.000=1.000,
282.000=0.000,
282.500=1.000,
298.500=0.000,
299.000=1.000,
315.000=0.000,
315.500=1.000,
331.500=0.000,
332.000=1.000,
340.000=0.000,
341.000=1.000,
348.000=0.250,
350.500=1.000,
423.000=0.500,
517.000=0.000,
517.500=0.500,
533.500=0.000,
534.000=0.500,
550.000=0.000,
551.000=0.500,
567.000=0.000,
567.500=0.500,
583.500=0.000,
584.000=0.500,
600.000=0.000,
601.000=0.500,
617.000=0.000,
617.500=0.500,
633.500=0.000,
634.000=0.500,
650.000=0.000,
651.000=0.500,
667.000=0.000,
668.500=0.500,
684.500=0.000,
686.500=0.500;
#FAKES:;
#LABELS:0.000=Song Start;
#BGCHANGES:;
#KEYSOUNDS:;
#ATTACKS:
;

//---------------dance-single - ----------------
#NOTEDATA:;
#CHARTNAME:;
#STEPSTYPE:dance-single;
#DESCRIPTION:;
#CHARTSTYLE:;
#DIFFICULTY:Hard;
#METER:10;
#RADARVALUES:0.299613,1.420701,0.150833,0.323213,0.366308,292.000000,271.000000,21.000000,45.000000,0.000000,0.000000,0.000000,0.000000,318.000000,0.299613,1.420701,0.150833,0.323213,0.366308,292.000000,271.000000,21.000000,45.000000,0.000000,0.000000,0.000000,0.000000,318.000000;
#CREDIT:MANA;
#DISPLAYBPM:90.000000;
#NOTES:
// measure 0
0000
0000
0000
0000
,  // measure 1
MMMM
MMMM
MMMM
MMMM
MMMM
MMMM
MMMM
MMMM
MMMM
MMMM
MMMM
MMMM
MMMM
MMMM
MMMM
MMMM
,  // measure 2
MMMM
0000
0000
0000
,  // measure 3
0000
0000
0000
0000
,  // measure 4
0000
0000
0000
0000
,  // measure 5
0000
0000
0000
MMM0
M000
MMM0
M000
M000
0000
0000
0000
0000
0000
0000
0000
0000
,  // measure 6
0000
0000
0000
0000
,  // measure 7
0000
0000
0000
0000
,  // measure 8
0000
0000
0000
0000
,  // measure 9
0000
0000
0000
0000
0000
0MMM
0M00
0MM0
0M00
0MMM
0000
0000
0000
0000
0000
0000
,  // measure 10
0000
0000
0000
0000
,  // measure 11
0000
0000
0000
0000
,  // measure 12
0000
0000
0000
0000
,  // measure 13
0000
0000
0000
0000
0000
0000
0000
0000
0000
MMM0
M0M0
MMM0
M0M0
M0M0
0000
0000
,  // measure 14
0000
0000
0000
0000
,  // measure 15
0000
0000
0000
0000
,  // measure 16
0000
0000
0000
0000
,  // measure 17
0000
0000
0000
0000
0000
0000
0000
0000
0000
0000
0000
0MMM
0M0M
0MMM
0MM0
0M0M
,  // measure 18
0000
0000
0000
0000
,  // measure 19
0000
0000
0000
0000
,  // measure 20
0000
0000
0000
0000
,  // measure 21
0000
0000
0000
0000
0000
0000
0000
0000
0000
0000
0000
0000
0000
0M00
MMM0
MMM0
,  // measure 22
M0M0
M0M0
0000
0000
0000
0000
0000
0000
0000
0000
0000
0000
0000
0000
0000
0000
,  // measure 23
0000
0000
0000
0000
,  // measure 24
0000
0000
0000
0000
,  // measure 25
0000
0000
0000
0000
,  // measure 26
0000
0MMM
00M0
00M0
00M0
0MMM
0000
0000
0000
0000
0000
0000
0000
0000
0000
0000
,  // measure 27
0000
0000
0000
0000
,  // measure 28
0000
0000
0000
0000
,  // measure 29
0000
0000
0000
0000
,  // measure 30
0000
0000
0000
M0M0
M0M0
0M00
M0M0
M0M0
0000
0000
0000
0000
0000
0000
0000
0000
,  // measure 31
0000
0000
0000
0000
,  // measure 32
0000
0000
0000
0000
,  // measure 33
0000
0000
0000
0000
,  // measure 34
0000
0000
0000
0000
0000
0MM0
000M
00MM
0M00
0MMM
0000
0000
0000
0000
0000
0000
,  // measure 35
0000
0000
0000
0000
,  // measure 36
0000
0000
0000
0000
,  // measure 37
0000
0000
0000
0000
,  // measure 38
0000
0000
0000
0000
0000
0000
0000
0000
0000
0M00
M0M0
M0M0
M0M0
0M00
0000
0000
,  // measure 39
0000
0000
0000
0000
,  // measure 40
0000
0000
0000
0000
,  // measure 41
0000
0000
0000
0000
,  // measure 42
0000
0000
0000
0000
0000
0000
0000
0000
0000
0000
0000
0000
0000
0000
0000
0MM0
,  // measure 43
000M
00MM
0M00
0MMM
0000
0000
0000
0000
0000
0000
0000
0000
0000
0000
0000
0000
,  // measure 44
0000
0000
0000
0000
,  // measure 45
0000
0000
0000
0000
,  // measure 46
0000
0000
0000
0000
,  // measure 47
0000
0000
0000
M0M0
M0M0
MMM0
00M0
00M0
0000
0000
0000
0000
0000
0000
0000
0000
,  // measure 48
0000
0000
0000
0000
,  // measure 49
0000
0000
0000
0000
,  // measure 50
0000
0000
0000
0000
,  // measure 51
0000
0000
1001
0000
1000
0000
0001
0100
,  // measure 52
0010
1000
0002
0000
2003
0000
3200
0000
,  // measure 53
0320
0032
1000
0100
,  // measure 54
1003
2000
0001
0100
,  // measure 55
3001
0000
0001
1000
0001
0000
0000
0000
1000
0000
0000
0000
0010
0000
0100
0000
,  // measure 56
0001
1000
0200
0000
0320
0000
0032
0000
,  // measure 57
2003
3020
0100
0001
,  // measure 58
0200
0330
0000
0000
,  // measure 59
0000
0000
0000
0000
,  // measure 60
0000
0000
0000
0000
,  // measure 61
0000
0000
0000
0000
,  // measure 62
0000
0000
0000
0000
0000
0000
0000
0000
0000
0000
0000
0000
0000
0000
0000
M000
0000
0000
0000
0000
0000
0000
0000
0000
0000
0000
0000
0000
0000
0000
0000
0000
,  // measure 63
0000
0000
0000
0000
,  // measure 64
0000
0000
0000
0000
,  // measure 65
0000
0000
0000
0000
,  // measure 66
0000
0000
0000
0000
0000
0000
0000
0000
0000
0000
0000
0000
0000
0000
0000
0000
0000
0000
0000
MM00
0000
0000
0000
0000
0000
0000
0000
0000
0000
0000
0000
0000
,  // measure 67
0000
0000
0000
0000
,  // measure 68
0000
0000
0000
0000
,  // measure 69
0000
0000
0000
0000
,  // measure 70
0000
0000
0000
0000
0000
0000
0000
0000
0000
0000
0000
0000
0000
0000
0000
0000
0000
0000
0000
0000
0000
0000
0000
MMM0
0000
0000
0000
0000
0000
0000
0000
0000
,  // measure 71
0000
0000
0000
0000
,  // measure 72
0000
0000
0000
0000
,  // measure 73
0000
0000
0000
0000
,  // measure 74
0000
0000
0000
0000
0000
0000
0000
0000
0000
0000
0000
0000
0000
0000
0000
0000
0000
0000
0000
0000
0000
0000
0000
0000
0000
0000
0000
MMMM
0000
0000
0000
0000
,  // measure 75
0000
0000
0000
0000
,  // measure 76
0000
0000
0000
0000
,  // measure 77
0000
0000
0000
0000
,  // measure 78
0000
0000
0000
0000
0000
0000
0000
0000
0000
0000
0000
0000
0000
0000
0000
0000
0000
0000
0000
0000
0000
0000
0000
0000
0000
0000
0000
0000
0000
0000
0000
000M
,  // measure 79
0000
0000
0000
MMM0
0000
0000
0000
0000
0000
0000
0000
0000
0000
0000
0000
0000
0000
0000
0000
0000
0000
0000
0000
0000
0000
0000
0000
0000
0000
0000
0000
0000
,  // measure 80
0000
0000
0000
0000
,  // measure 81
0000
0000
0000
0000
,  // measure 82
0000
0000
0000
0000
,  // measure 83
0000
0000
0000
000M
0000
0000
0000
0M00
0000
0000
0000
M0M0
0000
0000
0000
0000
0000
0000
0000
0000
0000
0000
0000
0000
0000
0000
0000
0000
0000
0000
0000
0000
,  // measure 84
0000
0000
0000
0000
,  // measure 85
0000
0000
0000
0000
0000
0000
0000
0000
0000
0000
0000
000M
0000
0000
0000
0M00
0000
0000
0000
00M0
0000
0000
0000
M000
0000
0000
0000
0000
0000
0000
0000
0000
,  // measure 86
0000
0000
0000
0000
,  // measure 87
0000
0000
0000
0000
0000
0001
0100
0010
,  // measure 88
1000
0100
0020
0000
0032
0000
2003
0000
,  // measure 89
3020
0000
0230
0000
0300
0000
0000
0001
,  // measure 90
0010
0000
0100
0000
1000
0000
0000
0000
0000
0000
0010
0100
0020
0000
0000
0000
,  // measure 91
0030
0000
2002
3003
0000
1000
0100
0010
,  // measure 92
0001
0100
0020
0000
2030
0000
3002
0000
,  // measure 93
0023
0230
0000
0300
,  // measure 94
1000
1000
0001
0100
0010
1000
0001
0010
,  // measure 95
0100
0000
0220
0330
0000
0010
0010
0000
,  // measure 96
0000
0001
0100
0001
0100
0000
0010
0100
0010
0000
1000
0010
1000
0010
0200
0000
,  // measure 97
0000
0000
0301
1000
0001
0000
0000
0000
0000
0000
0000
1000
0100
0000
1000
0000
,  // measure 98
0001
0100
0002
0003
0010
0200
0000
0300
,  // measure 99
1000
0020
0100
0000
0030
0100
0001
0100
,  // measure 100
0010
0000
1000
0000
0010
0000
0000
0010
0100
0000
0000
0100
0001
0000
0000
0001
,  // measure 101
1000
0000
0000
1000
0200
0000
0000
0000
0010
0000
0000
0000
0010
0000
0000
0000
,  // measure 102
0310
0000
0010
0001
0100
0010
0100
0001
,  // measure 103
0010
0000
0100
1000
0010
0100
0010
1000
,  // measure 104
0100
0000
0010
0100
1000
0001
0010
0100
,  // measure 105
1000
0010
0200
0000
0302
0000
2000
0000
,  // measure 106
0000
3003
0000
0000
,  // measure 107
1000
0010
1010
0000
0001
0010
0011
0000
,  // measure 108
1000
0010
2000
3100
0002
0103
1000
0100
,  // measure 109
0010
0000
0001
0000
1001
0000
0000
0000
1000
0000
0010
0100
0010
0000
0100
0000
,  // measure 110
0001
2000
0010
3000
0001
0100
1000
0100
,  // measure 111
0001
0010
0011
0000
1000
0010
1010
0000
,  // measure 112
0001
0010
0002
0103
2000
3100
0001
0100
,  // measure 113
0010
0000
1000
0000
1001
0000
0000
0000
0001
0000
0200
0000
0000
0000
0000
0310
,  // measure 114
1000
0010
1000
0000
0100
0000
0000
0000
1100
0000
0000
0000
1000
0000
0010
0000
,  // measure 115
0100
0001
2000
0000
3100
0010
0002
0000
,  // measure 116
0103
0010
0110
0000
0101
0000
1010
0000
,  // measure 117
1000
0001
1000
0010
0001
0010
1000
0000
,  // measure 118
0001
1000
0001
0100
1000
0100
0001
0000
,  // measure 119
1000
0001
1000
0100
0001
0100
1000
0010
,  // measure 120
0001
0010
1000
0100
0010
0001
0101
0000
,  // measure 121
0001
1000
0001
0010
1000
0010
0001
0100
,  // measure 122
1000
0100
0001
0010
0100
1000
1010
0000
,  // measure 123
0010
0100
0010
1000
0100
0001
1000
0010
,  // measure 124
0001
0100
0110
1000
1100
0010
0011
0101
,  // measure 125
1010
0220
0330
0000
0000
0000
0000
0000
,  // measure 126
0000
0000
0000
0000
,  // measure 127
0000
0000
0000
0000
,  // measure 128
0000
0000
0000
0000
,  // measure 129
0000
0000
0000
0000
0000
0000
0000
MMM0
0M00
0M00
0M00
0M00
0000
0000
0000
0000
,  // measure 130
0000
0000
0000
0000
,  // measure 131
0000
0000
0000
0000
,  // measure 132
0000
0000
0000
0000
,  // measure 133
0000
0000
0000
0000
0000
0000
0000
0000
0000
0M0M
0M0M
0MMM
0M0M
0M0M
0000
0000
,  // measure 134
0000
0000
0000
0000
,  // measure 135
0000
0000
0000
0000
,  // measure 136
0000
0000
0000
0000
,  // measure 137
0000
0000
0000
0000
0000
0000
0000
0000
0000
0000
0000
0000
0000
M0M0
M0M0
0M00
,  // measure 138
M0M0
M0M0
0000
0000
0000
0000
0000
0000
0000
0000
0000
0000
0000
0000
0000
0000
,  // measure 139
0000
0000
0000
0000
,  // measure 140
0000
0000
0000
0000
,  // measure 141
0000
0000
0000
0000
0000
0000
0000
0000
0000
0000
0000
0000
0000
0000
0000
0MM0
,  // measure 142
0M0M
0MM0
0M0M
0MMM
0000
0000
0000
0000
0000
0000
0000
0000
0000
0000
0000
0000
,  // measure 143
0000
0000
0000
0000
,  // measure 144
0000
0000
0000
0000
,  // measure 145
0000
0000
0000
0000
,  // measure 146
0000
M0M0
M0M0
0M00
0M00
0M00
0000
0000
0000
0000
0000
0000
0000
0000
0000
0000
,  // measure 147
0000
0000
0000
0000
,  // measure 148
0000
0000
0000
0000
,  // measure 149
0000
0000
0000
0000
,  // measure 150
0000
0000
0000
0000
0000
00M0
0MMM
0MMM
0M0M
0M0M
0000
0000
0000
0000
0000
0000
,  // measure 151
0000
0000
0000
0000
,  // measure 152
0000
0000
0000
0000
,  // measure 153
0000
0000
0000
0000
,  // measure 154
0000
0000
0000
0000
0000
0000
0000
0M00
M0M0
MMM0
M0M0
M0M0
0000
0000
0000
0000
,  // measure 155
0000
0000
0000
0000
,  // measure 156
0000
0000
0000
0000
,  // measure 157
0000
0000
0000
0000
,  // measure 158
0000
0000
0000
0000
0000
0000
0000
0000
0000
00M0
0M0M
0M0M
0M0M
0M0M
0000
0000
,  // measure 159
0000
0000
0000
0000
,  // measure 160
0000
0000
0000
0000
,  // measure 161
0000
0000
0000
0000
,  // measure 162
0000
0000
0000
0000
0000
0000
0000
0000
0000
0000
0000
0000
0000
0M00
M0M0
MMM0
,  // measure 163
M0M0
M0M0
0000
0000
0000
0000
0000
0000
0000
0000
0000
0000
0000
0000
0000
0000
,  // measure 164
0000
0000
0000
0000
,  // measure 165
0000
0000
0000
0000
,  // measure 166
0000
0000
0000
0000
,  // measure 167
0000
0000
0000
0MM0
0MM0
0000
M00M
0MM0
0000
0000
0000
0000
0000
0000
0000
0000
,  // measure 168
0000
0000
0000
0000
,  // measure 169
0000
0000
0000
0000
,  // measure 170
0000
0000
0000
0000
,  // measure 171
0000
0000
0000
0000
0000
0000
0000
0000
0000
0000
MMMM
MMMM
MMMM
MMMM
MMMM
MMMM
,  // measure 172
MMMM
0000
0000
0000
;
