#TITLE:俺ゴーストタイプ;
#SUBTITLE:;
#ARTIST:手動;
#TITLETRANSLIT:Ore Ghost Type;
#SUBTITLETRANSLIT:;
#ARTISTTRANSLIT:syudou;
#GENRE:BITTER MALICE;
#CREDIT:;
#BANNER:Ore Ghost Type.png;
#BACKGROUND:Ore Ghost Type-bg.png;
#LYRICSPATH:;
#CDTITLE:;
#MUSIC:Ore Ghost Type.ogg;
#OFFSET:0.001049;
#SAMPLESTART:42.390003;
#SAMPLELENGTH:12.000000;
#SELECTABLE:YES;
#BPMS:0.000000=162.000000
;
#STOPS:
;
#BGCHANGES:2.250=Ore Ghost Type.mp4=1.000=0=0=1===CrossFade_Faster==,
99999=-nosongbg-=1.000=0=0=0 // don't automatically add -songbackground-
;
#KEYSOUNDS:;
#ATTACKS:;

//---------------dance-single - ----------------
#NOTES:
     dance-single:
     :
     Hard:
     16:
     0.780366,0.857322,0.359971,0.296976,0.724442,607.000000,567.000000,40.000000,33.000000,28.000000,8.000000,0.780366,0.857322,0.359971,0.296976,0.724442,607.000000,567.000000,40.000000,33.000000,28.000000,8.000000:
0000
0000
0000
0000
,
0000
0000
0000
0000
,
0000
0000
0000
0000
,
0000
0000
0000
0000
,
0000
0000
0000
0000
,
0001
0000
0000
0100
0000
0000
0001
1000
0100
0000
0000
1000
0000
0000
0001
0000
,
0010
0000
0000
0001
0000
1000
0010
1000
0001
0000
0000
0010
0000
0000
0100
1000
,
0001
0000
0000
0100
0000
0000
0010
1000
0001
0000
0000
0010
0000
0000
0100
0000
,
0000
0000
0000
0000
0000
0000
0000
0000
0000
0000
1000
0000
0010
0100
0010
0100
,
0010
1000
0010
0M00
0010
0001
0010
0000
1010
0000
0000
0000
0001
1000
0001
0000
,
0100
0001
0100
00M0
0100
1000
0100
0000
0101
0000
0000
0000
0001
1000
0001
0000
,
0010
0M00
0010
0000
1000
0000
0000
0000
0010
0M00
0010
0000
0001
0000
0000
0000
0100
00M0
0100
0000
1000
0000
0000
0000
0100
00M0
0100
0000
0001
0000
0000
0000
,
0010
0000
0000
0001
0000
0000
0010
0000
0000
0M00
0000
0000
0010
0000
0000
1000
0000
0000
0010
0000
0000
0000
0000
0000
1001
0000
0000
0000
0000
0000
0000
0000
0000
0000
0000
0000
0001
0000
0000
0000
1000
0000
0000
0000
0001
0000
0000
0000
,
1000
0100
0010
0001
0010
0100
1000
0010
0100
0001
0100
0010
,
1000
0001
0010
0100
1000
0020
0001
0000
0000
1030
0001
1000
,
0001
0100
0010
1000
0010
0100
0001
0010
0100
1000
0100
0010
,
0001
0000
1000
0000
0010
0000
0100
0000
0001
0000
0020
0000
1000
0000
0000
0000
0000
0000
0031
0000
0000
0100
0000
0000
,
0010
0000
1000
0000
0100
0000
0010
0000
0001
0000
0000
0000
0100
00M0
0100
0000
,
1000
0001
0100
00M0
1100
0000
0100
1000
,
0010
0000
0100
0000
0001
0000
0010
0000
0200
0000
0000
0000
0301
00M0
0001
0000
,
0010
0100
1000
0001
1000
0010
0100
0001
,
1000
0000
0000
0000
0001
0010
0M00
0000
1010
0000
0000
0000
1000
0100
00M0
0000
,
0101
0000
0000
0000
1000
0010
0M00
0000
0011
0000
0000
0000
1000
0010
0000
00M0
,
0001
0100
0000
0M00
1000
0100
0000
0M00
0001
0010
0000
00M0
1000
0010
0000
0000
,
0001
1000
2002
3003
,
0102
0000
0100
0000
2003
0000
0000
3100
,
0010
0000
0000
0010
0000
0000
0100
0000
0020
0000
0001
0000
0031
0000
0000
0000
,
1000
0000
0010
0000
0100
0000
0001
0000
1000
0100
0010
0001
4000
0000
3004
0000
,
1003
0100
0000
0M00
0001
0100
0000
0000
1001
0000
0001
0100
0010
0000
0100
0010
,
0100
0000
0010
0000
0100
0000
0001
1000
0001
0000
1000
0100
0010
0000
0100
0010
,
0100
0000
0010
0000
0100
0000
1000
0001
1000
0000
0001
0100
0010
0000
0100
0000
,
0001
1000
0100
0010
1000
0010
0100
1000
,
0002
0000
0000
0000
1100
0000
0000
0000
1103
0000
0001
1000
0100
0000
0010
0100
,
0010
0000
0100
0000
1000
0000
0001
1000
0001
0000
1000
0001
0100
0000
0010
0100
,
0010
0000
0100
0000
0001
0000
1000
0001
1000
0000
0001
0010
0100
0000
0010
0000
,
0001
1000
0010
0100
1000
0100
0010
1000
,
0002
0010
2003
0010
3001
0010
0400
4300
,
3001
0000
000M
0100
1000
0000
0001
0000
1000
0000
M000
0010
0001
0010
0001
1000
,
0001
0000
0000
0101
0000
0000
1001
0000
1010
0000
0000
0000
1100
0000
0000
0000
,
1002
0100
2003
0010
,
3001
0002
0010
0000
2003
0000
0100
0000
,
3020
0100
2030
0100
,
3010
0020
0100
0000
0032
0010
0013
0000
,
1010
0000
0000
0000
1000
0000
0000
0000
1001
0000
0000
0000
0001
0000
1000
0100
,
0010
0000
0000
0000
0001
0000
0000
0000
1001
0000
0000
0000
0001
0100
0001
0100
,
0001
0000
1000
0000
0100
0000
0010
0000
0001
0100
0010
1000
0004
0000
4003
0000
,
3100
0000
0000
0000
1001
0000
0000
0000
1001
0000
0001
0100
0010
0000
0001
0010
,
0001
0000
0010
0000
0100
0000
0001
0100
0001
0000
1000
0100
0010
0000
1000
0010
,
1000
0000
0010
0000
0100
0000
1000
0100
1000
0000
0001
0100
0010
0000
0100
0000
,
0010
1000
0001
0010
1000
0010
0001
1000
,
0002
0000
0000
0000
1010
0000
0000
0000
1013
0000
0001
1000
0100
0000
0001
0100
,
0001
0000
0100
0000
1000
0000
0010
1000
0010
0000
1000
0001
0010
0000
1000
0010
,
1000
0000
0010
0000
0001
0000
0100
0001
0100
0000
0001
0010
0100
0000
1000
0000
,
0010
1000
0001
0010
1000
0010
0001
1000
,
0002
0000
0000
0000
0000
0000
0000
0000
1100
0000
0000
0000
0000
0000
0000
0000
1103
0000
0000
0000
0001
0000
1000
0000
0001
0000
0000
0000
0100
00M0
0100
0000
,
1000
0000
0000
0000
0010
0000
0100
0000
0001
0000
0000
0000
0010
0000
0100
0000
1000
0000
0000
0000
0001
0000
1000
0000
0001
0000
0000
0000
0010
0M00
0010
0000
,
1000
0000
0001
0010
0100
0000
1000
0010
0100
0000
0001
1000
0100
0000
0010
0000
,
0001
1000
0001
0100
1000
0001
0010
1000
,
0001
0000
0000
0000
2000
0000
0000
0000
3101
0000
0000
0000
2000
0000
0000
0000
3101
0000
0000
0000
1000
0000
0001
0000
0010
0000
0000
0000
0100
00M0
0100
0000
,
0001
0000
0000
0000
1000
0000
0100
0000
0010
0000
0000
0000
0001
0000
0100
0000
0010
0000
0000
0000
1000
0000
0001
0000
0100
0000
0000
0000
0010
0M00
0010
0000
,
0001
0000
1000
0001
0100
0000
0010
1000
0001
0000
1000
0100
0010
0000
0100
0000
,
1000
0001
1000
0010
0001
1000
0100
0001
,
2000
0100
3002
0010
1003
0001
0400
0340
,
1030
0000
M000
0100
0001
0000
1000
0000
0001
0000
000M
0010
1000
0010
1000
0001
,
1000
0000
0000
1100
0000
0000
0011
0000
0101
0000
0000
0000
2001
0000
0000
0000
,
3001
0000
000M
0100
1000
0000
0001
0000
1000
0000
M000
0010
0001
0010
0001
1000
,
0001
0000
0000
0101
0000
0000
1010
0000
1100
0000
0000
0000
2001
0000
0000
0000
,
3100
0000
1000
0010
0100
0010
0001
0010
0100
0000
0001
0010
0100
0010
1000
0010
,
0001
0000
0000
0101
0000
0000
1010
0000
0011
0000
0000
0000
1100
0000
0000
0000
,
1000
0010
0100
0000
0001
1000
0001
1000
0002
0000
0000
0000
0100
0000
0000
0000
,
1003
0100
0010
0001
2000
0000
3010
0100
,
0002
2003
3002
0010
,
1003
0001
0010
0100
1000
0001
1000
0100
,
0001
0000
0000
0000
0100
0000
0000
0000
2000
3000
0000
0000
0000
0000
0000
0000
0000
0000
0000
0000
0000
0000
0000
0000
0000
0000
0000
0000
0000
0000
0000
0000
;

//---------------dance-single - ----------------
#NOTES:
     dance-single:
     :
     Medium:
     12:
     0.551527,0.593531,0.224982,0.197984,0.139489,429.000000,404.000000,25.000000,22.000000,0.000000,0.000000,0.551527,0.593531,0.224982,0.197984,0.139489,429.000000,404.000000,25.000000,22.000000,0.000000,0.000000:
0000
0000
0000
0000
,
0000
0000
0000
0000
,
0000
0000
0000
0000
,
0000
0000
0000
0000
,
0000
0000
0000
0000
,
0001
0000
0000
0100
0000
0000
0001
0000
1000
0000
0000
0010
0000
0000
1000
0000
,
0001
0000
0000
0010
0000
0000
0001
0000
1000
0000
0000
0100
0000
0000
1000
0000
,
0001
0000
0000
0100
0000
0000
0010
0000
1000
0000
0000
0100
0000
0000
0010
0000
,
0000
0000
0000
0000
0000
0001
0100
0010
,
1000
0100
0001
0100
0010
0000
0100
0010
,
0001
0100
1000
0100
0010
0000
0100
0010
,
1000
0100
0010
0100
0001
0100
0010
0100
,
1000
0000
0000
0010
0000
0000
0001
0000
0000
0010
0000
0000
0100
0000
0000
0000
0000
0000
0001
0000
0000
0000
0001
0000
,
0010
0000
0010
0100
0000
0100
1000
0000
1000
0001
0000
0001
,
0100
0000
0100
0010
0000
0010
0001
0000
0000
0010
0000
0010
,
1000
0000
1000
0100
0000
0100
0010
0000
0010
0001
0000
0001
,
1000
0000
0000
0000
1000
0000
0100
0000
0000
0000
0100
0000
0001
0000
0000
0000
0000
0000
0100
0000
0000
0010
0000
0000
,
0001
0010
0100
1000
0001
0000
0100
0100
,
0010
0100
0001
0000
1000
0000
0100
0010
,
0001
0010
0100
1000
0001
0000
0100
0100
,
1000
0100
0010
1000
0001
0010
0100
1000
,
0001
1000
1010
0001
,
0101
1000
1100
1000
,
0010
0001
1000
0100
,
0001
1000
2002
3003
,
0002
0010
1003
0000
,
2000
0000
0010
0000
3001
1000
1000
0000
,
0001
0100
1000
0100
0001
0010
1000
0010
,
0001
0000
1000
0000
1001
0001
0100
0010
,
1000
0000
0001
0001
0001
1000
0100
0010
,
0001
0000
1000
1000
1000
0001
0100
0010
,
1000
0100
0010
0100
0001
0100
0010
0100
,
1000
0000
1001
0000
1001
1000
0100
0010
,
0001
0000
1000
1000
1000
0001
0100
0010
,
1000
0000
0001
0001
0001
1000
0100
0010
,
0001
0100
0010
0100
1000
0100
0010
0100
,
0001
0011
1100
1001
,
0001
0000
0000
0001
0000
0000
0100
0000
0010
0000
0000
0010
0000
0000
1000
0000
,
0100
0000
0000
0100
0000
0000
0010
0000
1000
0000
0000
0000
0010
0000
0000
0000
,
0002
0000
0203
0000
,
0320
0000
2030
0000
,
3002
0000
0023
0000
,
0230
0000
0302
0000
,
2003
0000
0000
0000
,
3020
0000
0000
0000
,
0031
0000
1000
0000
0001
1000
0001
1000
,
1001
0000
1001
0000
1001
0001
0100
0010
,
1000
0000
0001
0001
0001
1000
0100
0010
,
0001
0000
1000
1000
1000
0001
0100
0010
,
1000
0100
0010
0100
0001
0100
0010
0100
,
1000
0000
1001
0000
1001
1000
0100
0010
,
0001
0000
1000
1000
1000
0001
0100
0010
,
1000
0000
0001
0001
0001
1000
0100
0010
,
0001
0100
0010
0100
1000
0100
0010
0100
,
0001
0000
1001
0000
1001
0001
1000
0010
,
0100
0001
1000
1000
1000
0001
0010
0100
,
1000
0001
1000
1000
1000
0001
0010
0100
,
1000
0010
0100
0010
0001
0010
0100
0001
,
1000
0000
0011
0000
1100
1000
0001
0010
,
0100
1000
0001
0001
0001
1000
0010
0100
,
0001
1000
0001
0001
0001
1000
0010
0100
,
0001
0010
0100
0010
1000
0010
0100
1000
,
0001
1010
0101
1001
,
0001
0000
0000
0001
0000
0000
0010
0000
0100
0000
0000
0100
0000
0000
1000
0000
,
0010
0000
0000
0010
0000
0000
0100
0000
1000
0000
0000
0000
0101
0000
0000
0000
,
1000
0000
0000
1000
0000
0000
0100
0000
0010
0000
0000
0010
0000
0000
0001
0000
,
0100
0000
0000
0100
0000
0000
0010
0000
0001
0000
0000
0000
1010
0000
0000
0000
,
0001
0010
1000
0010
0001
0100
1000
0100
,
0001
0000
0000
0001
0000
0000
0100
0000
1000
0000
0000
0000
1010
0000
0000
0000
,
1000
0100
0010
0001
2000
0000
0010
0000
,
3010
2000
3002
0010
,
2003
3020
0230
0001
,
0301
0000
0200
0000
0301
0010
0100
1000
,
0010
0000
0000
0000
0100
0000
0000
0000
0002
0003
0000
0000
0000
0000
0000
0000
0000
0000
0000
0000
0000
0000
0000
0000
0000
0000
0000
0000
0000
0000
0000
0000
;

//---------------dance-single - ----------------
#NOTES:
     dance-single:
     :
     Easy:
     7:
     0.330402,0.428478,0.188985,0.071994,0.000000,257.000000,236.000000,21.000000,8.000000,0.000000,0.000000,0.330402,0.428478,0.188985,0.071994,0.000000,257.000000,236.000000,21.000000,8.000000,0.000000,0.000000:
// measure 0
0000
0000
0000
0000
,  // measure 1
0000
0000
0000
0000
,  // measure 2
0000
0000
0000
0000
,  // measure 3
0000
0000
0000
0000
,  // measure 4
0000
0000
0000
0000
,  // measure 5
0001
1000
0100
0000
,  // measure 6
1000
0001
0010
0000
,  // measure 7
0001
0100
0010
1000
,  // measure 8
0001
1000
0001
1001
,  // measure 9
1000
0100
0011
0000
,  // measure 10
0001
0100
1010
0000
,  // measure 11
1000
0100
0010
0100
,  // measure 12
0001
0100
1100
0000
,  // measure 13
1000
1000
0010
0010
,  // measure 14
0100
0001
0010
0000
,  // measure 15
0001
0001
0100
0100
,  // measure 16
0010
1000
0100
1000
,  // measure 17
0001
0100
0010
0001
,  // measure 18
0010
0100
0001
1001
,  // measure 19
1000
0100
0010
1000
,  // measure 20
0010
0100
1000
0001
,  // measure 21
0100
0001
0011
1000
,  // measure 22
1010
0001
1001
0001
,  // measure 23
0100
1000
0001
0010
,  // measure 24
1000
0001
2002
3003
,  // measure 25
0001
0000
0010
0000
,  // measure 26
0100
1000
0001
0000
,  // measure 27
1000
0010
0001
0010
,  // measure 28
0100
0100
0001
1000
,  // measure 29
1100
1000
0001
0100
,  // measure 30
0101
0001
1000
0010
,  // measure 31
1000
0100
0001
0100
,  // measure 32
1000
0010
0010
1000
,  // measure 33
0101
0001
1000
0100
,  // measure 34
1100
1000
0001
0010
,  // measure 35
0001
0100
1000
0100
,  // measure 36
0001
0001
0010
0100
,  // measure 37
1000
1000
0001
0001
,  // measure 38
0100
0010
1000
0001
,  // measure 39
0020
0000
0030
0000
,  // measure 40
0200
0000
0300
0000
,  // measure 41
2000
0000
3000
0000
,  // measure 42
0002
0000
0003
0000
,  // measure 43
0100
0000
0100
0000
,  // measure 44
0010
0000
0010
0000
,  // measure 45
1000
0100
0010
0001
,  // measure 46
1000
0001
1001
1000
,  // measure 47
1100
1000
0001
0100
,  // measure 48
0101
0001
1000
0010
,  // measure 49
1000
0100
0001
0100
,  // measure 50
1000
0010
0010
1000
,  // measure 51
0101
0001
1000
0100
,  // measure 52
1100
1000
0001
0010
,  // measure 53
0001
0100
1000
0100
,  // measure 54
0001
0000
0001
0000
0010
0000
0100
0100
,  // measure 55
0100
0000
1000
0000
0001
0000
0100
0100
,  // measure 56
0100
0010
1000
0001
,  // measure 57
0010
0100
0001
0100
,  // measure 58
0010
0000
1001
0000
1001
0000
1000
1000
,  // measure 59
1000
0000
0100
0000
0010
0000
0001
0001
,  // measure 60
0001
0100
0010
1000
,  // measure 61
0001
0010
1000
0010
,  // measure 62
0100
0100
1000
0001
,  // measure 63
1000
0010
0100
0001
,  // measure 64
1000
0100
0001
0100
,  // measure 65
1000
0100
0010
0001
,  // measure 66
1000
0010
0001
0010
,  // measure 67
1000
0100
0001
0100
,  // measure 68
1000
0010
0001
0010
,  // measure 69
0000
0000
2002
3003
,  // measure 70
0000
0000
0000
0000
,  // measure 71
0000
0000
0000
0000
,  // measure 72
0000
0000
0000
0000
,  // measure 73
0000
0010
0000
0000
;
