#TITLE:ONIGOROSHI;
#SUBTITLE:;
#ARTIST:m1dy;
#TITLETRANSLIT:;
#SUBTITLETRANSLIT:;
#ARTISTTRANSLIT:;
#GENRE:;
#CREDIT:;
#MUSIC:ONIGOROSHI - IIDX.mp3;
#BANNER:onigoroshi banner.jpg;
#BACKGROUND:onigoroshi_cover.jpg;
#CDTITLE:;
#SAMPLESTART:9.623;
#SAMPLELENGTH:12.000;
#SELECTABLE:YES;
#OFFSET:-0.023;
#BPMS:0.000=200.000;
#STOPS:;
#BGCHANGES:0.000=onigoroshi_cut.mp4=1.000=0=0=1;
#FGCHANGES:;

//--------------- dance-single - Evergreen + SPACE GOBLIN!!! ----------------
#NOTES:
     dance-single:
     Evergreen + SPACE GOBLIN!!!:
     Hard:
     13:
     0,0,0,0,0:
0000
0000
0000
0000
,
0000
0000
0000
0000
,
0000
0000
0000
0000
,
0000
0000
0000
0000
0000
1000
0010
0100
,
0001
1000
0100
0010
0001
1000
0010
0100
,
0001
1000
0100
0010
0001
1000
0010
0100
,
0001
0100
0001
1000
0100
0010
0001
1000
,
0002
0000
0000
1003
0000
0000
1000
0000
0000
0000
0100
0000
0010
0000
0000
0000
,
0002
0000
0000
0000
2003
0000
0000
0000
0100
0000
0000
3100
0000
0000
1000
0000
,
2000
0000
3001
0000
0200
0000
0301
0100
,
0002
0000
0000
0000
1003
0000
0000
0000
0200
0000
0000
0310
0000
0000
0001
0000
,
0020
0030
0100
1000
0002
0000
0103
0001
,
2000
0000
3100
0000
1000
0000
0010
1000
,
0002
0000
0000
0000
1003
0000
0000
0000
0002
0000
0000
0103
0000
0010
0000
0000
,
1000
0001
0100
0010
1000
0001
0010
0100
,
2100
0000
0000
3000
0000
0000
1000
0100
,
1000
0000
0001
0000
0100
0000
0001
0000
2000
0000
0000
3001
0000
0000
0010
0000
,
0002
0000
2003
0000
3002
0000
1003
0001
,
0100
0000
0010
0000
1000
0000
0001
0000
2000
0000
0000
3001
0000
0000
0010
0000
,
0002
0000
0000
0000
0023
0000
0030
0000
0200
0000
0000
1300
0000
0001
1000
0000
,
0001
0000
0100
0000
0001
0000
1000
0000
0002
0000
0000
1003
0000
0000
0100
0000
,
1000
0000
0100
0000
1000
0000
0001
0000
0200
0000
0000
0301
0000
0000
1000
0000
,
0001
0000
0010
0000
0100
0000
1000
0000
0002
0000
0000
0103
0010
0000
1000
0000
,
0001
0010
0001
0010
0100
1000
0001
1000
,
0010
0000
0100
0000
0001
0000
1000
0000
0002
0000
0000
0103
0000
0000
0010
0000
,
2000
0000
3010
0000
0100
0000
0001
0000
2000
0000
0000
3100
0010
0000
0001
0000
,
1000
0000
0010
0000
0100
0000
0001
0000
2000
0000
0000
3100
0000
0000
0010
0000
,
0002
0000
1003
0000
0010
0000
0100
0000
0001
0000
1000
0100
0010
0000
0001
0000
,
2000
3000
0100
0010
0002
1003
0010
0100
,
0002
1003
0100
0010
0002
1003
0010
0100
,
0002
0000
0000
0000
,
2000
0000
0000
0000
0000
0000
0000
0000
0000
0000
3003
0000
0001
1000
0001
0000
,
0200
0000
0000
0301
1000
0000
0100
0000
0010
0000
0001
0000
0100
0000
0010
0000
,
1000
0000
0001
0000
0100
0000
0001
0000
1000
0100
0010
0000
0001
0000
1000
0000
,
0010
0000
0000
0100
0001
0000
1000
0000
0100
0000
0010
0000
0001
0000
1000
0000
,
0001
0000
2000
0000
0000
3001
0100
0000
0010
0000
1000
0000
0001
0000
0010
0000
,
0001
0000
1000
0000
0010
0000
1000
0100
0000
0000
1000
0000
0001
0000
0100
0000
,
0001
0000
0010
0000
0001
0000
1000
0010
0000
0000
0100
0000
0001
0000
0010
0000
,
0100
0000
1000
0000
0001
0000
1000
0010
0000
0000
0100
0000
0001
0000
1000
0000
,
0100
0000
0010
0000
0001
0000
1000
0000
0010
0100
0000
0010
0000
0000
1000
0000
,
0001
0010
0100
0010
0001
0010
0100
1000
,
0001
0000
1000
0000
0001
0010
0100
0000
1000
0000
0001
0000
0100
0001
0100
0000
,
0001
1000
0100
0010
0001
0100
0010
1000
,
0100
0010
0001
1000
0010
0100
0010
1000
,
0100
0000
0010
0001
0010
0000
0001
0000
1000
0000
0001
0100
0001
0000
1000
0000
,
0001
0000
1000
0010
2000
0000
3001
0000
0010
0000
0001
0010
0100
1000
0001
0000
,
2000
0000
3000
0000
0000
0000
0000
0000
0002
0000
0003
0000
0000
0000
0000
0000
2000
0000
3000
0000
0000
0000
0000
0000
0002
0000
0000
0003
0000
0000
0000
0000
2000
0000
3000
0000
0000
0000
0000
0000
2002
0000
3003
0000
0000
0000
0000
0000
,
2002
3003
0000
0000
0000
0000
0000
0000
0000
0000
0000
0000
0000
0000
0000
0000
,
2000
0000
0000
0000
0010
0000
0000
0000
0001
0000
0000
0000
0010
3000
0000
0000
,
0002
0000
1000
0000
0100
0000
1000
0003
,
0002
0000
0010
0000
1000
0000
0010
0003
,
0200
0000
0000
0000
1000
0000
0000
0000
1000
0000
0000
0000
1000
0000
0000
0300
,
1000
0000
0000
0010
0000
0000
1000
0000
0000
0001
0000
0000
0010
0000
0100
0000
,
1000
0000
0000
0001
0000
0000
1000
0000
0000
0010
0000
0000
0100
0000
0001
0000
,
1000
0000
0000
0001
0000
0000
1000
0000
0000
0001
0000
0000
0100
0000
0001
0000
,
1000
0000
0000
0100
0000
0000
0010
0000
0000
0001
0000
0000
1000
0000
0010
0000
,
1000
0000
0000
0001
0000
0000
0100
0000
0000
0010
0000
0000
1000
0001
0100
0010
,
1000
0000
0000
0001
0000
0000
0010
0000
0000
0100
0000
0000
1000
0000
0002
0000
,
1003
0000
0000
0001
0000
0000
1000
0000
0000
0001
0000
0000
0010
0000
0001
1000
,
0100
0000
0000
0000
0000
0000
0000
0000
0000
1000
0000
0000
0000
0000
0000
0000
0000
0000
0001
0000
0000
0000
0000
0000
0000
0000
0000
0100
0000
0000
0000
0000
0000
0000
0000
0000
2002
0000
0000
0000
3003
0000
0000
0000
0000
0000
0000
0000
,
1000
0000
0000
0020
0030
0000
0200
0300
0000
0002
0003
0000
1000
0000
0001
0010
,
0100
0000
0000
1000
0000
0000
0001
0000
0000
0100
0000
0000
0010
0000
1000
0000
,
0001
0000
0000
0010
0000
0000
0100
0000
0000
1000
0000
0000
0001
0000
0000
1000
,
0002
0000
0000
0000
,
1003
0000
0000
0001
0000
0000
1000
0000
0000
0001
0000
0000
1000
0000
0100
0000
,
0010
0000
0000
0001
0000
0000
1000
0000
0000
0001
0000
0000
0100
0000
0010
0000
,
1000
0000
0000
0010
0000
0000
1000
0000
0001
0000
0000
0000
1000
0100
0010
0001
,
1000
0000
0000
0010
0000
0000
0100
0000
0000
0010
0000
0000
1001
0000
0000
0000
,
0001
0000
0000
0010
0000
0000
0100
0000
0000
0010
0000
0000
0001
0000
1000
0010
,
0100
0000
0000
0010
0000
0000
1000
0000
0001
0100
0000
0000
0010
0000
0100
0010
,
1000
0000
0000
0001
0000
0000
1000
0000
0000
0100
0000
0000
1000
0000
0001
1000
,
0100
0010
0100
0010
0001
1000
0020
0000
,
0130
0001
0001
0010
0001
0001
1000
0100
,
1000
0100
0100
0010
0001
0001
1000
0010
,
0100
0001
0100
0100
0010
1000
1000
0001
,
1000
0000
0001
0000
0010
0000
0100
0000
1000
0001
0100
0010
2000
0000
0000
0000
,
3001
0000
0100
0010
0000
0000
1000
0000
0001
0010
0000
0000
,
0100
0000
1000
0001
0000
0100
0010
0000
1000
0001
0010
0100
,
2000
0000
0000
0001
3000
0000
0020
0000
0000
0001
0030
0000
0200
0000
0310
0000
,
1001
0000
0000
0000
0000
0000
0000
0000
0001
0000
1000
0100
2000
0000
0000
3000
,
0002
0000
0000
0000
2003
0000
0000
0000
0100
0000
0000
3100
0000
0000
1000
0000
,
0002
0000
0103
0000
0200
0000
0310
1000
,
0002
0000
0000
0000
0013
0000
0000
0000
0200
0000
0000
1300
0000
0000
0100
0000
,
0020
0030
0100
1000
0002
0000
0103
0001
,
2000
0000
3100
0000
0020
0000
0031
1000
,
0002
0000
0000
0000
0010
0000
0003
0000
0200
0000
0000
1300
0000
0100
0000
0000
,
0010
0001
0100
0010
1000
0001
0010
0100
,
2000
0000
0000
0000
0002
0000
3003
0000
0001
1000
0001
1000
0001
0000
0010
0000
,
0100
0000
1000
0000
0100
0000
1000
0000
0002
0000
0000
1003
0000
0000
0010
0000
,
2000
0000
3002
0000
2003
0000
3001
1000
,
0100
0000
0010
0000
0001
0000
1000
0000
0002
0000
0000
1003
0000
0000
0010
0000
,
2000
0000
3000
0020
0000
0030
0200
0000
0300
0000
0001
1000
0000
0001
1000
0000
,
0020
0000
1030
0010
0100
0010
0100
0001
,
2000
3000
0100
0000
0010
0000
0001
0000
1000
0000
0010
0000
1000
0000
0001
0000
,
0200
0000
0000
0300
0010
0000
0100
0000
0010
0000
0100
0000
0010
0000
0100
0000
,
0020
1030
0001
1000
0010
0100
0002
0000
,
1003
0000
0000
0000
0000
0000
0000
0000
0000
0100
0000
0000
0000
0000
0000
0000
0000
0000
0010
0000
0000
0000
0000
0000
0000
0000
0000
0000
0000
0000
0001
0000
0000
0000
0000
0000
2002
0000
3003
0000
0000
0000
0000
0000
0000
0000
0000
0000
;

//--------------- dance-single - Evergreen + SPACE GOBLIN!!! ----------------
#NOTES:
     dance-single:
     Evergreen + SPACE GOBLIN!!!:
     Challenge:
     19:
     0,0,0,0,0:
0000
0000
0000
0000
,
0000
0000
0000
0000
,
0000
0000
0000
0000
,
0000
0000
0000
0000
0000
1010
0011
1100
,
0101
0000
1000
0000
0100
0000
0010
0000
0001
0000
1000
0010
0100
0001
1000
0000
,
0100
0000
1000
0000
0001
0000
0100
0000
0001
0000
1000
0100
0010
0001
1000
0000
,
0001
0000
0010
0000
0100
0000
1000
0000
0010
0000
0100
0010
0100
0010
0100
0010
,
1100
0000
0000
0011
0000
0000
1010
0000
0000
0000
0101
0000
1010
0000
0000
0000
,
0102
0000
0000
0000
1003
0000
0000
0000
0010
0100
0000
0001
0000
1000
0010
0000
,
2100
0000
0000
0000
3001
0000
0000
0000
1000
0001
0000
0010
0000
0100
1000
0001
,
1010
0000
0000
0000
0001
0000
0000
0000
1000
0010
0000
0100
0000
0001
1000
0000
,
0021
0000
0030
0000
0100
0000
0001
0000
1000
0100
0000
0010
0000
0001
1000
0000
,
0012
0000
0000
0000
1003
0000
0000
0000
0100
0010
0000
0001
0000
1000
0001
0000
,
2010
0000
0000
0000
3001
0000
0000
0000
1000
0001
0000
0100
0000
0001
1000
0010
,
1100
0000
0001
0000
0010
0000
0100
0000
1000
0010
0100
0001
1010
0101
1010
0101
,
1000
0000
0000
0000
0000
0000
0000
0000
0000
0000
0000
0000
0001
0010
0100
1000
,
0011
0000
1000
0000
0010
1000
0001
0010
0001
1000
0000
0010
0000
0100
0001
0010
,
0101
0000
1000
0000
0100
1000
0001
0100
0001
1000
0000
0100
0000
0010
0001
1000
,
0011
0000
1000
0000
0010
1000
0001
0010
0001
1000
0000
0010
0000
0100
0001
0010
,
0102
0000
0010
0000
2003
0000
0010
0000
3001
0010
0000
0100
0000
1000
0001
0000
,
1100
0001
0100
0001
1000
0000
0010
0100
0001
0010
0000
0100
0000
1000
0010
0100
,
0011
1000
0010
1000
0001
0010
0001
1000
0001
1000
0000
0010
0000
0100
0001
0010
,
0101
0000
1000
0010
1000
0001
0010
0100
1000
0010
0000
0100
0001
0010
0001
1000
,
0100
0010
0001
0010
0100
1000
0010
0100
0001
1000
0000
0100
0000
0010
0001
1000
,
0011
0000
1000
0010
1000
0000
0001
0010
0001
0100
0000
0010
0000
1000
0100
1000
,
0012
0100
0013
1000
0100
0010
0001
1000
0010
1000
0000
0001
1000
0100
1010
0001
,
1010
0000
0001
0010
0001
0000
1000
0010
1000
0100
0000
0010
0000
0001
0100
0001
,
2010
0100
3010
0001
0100
0010
1000
0001
0010
0001
0000
1000
0001
0100
0011
1000
,
0012
0000
1003
0100
0010
0001
0010
0100
2010
0000
3001
0010
0100
1000
0100
0010
,
0102
0000
1003
0010
0100
0001
0100
0010
2100
3001
0010
0100
1000
0010
0100
0001
,
2020
0000
0000
0000
,
0202
0000
0000
0000
0000
0000
0000
0000
0000
0000
3333
0000
1010
0101
1010
0000
,
0101
0000
1000
0001
0100
0000
0100
0001
0000
0001
0010
0000
0100
1000
0010
0000
,
1100
0000
0001
1000
0100
0000
0100
1000
0000
1000
0010
0100
0001
1000
0010
1000
,
0011
0000
1000
0001
0010
0000
0010
0001
0000
0001
0100
0000
0010
1000
0100
0000
,
1010
0001
0100
0000
0000
0001
0100
0010
0100
0001
1000
0100
0010
0001
1000
0001
,
1100
0000
0010
1000
0001
0000
0001
0010
0000
0100
1000
0001
0100
0001
0010
0000
,
0101
0000
0010
0001
1000
0000
1000
0010
0000
0100
0001
1000
0100
1000
0010
0000
,
1100
0000
0010
1000
0001
0000
0001
0010
0000
0100
1000
0001
0100
0001
1000
0000
,
0001
0010
0000
0100
0000
1000
0001
0000
1100
0011
0000
1010
0000
0101
1010
0001
,
1100
0010
1000
0001
0100
0001
0010
0001
1010
0001
1000
0010
1000
0100
1000
0010
,
1100
0000
0001
0100
0001
0010
0100
1000
0000
0001
0000
0100
0010
1000
0010
1000
,
0101
0010
0001
1000
0100
1000
0010
1000
0011
1000
0001
0010
0001
0100
0001
0010
,
0101
0000
1000
0010
0100
0001
1000
0001
0000
1000
0000
0100
0010
0001
1000
0010
,
1100
0000
0001
0100
0001
0010
0001
1000
0101
0000
1000
0100
1000
0010
1000
0001
,
1010
0000
0001
0010
0102
0000
1003
0010
2100
0000
3001
0010
0100
1000
0010
0000
,
2220
3330
0000
0000
2202
3303
0000
0000
0222
0333
0000
0000
2022
3033
0000
0000
2220
3330
0000
0000
2202
3303
0000
0000
,
2222
3333
0000
0000
0000
0000
0000
0000
0000
0000
0000
0000
0000
0000
0000
0000
,
2010
0000
0001
0000
0010
0000
0001
0000
0100
0000
0001
0000
0100
3000
0001
1000
,
0012
1000
0010
1000
0100
1000
0100
1003
,
0201
0000
1000
0000
0001
0000
0010
0000
0001
0000
1000
0000
0001
0000
0310
0001
,
1200
0000
0001
0000
1000
0000
0010
0000
1000
0000
0001
0000
1000
0000
0010
0300
,
2000
0000
0000
0010
0000
0000
0001
0000
0000
0010
0000
0000
3001
0000
1000
0000
,
0002
0000
0000
0010
0000
0000
1000
0000
0000
0010
0000
0000
1003
0000
0001
0000
,
2000
0000
0000
0001
0000
0000
0100
0000
0000
0001
0000
0000
3100
0000
1000
0000
,
0002
0000
0000
0100
0000
0000
1000
0000
0000
0100
0000
0000
1003
0100
0010
0001
,
1010
0000
0000
0101
0000
0000
1010
0000
0000
0101
0000
0000
1000
0001
1100
0011
,
1100
0000
0000
0011
0000
0000
1100
0000
0000
0011
0000
0000
1100
0000
0002
0000
,
1013
0000
0000
0101
0000
0000
1010
0000
0000
0101
0000
0000
1010
0000
0101
1000
,
0011
0000
0000
1100
0000
0000
0011
0000
0000
1100
0000
0000
1101
0000
0000
0000
,
0001
0000
0000
2200
3300
0000
0022
0033
0000
2200
3300
0000
0011
0000
1010
0101
,
1010
0000
0000
0101
0000
0000
1010
0000
0000
0101
0000
0000
1010
0000
0011
0000
,
1100
0000
0001
1000
0101
0000
1010
0000
0101
1000
0001
0000
1100
0000
0001
1000
,
0202
0000
0000
0000
,
1313
0000
0001
0100
0011
0000
1100
0000
0001
0010
0101
0000
1010
0000
0101
1000
,
0011
0000
1000
0100
1010
0000
0101
0000
1000
0010
1100
0000
0011
0000
1100
0001
,
1010
0000
0001
0010
0101
0000
1010
0000
0001
0100
0011
0000
1100
0000
0011
1000
,
0101
0000
0000
0000
0000
0000
1010
0000
0000
0100
0000
0000
1000
0000
0000
0001
0000
0000
1100
0000
0000
0000
0000
0000
0011
0000
0000
0100
0000
0000
0010
0000
0000
1000
0000
0000
0101
0000
0000
0010
0000
0000
0100
0000
1000
0000
0001
0000
,
1100
0000
0001
0010
0101
0000
1010
0000
0001
0100
0011
0000
1100
0000
0011
1000
,
0101
0000
1000
0010
1100
0000
0011
0000
1000
0100
1010
0000
0101
0000
1010
0001
,
1100
0000
0001
0100
0011
0000
1100
0000
0001
0010
0101
0000
1010
0000
0101
1000
,
0010
0000
0100
0001
0010
0000
0100
1000
0010
0000
0100
0001
0010
0100
0010
0100
,
1010
0001
0100
0001
0010
0001
1010
0001
0100
0001
0010
0100
1010
0001
1100
0000
,
0011
1000
0100
1000
0010
1000
0011
1000
0100
1000
0010
0100
0011
1000
0100
0010
,
0101
1000
0010
1000
0100
1000
0101
1000
0010
1000
0100
0010
0101
1000
0011
0000
,
1100
0000
0000
0001
0000
0000
1000
0000
0000
0001
0000
0000
0010
0000
0000
0001
0000
0000
1000
0000
0100
0000
0010
0000
0001
0000
0000
1000
0000
0000
0010
0000
0000
0100
0000
0000
0002
0000
0000
0000
0000
0000
0000
0000
0000
0000
0000
0000
,
1103
0011
1000
0101
1010
0001
1100
0011
1000
0101
1010
0001
,
1100
0101
1000
0011
1010
0001
1100
0011
1100
0101
1010
0101
,
2022
3033
0000
2202
3303
0000
2022
3033
0000
2202
3303
0000
2022
3033
2202
3303
,
2222
3333
0000
0000
0000
0000
0000
0000
1000
0000
0001
0100
0022
0000
0000
0000
,
1133
0011
1100
0011
1000
0010
0100
0000
0001
0100
0000
0010
0000
1000
0001
0100
,
0011
0000
1000
0000
0010
1000
0001
0010
0001
1000
0000
0010
0000
0100
0001
1000
,
0101
0000
1000
0000
0100
1000
0001
0100
0001
1000
0000
0100
0000
0010
0001
0100
,
0012
0000
0100
0000
2003
0000
0100
0000
3001
0100
0000
0010
0000
1000
0001
0000
,
1010
0001
0010
0001
1000
0000
0100
0010
0001
0100
0000
0010
0000
1000
0100
0010
,
0101
1000
0010
1000
0001
0010
0001
1000
0010
1000
0000
0100
0000
0010
0001
0100
,
0011
0000
1000
0100
1000
0001
0100
0010
1000
0100
0000
0010
0001
0100
0001
1000
,
0010
0100
0001
0100
0010
1000
0100
0010
0001
1000
0000
0010
0000
0100
0001
1000
,
0101
0000
0000
0010
0000
0000
0001
0000
0000
1000
0000
0000
0011
0000
0000
1000
0000
0000
0100
0000
0000
0010
0000
0000
0001
0000
0000
0100
0000
0000
0010
0000
0000
1000
0000
0000
0100
0000
0000
1000
0000
0000
0001
0000
0010
0000
0001
0000
,
1100
0000
0000
0010
0000
0000
1000
0000
0000
0001
0000
0000
1010
0000
0000
0001
0000
0000
0100
0000
0000
0010
0000
0000
1000
0000
0000
0100
0000
0000
0010
0000
0000
0001
0000
0000
0100
0000
0000
0001
0000
0000
1000
0000
0100
0000
1000
0000
,
0011
0100
0001
0010
0101
1000
0010
0100
0001
1000
0001
0010
0100
1000
0001
1000
,
0011
0000
1100
0000
0000
0000
0000
0000
0000
0101
0000
1010
0000
0000
0000
0000
0000
0000
0101
0000
0000
1010
0000
0000
0002
0000
0000
1003
0000
0000
0000
0000
0000
0010
0000
0000
0000
0000
0000
0100
0000
0000
0011
0000
0000
1100
0000
0000
,
0022
0033
0000
0000
1000
0100
0010
0001
0000
1000
0100
0000
0010
0001
1000
0001
,
2020
0000
0000
3031
0000
0000
0010
0000
0000
0001
0000
0000
1100
0000
0000
0010
0000
0000
0100
0000
0000
0001
0000
0000
1100
0000
0000
0001
0000
0000
0010
0000
0000
0100
0000
0000
1010
0000
0000
0001
0000
0000
1000
0000
0001
0000
1000
0000
,
0020
0000
0000
0000
0100
0100
0100
0100
,
0230
0301
1000
0001
0010
0100
2000
0000
,
3101
0000
0000
1000
0011
0000
1100
0000
0000
0000
0001
0000
1010
0000
0000
0000
;
