#TITLE:OBLIVION ~Rockin' Night Style~;
#SUBTITLE:;
#ARTIST:NieN;
#TITLETRANSLIT:;
#SUBTITLETRANSLIT:;
#ARTISTTRANSLIT:;
#GENRE:DRAMATIC ROCK;
#CREDIT:;
#MUSIC:OBLIVION Rockin' Night Style.ogg;
#BANNER:OBLIVION Rockin' Night Style.png;
#BACKGROUND:OBLIVION Rockin' Night Style-bg.png;
#CDTITLE:cdtitle.png;
#SAMPLESTART:71.491;
#SAMPLELENGTH:14.787;
#SELECTABLE:YES;
#OFFSET:-0.002;
#BPMS:0.000=70.500
,32.000=141.000
;
#STOPS:;
#BGCHANGES:0.000=OBLIVION Rockin' Night Style.mp4=1.000=1=0=0=StretchNoLoop==CrossFade==;
#FGCHANGES:;

//--------------- dance-single - kay ----------------
#NOTES:
     dance-single:
     kay:
     Beginner:
     3:
     0,0,0,0,0:
0000
0000
0000
0000
,
0000
0000
0000
0000
,
0000
0000
0000
0000
,
0000
0000
0000
0000
,
0000
0000
2000
0000
,
3000
0000
0002
0000
,
0003
0000
1000
0000
,
0100
0000
0010
0000
,
0001
0000
0000
0000
,
1000
0000
0010
0000
,
1000
0000
0000
0000
,
0001
0000
0010
0000
,
0001
0000
0000
0000
,
1000
0000
0010
0000
,
0100
0000
0001
0000
,
0010
0000
0010
0000
,
0100
0000
0100
0000
,
2000
0000
3000
0000
,
0001
0000
0000
0000
,
0100
0000
0100
0000
,
0020
0000
0030
0000
,
2000
0000
0000
0000
0000
0000
0000
0000
0000
0000
0000
0000
0000
0000
0000
0000
0000
0000
0000
0000
0000
0000
0000
0000
0000
0000
0000
0000
0000
0000
0000
0000
0000
0000
0000
0000
0000
0000
0000
0000
0000
0000
0000
0000
0000
0000
0000
0000
0000
3000
0000
0000
0000
0000
0000
0000
0000
0000
0000
0000
0000
0000
0000
0000
0000
0000
0000
0000
0000
0000
0000
0000
0000
0000
0000
0000
0000
0000
0000
0000
0000
0000
0000
0000
0000
0000
0000
0000
0000
0000
0000
0000
0000
0000
0000
0000
,
1000
0000
0000
0000
,
0100
0000
0100
0000
,
0020
0000
0030
0000
,
0002
0000
0003
0000
,
0001
0000
0001
0000
,
1000
0000
1000
0000
,
0010
0000
0100
0000
,
0020
0000
0030
0000
,
1000
0000
1000
0000
,
0001
0000
0001
0000
,
0010
0000
0100
0000
,
0020
0000
0030
0000
,
0002
0000
0003
0000
,
2000
0000
3000
0000
,
0010
0000
0010
0000
,
0020
0000
0030
0000
,
0100
0000
0100
0000
,
0200
0000
0300
0000
,
0002
0000
0003
0000
,
2000
0000
3000
0000
,
0001
0000
0010
0000
,
0100
0000
1000
0000
,
0010
0000
1000
0000
,
0100
0000
0010
0000
,
0001
0000
0100
0000
,
0010
0000
1000
0000
,
0100
0000
0010
0000
,
0002
0000
0003
0000
,
0001
0000
0000
0000
,
1000
1000
1000
0000
,
1000
0000
0000
0000
,
0001
0001
0001
0000
,
0001
0000
0000
0000
,
0100
0100
0100
0000
,
0100
0000
0010
0000
,
1000
0000
0001
0000
,
2002
0000
0000
0000
,
0000
0000
0000
0000
,
3003
0000
0000
0000
;

//--------------- dance-single - kay ----------------
#NOTES:
     dance-single:
     kay:
     Easy:
     7:
     0,0,0,0,0:
0000
0000
0000
0000
,
0000
0000
0000
0000
,
0000
0000
1000
0100
,
0010
0001
0200
0000
,
0310
0000
2002
3003
,
1000
0100
1000
0100
2000
0000
3000
0000
,
0001
0100
0001
0100
0002
0000
0003
1000
,
0100
0000
0010
0001
2000
0000
3000
0000
,
2002
0000
0000
3003
,
0001
0100
0010
0010
,
0100
0001
1000
0001
,
1000
0100
0010
0010
,
0100
1000
0002
0000
,
1003
0010
0001
0000
,
1000
0100
0001
0000
,
1000
0010
0100
0001
,
0010
1000
0001
0100
,
2000
0000
3000
0000
,
0001
0100
0010
0000
,
1000
1000
0100
0000
,
0002
0000
0103
0000
,
2000
0000
3001
0000
,
1000
0100
0010
0000
,
0001
0001
0100
0000
,
2000
0000
3100
0000
,
0002
0000
1003
0000
,
0001
0100
0001
0010
,
0100
1000
0010
1000
,
0001
0010
1000
0010
,
0002
0000
1003
0000
,
1000
0100
1000
0010
,
0100
0001
0010
0001
,
1000
0010
0001
0010
,
1000
0100
0010
0000
,
0002
0000
0000
0203
,
0320
0000
0000
0030
,
2000
3200
0320
0032
,
0203
0000
0000
0300
,
0002
0023
0230
2300
,
3020
0000
0230
0302
,
2003
0000
0000
3002
,
0023
0000
0230
2300
,
3001
0100
1000
0100
,
0001
0100
0010
0010
,
1000
0100
0001
0100
,
1000
0100
0010
0010
,
0001
0100
0010
1000
,
1000
0100
0010
0001
,
0001
0100
1000
0010
,
0002
0000
0000
0000
,
1003
0000
0000
1000
0000
0000
0000
0000
,
0001
0010
1000
0010
,
0001
0000
0000
0001
0000
0000
0000
0000
,
1000
0010
0001
0010
,
1000
0000
0000
1000
0000
0000
0000
0000
,
0001
0010
1000
0100
,
0002
0023
0230
2300
,
3020
0000
0200
0330
,
2002
0000
0000
0000
,
0000
0000
0000
0000
,
3003
0000
0000
0000
;

//--------------- dance-single - keekstar ----------------
#NOTES:
     dance-single:
     keekstar:
     Medium:
     12:
     0,0,0,0,0:
0000
0000
0000
0000
,
0000
0000
0000
0000
,
0000
0000
0000
0000
0002
0000
2003
3200
,
0320
0000
0000
0000
0032
0000
0203
0000
0320
0000
0000
0000
0000
0000
1030
0001
,
1000
0000
0000
0000
0001
0010
0100
1000
0020
0000
0000
0000
0000
0000
0000
0000
,
1030
0100
1000
0010
0200
0000
0000
0000
,
0301
0000
0010
0000
0001
0000
0100
0000
0020
0000
0000
0000
2030
0000
3001
0010
,
0200
0000
0000
0000
1300
0000
1001
0000
0002
0000
0000
0000
0000
0000
0103
0010
,
2000
0000
0000
0000
,
3010
0000
0100
0000
0001
1000
0000
0000
0001
0000
0010
0100
0000
0100
1000
0000
,
0001
0000
0100
0000
0010
1000
0000
0000
0100
0000
0010
0001
0000
0001
0010
0000
,
0100
0000
1000
0000
0010
0100
0000
0000
0001
0000
1000
0001
0000
0001
1000
0000
,
0100
0010
0001
1000
0010
2000
0100
0000
,
3001
0000
0100
0010
0000
0010
1000
0000
0001
0000
0010
0000
1000
0000
0010
0000
,
0001
0000
1000
0100
0000
0100
0010
0000
0001
0000
0100
0000
1000
0000
0100
0000
,
0001
0000
1000
0000
0010
0000
1000
0000
0100
0000
0010
0001
0000
0001
1000
0000
,
0001
0000
0010
0000
0001
0000
0100
0000
0001
1000
0001
0000
1000
0001
1000
0000
,
2002
0000
0000
3003
,
1000
0100
0010
0001
1000
0010
0200
0000
,
0301
0000
1000
0100
0000
0000
0010
0000
0001
0000
0100
0010
0000
0000
1000
0000
,
0100
0010
0100
1000
0001
0100
0010
0100
,
0001
1000
0010
1000
0001
0200
0320
2030
,
3100
0000
1000
0000
0010
0000
1000
0000
0001
0000
0010
0000
0100
0000
1000
0001
,
0010
0000
0000
0010
0000
0000
0100
0000
1000
0000
0000
1000
0000
0000
0001
0000
,
1000
0010
1000
0100
1000
0001
0010
0001
,
1000
0000
0010
0000
0100
0000
0001
0000
1000
0010
0000
0000
1010
0000
0000
0000
,
0001
1000
0100
0010
0100
1000
0010
0100
,
0001
0010
1000
0010
0001
0100
0010
1000
,
0100
0001
0100
1000
0010
0100
0001
0010
,
0100
0000
1000
0001
0000
0001
1000
0000
0010
0000
0100
0000
0002
0000
0000
0000
,
1003
0010
0100
0010
1000
0100
0010
0001
,
0100
1000
0100
0001
0010
1000
0010
0001
,
1000
0010
0100
0001
1000
0100
0010
0010
,
0012
0000
0000
0000
,
1003
0010
0200
0000
1300
0000
0101
0000
,
0001
0010
0200
0000
0301
0000
1100
0000
,
1000
0010
0100
0010
1000
0100
0010
0100
,
2000
0000
3010
0100
0001
0001
1000
0000
,
0001
0010
0100
0010
0001
0100
0010
0100
,
0002
0000
1003
0100
0010
0001
1000
0000
,
1002
0000
0103
0000
0010
0010
1000
0001
,
2000
0000
3100
0000
0010
0010
0001
1000
,
0010
0000
0100
0000
0000
0001
0010
0000
0100
0000
0010
0000
0000
0001
0100
0000
,
0010
1000
0100
0001
1000
0010
0001
0001
,
0010
0000
0100
0000
0000
1000
0010
0000
0100
0000
0010
0000
0000
1000
0100
0000
,
0010
0001
0100
1000
0001
0010
1000
1000
,
0001
0000
0100
0010
0000
0010
0100
0000
1000
0000
0100
0000
0002
0000
0000
0000
,
1003
0000
0100
0010
0000
0010
0100
0000
0001
0000
0100
0000
1000
0000
1000
0000
,
0001
0000
0100
0010
0000
0010
0100
0000
1000
0000
0001
0000
0010
0000
1000
0000
,
0002
0000
0000
0000
0013
0100
1000
0000
,
1001
0000
0000
0101
0000
0000
0000
0001
,
0010
1000
0010
0001
0100
1000
0100
0001
,
1000
0000
0000
1100
0000
0000
0000
1000
,
0010
0001
0010
1000
0100
0001
0100
1000
,
0001
0000
0000
1001
0000
0000
0000
0001
,
0100
0000
0000
0010
1000
0010
1000
0001
0010
0100
0000
0000
,
2100
3020
0230
0302
,
0013
0100
1000
0001
0100
0010
0010
0010
,
2002
0000
0000
0000
,
0000
0000
0000
0000
,
3003
0000
0000
0000
;

//--------------- dance-single - keekstar ----------------
#NOTES:
     dance-single:
     keekstar:
     Hard:
     15:
     0,0,0,0,0:
0000
0000
0000
0000
,
0000
0000
0000
0000
,
0000
0000
0000
0000
0001
0010
0100
0100
,
1000
0000
0010
0100
2000
0000
0000
3100
,
0001
0000
1000
0100
0002
0000
0000
0000
,
0103
1000
0001
0010
2000
0000
0000
0000
,
3010
0000
0001
0000
1000
0000
0010
0000
0002
0000
0000
0000
0000
0000
0013
1000
,
0200
0000
0000
0000
0310
0000
0001
0000
0100
0000
0000
0000
0000
0000
0001
2000
,
0002
0000
0000
3003
,
0001
0000
0100
0000
0001
1000
0001
0000
0010
0000
0001
1000
0001
0000
0100
0010
,
1000
0000
0100
0000
1000
0001
1000
0000
0010
0000
1000
0001
1000
0000
0100
0010
,
0001
0000
0100
0000
0010
0100
0001
0000
0010
0000
0100
0010
0001
0000
0100
0010
,
1000
0000
0100
0000
0010
0100
1000
0000
0010
0000
0100
0010
1000
0000
0001
1000
,
0100
0000
0100
0010
0000
0010
0001
0000
0100
0010
0100
0010
1000
0010
1000
0000
,
0100
0010
0100
0010
0000
0001
1000
0000
0010
0100
0010
0100
0001
0100
0001
0000
,
1000
0000
0100
0000
0001
0000
0100
0000
1000
0000
0010
0100
0000
0100
0001
0000
,
0010
0000
1000
0000
0010
0000
0001
0000
1000
0010
0100
0000
0001
1000
0100
0000
,
0220
0000
0000
0330
,
0001
0100
0010
1000
0100
0001
0100
1000
,
0002
0000
0000
0100
0000
0000
0100
0000
2003
0000
0000
0100
0000
0000
0100
0000
,
3001
0000
0000
0100
0000
0000
1000
0000
0100
0010
0000
0010
0100
0000
0001
0000
,
1000
0000
0000
0100
0000
0000
0001
0000
0100
0010
0000
0010
0100
0000
1000
0000
,
0001
0010
0100
1000
0010
0001
0010
1000
,
0002
0000
0000
0010
0000
0000
0010
0000
2003
0000
0000
0010
0000
0000
0010
0000
,
3001
0000
0010
0000
1000
0000
0010
0000
0001
1000
0000
1000
0001
0000
1000
0000
,
0010
0000
0001
0000
1000
0000
0100
0000
0001
1000
0001
0000
2000
0000
0000
0000
,
3001
0100
0000
0010
1000
0000
0100
0000
0010
0001
1000
0001
0010
0000
0001
0000
,
1000
0010
0000
0100
0001
0000
0010
0000
0100
1000
0001
1000
0100
0000
0010
0000
,
0001
0100
0001
0100
0010
0000
0100
0000
1000
0100
1000
0100
0010
0000
1000
0000
,
0001
0000
0001
0010
0000
0010
0100
0000
1000
0001
0100
0010
2000
0000
0000
0000
,
3001
0100
0000
0010
1000
0000
0001
0000
0010
1000
0000
0010
0001
0000
1000
0000
,
0010
0001
0000
0010
1000
0000
0001
0000
1000
0100
1000
0100
0010
0000
0100
0000
,
0001
0100
0001
0100
0010
0000
0001
0000
1000
0010
0100
0000
0001
0000
0001
0000
,
1000
0100
0010
0001
1000
0010
0100
0001
0020
0000
0000
0000
0000
0000
0000
0000
,
0031
0000
0100
0000
0010
0000
1000
0000
0001
0010
0000
0010
0100
0000
1000
0000
,
0010
1000
0010
0000
0100
0000
0001
0000
1000
0100
0000
0100
0010
0000
0000
0000
,
0002
0103
0020
0130
2000
3100
0020
0130
,
0102
0000
0000
0000
1003
0100
0010
0000
0001
1000
0001
1000
0010
0000
0100
0001
,
2000
3100
0020
0130
0002
0103
0020
0130
,
2100
0000
0000
0000
3001
0000
0100
0000
0010
0100
0001
0000
0010
0000
0100
1000
,
0002
0000
0000
0000
1003
0000
0010
0000
0100
0010
1000
0000
0100
0000
0010
0000
,
0120
0000
0000
0000
0031
0000
1000
0000
0010
0100
0000
0100
0002
0000
0000
0000
,
0013
0000
0100
0000
1000
0010
1000
0000
0100
0000
0010
0000
0001
0100
0001
0000
,
1000
0100
0001
0000
0100
1000
0001
0000
1000
0100
0001
0000
0100
1000
0001
0000
,
0100
0000
0010
0000
1000
0100
1000
0000
0010
0000
0100
0000
0001
0010
0001
0000
,
1000
0001
0100
0000
1000
0100
0001
0000
1000
0001
1000
0001
0010
0000
0100
0000
,
1000
0000
0001
0100
0000
1000
0100
0000
0010
1000
0010
1000
0001
0010
0001
0000
,
1000
0000
1000
0100
0000
0001
0100
0000
0010
0001
0010
0001
1000
0010
1000
0000
,
0001
0000
0001
0010
0000
0100
1000
0000
0001
0100
0010
1000
0001
0010
0100
1000
,
0020
0000
0000
0000
0130
0100
0102
0000
,
1003
0000
0000
1002
0023
2030
3020
0032
,
0203
0000
0000
0000
0000
0000
0310
0000
1000
0000
0001
0000
0010
0100
0000
0100
,
1000
0000
0000
2001
3020
0032
0023
2030
,
3200
0000
0000
0000
0000
0000
0000
0000
0310
0000
0000
0001
0000
0000
1000
0000
,
1001
0000
0000
2001
3200
0302
2003
3020
,
0032
0000
0000
0000
0000
0000
0000
0000
0000
0000
0000
0000
1003
0000
0000
0000
0010
0000
0000
0000
1000
0000
0000
0000
0001
0000
0000
0000
0100
0000
0000
0000
0001
0000
0000
0000
0010
0000
0000
0000
0000
0000
0000
0000
0000
0100
0000
0000
,
2000
3020
0230
0302
,
1003
0000
0100
0000
0010
0000
0001
1000
0001
0000
0100
0000
0100
0000
0100
0000
,
2002
0000
0000
0000
,
0000
0000
0000
0000
,
3003
0000
0000
0000
;

//--------------- dance-single - fuck it (keekstar mix) -Rockin' Night Style- ----------------
#NOTES:
     dance-single:
     fuck it (keekstar mix) -Rockin' Night Style-:
     Challenge:
     17:
     0,0,0,0,0:
0000
0000
0000
0000
,
0000
0000
0000
0000
,
0000
0000
0000
0000
1000
0010
0100
0001
,
2000
0000
0000
0000
3100
0000
0010
0000
0002
0000
0000
0000
0103
0000
0001
1000
,
0020
0000
0000
0000
2030
3002
0023
0230
0302
0000
0000
0000
0000
0000
0000
0000
,
2003
3020
0032
0203
2300
0000
0000
0000
,
3002
0000
0000
0000
0023
0000
0000
0000
2030
0000
0000
0000
3200
0000
0000
0000
0310
0000
0000
0000
0001
0000
1000
0000
0010
0000
0000
0000
0100
0000
0001
0100
,
0001
0000
0000
0000
1000
0000
0001
0000
0010
0000
0000
0000
0100
0000
0000
0000
1100
0000
0000
0000
1000
0000
0010
0000
0100
0000
0000
0000
0001
1000
0001
2000
,
0002
0000
0000
3003
,
1000
0001
0100
0001
0100
0010
1000
0001
0010
0100
0001
0100
0010
0000
0001
0100
,
0010
0000
1000
0001
0010
0100
1000
0100
0010
0001
1000
0010
0100
0000
0010
0100
,
0001
1000
0100
1000
0100
0010
0001
1000
0010
0100
1000
0100
0010
0000
1000
0100
,
0010
0000
0001
1000
0010
0100
0001
0100
0010
1000
0001
1000
0001
0010
0100
0000
,
1000
0001
0100
0001
1000
0100
1000
0001
0010
0001
1000
0010
0100
0001
0010
0100
,
1000
0010
1000
0001
0010
0001
1000
0100
1000
0001
0100
0010
1000
0100
0010
0001
,
1000
0010
0100
0010
1000
0100
0010
0100
1000
0001
0100
0010
0100
0001
0010
0100
,
0010
0001
1000
0010
0100
0001
1000
0100
0010
1000
0010
0100
0010
0001
1000
0010
,
0002
0000
0000
0000
0000
0023
2030
3200
,
0310
0000
0001
0100
0001
0000
1000
0000
0001
0010
0001
0000
0100
0000
0010
0000
,
1000
0000
0100
0010
0000
0100
1000
0000
0001
0000
0100
0010
0000
0100
0001
0000
,
0021
0000
2030
3002
0203
0000
2300
3002
,
0203
0000
2300
3002
2003
3200
0302
0023
,
0130
0000
1000
0010
1000
0000
0001
0000
1000
0100
1000
0000
0001
1000
0010
0100
,
0001
0000
0101
0000
1010
0000
1001
0000
1100
0000
0011
0000
,
2001
0000
0000
3010
0100
0000
0001
0000
1000
0100
0010
0100
0001
0000
2000
0000
,
0000
0000
3010
0100
1000
0000
0010
0000
0100
1000
0100
0010
2000
0000
0000
0000
,
3001
0010
0100
0010
0001
0010
0100
0010
0001
0010
0100
0010
0001
1000
0010
0100
,
0001
1000
0100
1000
0100
0010
0001
1000
0010
1000
0010
0100
0001
1000
0100
0010
,
0001
0100
0001
0100
0010
1000
0001
0010
0001
0010
0100
1000
0001
0100
0010
1000
,
0100
0000
0010
0001
0000
0100
0010
0000
1000
0100
0010
0001
0010
0100
1000
0000
,
0001
1000
0010
0100
0010
1000
0001
1000
0010
0100
0010
1000
0100
0010
0001
1000
,
0010
0100
1000
0100
0010
0100
1000
0100
0010
1000
0001
0010
0001
0100
0010
1000
,
0001
0010
0100
0001
0100
0010
0100
0001
0100
0010
0001
1000
0010
1000
0100
0010
,
0001
1000
0010
0100
1000
0001
0010
0100
0002
0000
0000
0000
0000
0000
0000
0000
,
1003
0000
0001
0100
0010
0000
1000
0000
0001
0010
0000
0010
0100
0000
1000
0000
,
0001
0000
1000
0010
0100
0000
0001
0000
1000
0100
0000
0100
0010
0000
0000
0000
,
0120
0000
0000
0000
0032
0000
1000
0000
0203
0010
0000
0000
2000
0000
3300
0000
,
1200
0000
0000
0000
0310
1000
0001
0000
1000
0100
0010
0001
1000
0000
0001
0100
,
0020
0000
0000
0000
2030
0000
0001
0000
3200
0010
0000
0000
0002
0000
0303
0000
,
0201
0000
0000
0000
1300
0001
0100
0000
0010
1000
0000
1000
0001
0000
0010
0000
,
0210
0000
0000
0000
1300
0000
0001
0000
0100
0010
0200
0000
2300
0000
3002
0000
,
0023
0000
0000
0000
1030
0000
0100
0000
0010
0001
0000
0001
1000
0000
0010
1000
,
0001
0100
0001
0010
0100
1000
0010
1000
0001
0100
0001
0010
0100
1000
0010
1000
,
0001
0010
2000
0000
3001
0100
2000
0000
3001
0100
0020
0000
1030
0001
0010
0001
,
1000
0100
1000
0010
0100
0001
0010
0001
1000
0100
1000
0010
0100
0001
0010
0001
,
1000
0010
0002
0000
1003
0100
0002
0000
0013
0100
0010
0100
2000
0000
0000
0000
,
3001
0100
0001
1000
0100
1000
0001
0010
0001
1000
0010
0100
1000
0100
0010
1000
,
0001
0010
0001
1000
0010
1000
0001
0100
0001
1000
0100
0010
0100
0001
0100
0010
,
0001
1000
0010
0100
0010
1000
0001
1000
0100
0010
0001
1000
0010
0100
0010
0001
,
2000
0000
0000
0000
3200
0302
2003
0000
,
3001
0000
0000
0000
0000
0000
1002
0000
0023
0000
0230
0000
2300
0000
3010
0100
,
0001
1000
0100
0001
0100
1000
0010
0001
0010
1000
0001
0010
0100
0001
0100
1000
,
0010
0000
0000
0000
0010
0000
2001
0000
3020
0000
0230
0000
0302
0000
0013
0100
,
1000
0001
0100
1000
0100
0001
0010
1000
0010
0001
1000
0010
0100
1000
0100
0001
,
0010
0000
0000
0000
0010
0000
1002
0000
0023
0000
0230
0000
2300
0000
3010
0100
,
0001
1000
0100
0001
1000
0010
0001
1000
0010
0110
0000
0000
,
0002
0010
0000
0000
2003
0100
0000
0000
3002
0100
0000
0000
1003
0000
0001
0010
,
0100
1000
0010
0100
0001
1000
0100
0010
0200
0000
0001
0000
0010
0000
1300
0000
,
2002
0000
0000
0000
,
0000
0000
0000
0000
,
3003
0000
0000
0000
;

//--------------- dance-double - kay ----------------
#NOTES:
     dance-double:
     kay:
     Easy:
     7:
     0,0,0,0,0:
00000000
00000000
00000000
00000000
,
00000000
00000000
00000000
00000000
,
00000000
00000000
10000000
01000000
,
00100000
00010000
02000000
00000000
,
03001000
00000000
00022000
00033000
,
00010000
00000100
00010000
00000100
00002000
00000000
00003000
00000000
,
00000001
00000100
00000001
00000100
00000020
00000000
00000030
00001000
,
00000100
00000000
00010000
00001000
00010000
00000000
00000000
00000000
,
00022000
00000000
00000000
00033000
,
00001000
01000000
00010000
00010000
,
01000000
00010000
00100000
00001000
,
00010000
00000100
00001000
00001000
,
00000100
00001000
00000002
00000000
,
00000103
00001000
00010000
00000000
,
00001000
00010000
00100000
00000000
,
10000000
01000000
00100000
00010000
,
01000000
00100000
00010000
00001000
,
00022000
00000000
00033000
00000000
,
00010000
00000100
00001000
00000000
,
00000001
00000001
00000100
00000000
,
00002000
00000000
00023000
00000000
,
00230000
00000000
00320000
00000000
,
00031000
01000000
00010000
00000000
,
10000000
10000000
01000000
00000000
,
00020000
00000000
00031000
00000000
,
00010000
00000100
00001000
00000000
,
00000001
00000100
00000010
00001000
,
00000010
00010000
00001000
00000100
,
00001000
00010000
00001000
00010000
,
02000000
00000000
13000000
00000000
,
10000000
00100000
01000000
00010000
,
01000000
00001000
00010000
00100000
,
00010000
00001000
00010000
00001000
,
00000020
00000000
00000000
00000000
,
00000032
00000000
00000000
00002003
,
00003020
00000000
00000000
00000000
,
00020030
00032000
00023000
00032000
,
00203000
00000000
00000000
00000000
,
00320000
02030000
03200000
20300000
,
32000000
00000000
03200000
00320000
,
20030000
00000000
00000000
30020000
,
02030000
00000000
03002000
00000000
,
00013000
00000010
00000100
00000010
,
00001000
00000001
00000010
00001000
,
00010000
00100000
10000000
00010000
,
00100000
01000000
00100000
00001000
,
00020000
00000000
00000010
00000000
,
00032000
00000000
00100000
00000000
,
00013000
00000100
00000010
00000001
,
00002000
00000000
00000000
00000000
,
00003010
00000000
00000000
00000010
00000000
00000000
00000000
00000000
,
00001000
00000010
00010000
00001000
,
01000000
00000000
00000000
01000000
00000000
00000000
00000000
00000000
,
00010000
00100000
00001000
00010000
,
00000100
00000000
00000000
00000100
00000000
00000000
00000000
00000000
,
00001000
00000010
00010000
00000000
,
00002000
02003000
03200000
20300000
,
32000000
00000000
00200000
03300000
,
20020000
00000000
00000000
00000000
,
00000000
00000000
00000000
00000000
,
30030000
00000000
00000000
00000000
;

//--------------- dance-double - kay ----------------
#NOTES:
     dance-double:
     kay:
     Medium:
     12:
     0,0,0,0,0:
00000000
00000000
00000000
00000000
,
00000000
00000000
00000000
00000000
,
00000000
00000000
00000000
00000000
20000000
00000000
30100000
01000000
,
00020000
00000000
00000000
00000000
10030000
00000000
01000000
00000000
00200000
00000000
00000000
00000000
00000000
00000000
00301000
00010000
,
00001000
00000000
00000000
00000000
00001000
00010000
00001000
00010000
00000020
00000000
00000000
00000000
00000000
00000000
00000000
00000000
,
00020030
00032000
02003000
03020000
00230000
00000000
00000000
00000000
,
00302000
00000000
00023000
00000000
00030200
00000000
00002300
00000000
00003020
00000000
00000000
00000000
00000130
00000000
00000001
00001000
,
00000002
00000000
00000000
00000000
00000013
00000000
00000100
00000000
00002000
00000000
00000000
00000000
00003010
00000000
00010000
00001000
,
00020000
00000000
00000000
00000000
,
00031000
00000000
01000000
00000000
00010000
10000000
00000000
00000000
01000000
00000000
00100000
00010000
00000000
00000000
00100000
00010000
,
00000000
00000000
01000000
00000000
00100000
10000000
00000000
00000000
01000000
00000000
00010000
00000000
00002000
00000000
00000000
00000000
,
00013000
00000000
00000100
00000000
00001000
00000001
00000000
00000000
00000100
00000000
00000010
00001000
00000000
00000000
00000010
00001000
,
00000000
00000000
00000100
00000000
00000010
00000001
00000000
00000000
00001000
00000000
00000010
00000000
00020000
00000000
00000000
00000000
,
00031000
00000000
01000000
00010000
00000000
01000000
00100000
00000000
10000000
00000000
01000000
00000000
00100000
00000000
00001000
00000000
,
00010000
00000000
00000100
00001000
00000000
00000100
00000010
00000000
00000001
00000000
00000100
00000000
00000010
00000000
00010000
00000000
,
00001000
01000000
00010000
01000000
00010000
10000000
01000000
10000000
,
01000000
00100000
00001000
00010000
00000010
00000100
00000001
00000000
,
00002002
00000000
00000000
00003003
,
00001000
00000100
00000001
00000100
00001000
00000010
00000200
00000000
,
00000301
00000000
00000000
00001000
00000100
00000000
00000010
00000000
00000001
00000000
00000000
00000100
00000010
00000000
00010000
00000000
,
00021000
00000000
02030000
00000000
,
23000000
00000000
30200000
02300000
,
03010000
10000000
01000000
00010000
01000000
10000000
00010000
00000000
,
10000000
00000000
00000000
00010000
01000000
00000000
00100000
00000000
10000000
00000000
00000000
01000000
00100000
00000000
00001000
00000000
,
00021000
00000000
00030100
00000010
00000001
00000100
00001000
00000002
,
00000000
00000000
00000013
00000000
00001000
00000000
00000100
00000000
00000010
00000001
00000000
00000000
00001001
00000000
00000000
00000000
,
00001000
00000010
00010000
00001000
00010000
00000100
00001000
00000100
,
00000010
00000001
00000100
00001000
00000100
00000001
00000010
00000100
,
00001000
00000010
00000001
00000010
00001000
00000001
00000010
00000100
,
00010000
00000000
00001000
00010000
00000000
00010000
00001000
00000000
01000000
00000000
00010000
00000000
20000000
00000000
00000000
00000000
,
30010000
00100000
00001000
00010000
00001000
01000000
00010000
01000000
,
00100000
10000000
01000000
00010000
01000000
10000000
00100000
01000000
,
00010000
00100000
10000000
00100000
00010000
10000000
00100000
01000000
,
00001000
00010000
00000100
00000010
00000002
00000000
00000000
00000000
,
00001003
00000010
00020000
00000000
00031000
00000000
01010000
00000000
,
00010000
00100000
00002000
00000000
00013000
00000000
00001100
00000000
,
00001000
00000010
00000001
00000010
00001000
00000100
00000001
00000100
,
00002000
00000000
00000000
00000000
00003010
00000000
00010000
00000000
00001000
00010000
00001000
00000000
01000000
00000000
00000000
00000000
,
00010000
00100000
10000000
00100000
00010000
01000000
10000000
01000000
,
00020000
00000000
00000000
00000000
00130000
00000000
00001000
00000000
00010000
00001000
00010000
00000000
00000100
00000000
00000000
00000000
,
00002100
00000000
00003001
00000100
00000010
00010000
00001000
01000000
,
00020000
00000000
10030000
01000000
00100000
00001000
00020000
00000000
,
00031000
00000000
01000000
00000000
00000000
00010000
00100000
00000000
00001000
00000000
01000000
00000000
00000000
00010000
00100000
00000000
,
01000000
00010000
00001000
00010000
00100000
00010000
00002000
00000000
,
00013000
00000000
00000010
00000000
00000000
00001000
00000100
00000000
00010000
00000000
00000010
00000000
00000000
00001000
00000100
00000000
,
00000010
00001000
00010000
00001000
00000100
00001000
00020000
00000000
,
00031000
00000000
00100000
00010000
00000000
00010000
00100000
00000000
01000000
00000000
10000000
00000000
00020000
00000000
00000000
00000000
,
01030000
00000000
00001000
00010000
00000000
00001000
00010000
00000000
00000100
00000000
00000100
00000000
00000100
00000000
00000000
00000000
,
00010000
00000000
00000010
00001000
00000000
00001000
00000010
00000000
00000100
00000000
00000001
00000000
00000010
00000000
00000100
00000000
,
00002000
00000000
00000000
00000000
00003010
00000100
00000001
00000000
,
00001001
00000000
00000000
00011000
00000000
00000000
00000000
00010000
,
01000000
10000000
00100000
00010000
00100000
10000000
00010000
00000000
,
10010000
00000000
00000000
00011000
00000000
00000000
00000000
00001000
,
00000100
00000001
00000010
00001000
00000010
00000001
00001000
00000000
,
00001001
00000000
00000000
00011000
00000000
00000000
00000000
00010000
,
01000000
00000000
00000000
10000000
00100000
10000000
00100000
01000000
00010000
10000000
00000000
00000000
,
20010000
32000000
03020000
00032000
,
00013000
00000100
00000010
00000001
00000100
00001000
00001000
00001000
,
00022000
00000000
00000000
00000000
,
00000000
00000000
00000000
00000000
,
00033000
00000000
00000000
00000000
;

//--------------- dance-double - kay ----------------
#NOTES:
     dance-double:
     kay:
     Hard:
     15:
     0,0,0,0,0:
00000000
00000000
00000000
00000000
,
00000000
00000000
00000000
00000000
,
00000000
00000000
00000000
00000000
10000000
01000000
00100000
00100000
,
00010000
00000000
01000000
00100000
20000000
00000000
00000000
31000000
,
00010000
00000000
00001000
00010000
00200000
00000000
00000000
00000000
,
00310000
00001000
00010000
00001000
00000020
00000000
00000000
00000000
,
00001030
00000000
00010000
00000000
00001000
00000000
00010000
00000000
00200000
00000000
00000000
00000000
10300000
00000000
01000000
00100000
,
00020000
00000000
00000000
00000000
00130000
00000000
00001000
00000000
00020000
00000000
00000000
00000000
00030100
00000000
00001000
00000002
,
00002000
00000000
00000000
00003003
,
00000001
00000000
00000010
00000000
00000001
00001000
00000001
00000000
00000100
00000000
00000001
00001000
00000001
00000000
00000010
00000100
,
00001000
00000000
00000010
00000000
00010000
00001000
00010000
00000000
00001000
00000000
01000000
00000000
00020000
00000000
00000000
00000000
,
10030000
00000000
00100000
00000000
10000000
00010000
10000000
00000000
01000000
00000000
10000000
00010000
10000000
00000000
00100000
01000000
,
00010000
00000000
00100000
00000000
00001000
00010000
00001000
00000000
00010000
00000000
00000100
00000000
00002000
00000000
00000000
00000000
,
00003001
00000000
00000100
00000010
00000000
00000010
00001000
00000000
00000100
00000000
00010000
00001000
00010000
00001000
00010000
00000000
,
00001000
00000000
00100000
01000000
00000000
01000000
10000000
00000000
00100000
00000000
00010000
00001000
00010000
00001000
00010000
00000000
,
00000100
00000000
00001000
00000000
00000100
00000000
00001000
00000000
00000001
00000000
00000100
00000001
00000000
00000001
00000100
00000000
,
00000010
00000000
00010000
00000000
00001000
00000000
01000000
00000000
00100000
10000000
00010000
00000000
00100000
01000000
10000000
00000000
,
20020000
00000000
00000000
30030000
,
00010000
01000000
00100000
10000000
01000000
00010000
01000000
00100000
,
00002000
00000000
00000000
00010000
00000000
00000000
00013000
00000000
00200000
00000000
00000000
00010000
00000000
00000000
00310000
00000000
,
00001000
00000000
00000000
00100000
00000000
00000000
01000000
00000000
10000000
00010000
00000000
00010000
01000000
00000000
00001000
00000000
,
00010000
00000000
00000000
00000100
00000000
00000000
00000010
00000000
00000001
00001000
00000000
00001000
00000010
00000000
00000010
00000000
,
00001000
00000100
00000010
00000001
00000100
00001000
00000100
00000010
,
00020000
00000000
00000000
00001000
00000000
00000000
00031000
00000000
00000020
00000000
00000000
00001000
00000000
00000000
00001030
00000000
,
00010000
00000000
00000010
00000000
00000100
00000000
00000001
00000000
00001000
00000100
00001000
00000100
00010000
00000000
00002000
00000000
,
00000000
00000000
00103000
00000000
01000000
00000000
10000000
00000000
00010000
01000000
00010000
01000000
00002000
00000000
00000000
00000000
,
00013000
00000010
00000000
00001000
00000010
00000000
00010000
00000000
00000100
00001000
00000100
00000000
00000010
00000000
00000001
00000000
,
00001000
00000010
00000000
00010000
00001000
00000000
01000000
00000000
00010000
00100000
00000000
00001000
00020000
00000000
00000000
00000000
,
00030100
00001000
00000100
00000000
00000010
00000000
00000001
00001000
00000001
00000000
00000100
00000000
00001000
00000000
00010000
00000000
,
00100000
00000000
10000000
01000000
00000000
01000000
00100000
00000000
00001000
00010000
00001000
00000000
00020000
00000000
00000000
00000000
,
00031000
01000000
00010000
01000000
00001000
00000000
00001000
00000000
00100000
00010000
00100000
00000000
01000000
00000000
10000000
00000000
,
00010000
01000000
00000000
00001000
00010000
00000000
00000010
00000000
00001000
00000100
00000000
00010000
00002000
00000000
00000000
00000000
,
00013000
00000100
00001000
00000100
00010000
00000000
00010000
00000000
00000010
00001000
00000010
00000000
00000100
00000000
00000001
00000000
,
00000020
00002030
00023000
00130000
01200000
00000000
00000000
00000000
,
10300000
00000000
01000000
00000000
00100000
00000000
00010000
00000000
01000000
00001000
00000000
00001000
00010000
00000000
00100000
00000000
,
10000000
00010000
10000000
00000000
01000000
00000000
00100000
00000000
00001000
00010000
00000000
00010000
00000100
00000000
00000000
00000000
,
00002000
00003001
00000200
00001300
00020000
00031000
00000020
00000031
,
00002001
00000000
00000000
00000000
00003010
00010000
00001000
00000000
00010000
00001000
00010000
00001000
01000000
00000000
00010000
10000000
,
00020000
10030000
02000000
03010000
00002000
00013000
00200000
10300000
,
10020000
00000000
00000000
00000000
00130000
00000000
00001000
00000000
00010000
00000100
00001000
00000000
00000001
00000000
00000100
00000010
,
00000200
00000000
00000000
00000000
00001300
00000000
00010000
00000000
00001000
01000000
00010000
00000000
10000000
00000000
01000000
00000000
,
02100000
00000000
00000000
00000000
03010000
00000000
00001000
00000000
00010000
00001000
00000000
00001000
00020000
00000000
00000000
00000000
,
00030010
00000000
00000100
00000000
00001000
00010000
00001000
00000000
00100000
00000000
01000000
00000000
00010000
00001000
00010000
00000000
,
00002000
02003000
23000000
32000000
03020000
20030000
30020000
00000000
,
00130000
00000000
01000000
00000000
00010000
00001000
00010000
00000000
00000010
00000000
00000100
00000000
00001000
00010000
00001000
00000000
,
00020000
00000000
00030200
00000000
00000302
00000000
00000203
00000000
00001300
00000001
00001000
00000001
00000100
00000000
00000010
00000000
,
00001000
00000000
00000001
00000010
00000000
00000010
00000100
00000000
00010000
00001000
00010000
00001000
00100000
00010000
00100000
00000000
,
00010000
00000000
10000000
00100000
00000000
00100000
01000000
00000000
00001000
00010000
00001000
00010000
00000010
00001000
00000010
00000000
,
00001000
00000000
00000001
00000010
00000000
00000010
00000100
00000000
00001000
00000010
00001000
00000010
00010000
00001000
00010000
00001000
,
02000000
00000000
00000000
00000000
03100000
00100000
20100000
00000000
,
30010000
00000000
00000000
20010000
32000000
03020000
00032000
00003020
,
00000032
00000000
00000000
00000000
00000000
00000000
00000103
00000000
00001000
00000000
00010000
00000000
00000100
00000010
00000000
00000010
,
00000001
00000000
00000000
00001002
00000203
00002300
00023000
00230000
,
20300000
00000000
00000000
00000000
00000000
00000000
31000000
00000000
00010000
00000000
00000000
00001000
00000000
00000000
00010000
00000000
,
00100000
00000000
00000000
20010000
32000000
03020000
00032000
00003200
,
00000302
00000000
00000000
00000000
00000000
00000000
00000000
00000000
00000000
00000000
00000000
00000000
00001003
00000000
00000000
00000000
00000100
00000000
00000000
00000000
00000010
00000000
00000000
00000000
00000001
00000000
00000000
00000000
00000100
00000000
00000000
00000000
00001000
00000000
00000000
00000000
00010000
00000000
00000000
00000000
00000000
00000000
00000000
00000000
00000000
00100000
00000000
00000000
,
20000000
32000000
03200000
00302000
,
00013000
00000000
00000100
00000000
00000010
00000000
00000001
00001000
00000001
00000000
00000100
00000000
00001000
00000000
00001000
00000000
,
00022000
00000000
00000000
00000000
,
00000000
00000000
00000000
00000000
,
00033000
00000000
00000000
00000000
;

//--------------- dance-double - kay ----------------
#NOTES:
     dance-double:
     kay:
     Challenge:
     17:
     0,0,0,0,0:
00000000
00000000
00000000
00000000
,
00000000
00000000
00000000
00000000
,
00000000
00000000
00000000
00000000
10000000
01000000
00100000
00010000
,
02000000
00000000
00000000
00000000
03001000
00000000
00010000
00000000
00022000
00000000
00000000
00000000
00033000
00000000
00010000
00000100
,
00002000
00000000
00000000
00000000
00003001
00000100
00000010
00000100
00002000
00000000
00000000
00000000
00000000
00000000
00000000
00000000
,
00023000
00230000
20300000
32000000
03020000
00000000
00000000
00000000
,
00032000
00000000
00000000
00000000
00003200
00000000
00000000
00000000
00000302
00000000
00000000
00000000
00000023
00000000
00000000
00000000
00001030
00000000
00000000
00000000
00010000
00000000
00001000
00000000
00010000
00000000
00000000
00000000
00000010
00000000
00001000
00000010
,
00001000
00000000
00000000
00000000
00000010
00000000
00010000
00000000
00001000
00000000
00000000
00000000
00011000
00000000
00000000
00000000
00010000
00000000
00000000
00000000
00001000
00000000
00100000
00000000
00010000
00000000
00000000
00000000
10000000
00010000
10000000
00020000
,
20000000
00000000
00000000
30030000
,
10000000
00100000
10000000
00100000
01000000
00010000
10000000
01000000
00100000
00000000
01000000
00010000
00001000
00000000
00010000
00001000
,
00000010
00000000
00000001
00001000
00000010
00001000
00000001
00000010
00000100
00000000
00010000
00001000
00010000
00000000
00000010
00001000
,
00000001
00000010
00000001
00000010
00000100
00001000
00000001
00000100
00000010
00000000
00000100
00001000
00010000
00000000
00001000
00010000
,
00100000
00000000
10000000
00010000
00100000
00010000
10000000
00100000
01000000
00000000
00001000
00010000
00001000
00010000
00001000
00000000
,
01000000
00010000
01000000
00001000
00010000
00001000
00100000
00010000
00100000
01000000
10000000
00100000
01000000
00001000
00020000
00000000
,
00030010
00001000
00000010
00010000
00001000
00010000
00000100
00001000
00000100
00000010
00000001
00000100
00000010
00010000
00002000
00000000
,
01003000
00010000
00100000
00010000
01000000
00010000
00100000
00001000
00010000
00000100
00001000
00000010
00001000
00000100
00001000
00000010
,
00010000
00001000
00010000
00001000
01000000
00010000
01000000
00100000
10000000
00010000
00100000
01000000
00010000
00001000
00000010
00000100
,
00002000
00000000
00000000
00000000
00000000
00003002
00000203
00000320
,
00010030
00000000
00000100
00000010
00000100
00000000
00010000
00000000
00000010
00000100
00000010
00000000
00002000
00000000
00003001
00000000
,
00000010
00000000
00000010
00001000
00000000
00001000
00010000
00000000
00001000
00000000
00001000
00010000
00000000
00010000
00100000
00000000
,
20100000
00000000
32000000
03020000
00032000
00000000
02003000
23000000
,
30020000
00000000
20030000
32000000
03020000
20030000
32000000
03200000
,
00301000
00000000
01000000
00100000
01000000
00000000
00001000
00000000
00100000
01000000
00100000
00000000
00020000
00000000
10030000
00000000
,
10100000
00000000
10010000
00000000
00110000
00000000
00011000
00000000
00001010
00000000
00000011
00000000
,
00002001
00000000
00000000
00003010
00000100
00000000
00000001
00000000
00001000
00000100
00000010
00000001
00000100
00000000
00002000
00000000
,
00000000
00000000
00013000
00100000
01000000
00000000
00010000
00000000
10000000
01000000
00100000
00010000
20000000
00000000
00000000
00000000
,
30100000
01000000
00010000
01000000
00001000
01000000
00010000
01000000
00100000
10000000
00010000
00100000
01000000
00010000
00001000
00010000
,
00001000
00000010
00000100
00001000
00000001
00000100
00000010
00001000
00000010
00001000
00000001
00000010
00000100
00001000
00000100
00010000
,
00001000
00010000
00001000
00000100
00000010
00001000
00000001
00000010
00000001
00000010
00000100
00001000
00000001
00000100
00000010
00010000
,
00001000
00000000
00010000
00001000
00000000
00001000
00010000
00000000
00001000
00100000
01000000
10000000
01000000
00100000
00002000
00000000
,
00013000
00100000
00010000
00001000
00010000
00100000
00010000
00001000
00010000
00100000
01000000
00001000
01000000
00001000
00020000
00000000
,
00031000
00000010
00001000
00010000
00001000
00000010
00001000
00010000
00000100
00010000
00000100
00001000
00000001
00000100
00000001
00000100
,
00000010
00001000
00000100
00001000
00000010
00010000
00001000
00010000
00001000
00100000
00010000
01000000
00010000
00100000
00001000
00010000
,
00001000
00010000
00100000
01000000
00010000
00100000
01000000
10000000
00020000
00000000
00000000
00000000
00000000
00000000
00000000
00000000
,
10030000
00000000
00010000
01000000
00100000
00000000
10000000
00000000
01000000
00010000
00000000
00010000
00001000
00000000
00000010
00000000
,
00000001
00000000
00001000
00000100
00000010
00000000
00000001
00000000
00000100
00001000
00000000
00001000
00020000
00000000
00000000
00000000
,
02030000
00000000
00000000
00000000
23000000
00000000
00010000
00000000
30200000
01000000
00000000
00000000
00320000
00000000
00030000
00000000
,
00012000
00000000
00000000
00000000
00103000
00010000
00100000
00000000
00001000
00010000
00000000
00001000
00010000
00000000
00000010
00000000
,
00000210
00000000
00000000
00000000
00000302
00000000
00001000
00000000
00000023
00000100
00000000
00000000
00002030
00000000
00003000
00000000
,
00021000
00000000
00000000
00000000
00030010
00000000
00000100
00000000
00001000
00010000
00001000
00000000
00010000
00000000
01000000
00100000
,
00020000
00000000
00000000
00000000
10030000
00000000
00100000
00000000
01000000
00100000
01000000
00000000
20000000
00000000
30020000
00000000
,
00230000
00000000
00000000
00000000
01300000
00000000
00001000
00000000
00010000
00001000
00000000
00010000
00001000
00000000
00000010
00000001
,
00001000
00000100
00001000
00000010
00000100
00000001
00000010
00000001
00001000
00000100
00001000
00000010
00000100
00000001
00001000
00000100
,
00010000
00001000
00000020
00000000
00000130
00010000
00002000
00000000
00003100
00000010
00020000
00000000
00031000
01000000
00100000
10000000
,
00010000
00100000
00010000
01000000
00100000
10000000
01000000
10000000
00010000
00100000
00010000
01000000
00100000
10000000
00010000
00100000
,
00001000
00010000
02000000
00000000
03100000
00001000
00020000
00000000
00130000
01000000
00001000
00010000
00001000
00010000
00000010
00000100
,
00000001
00000000
00001000
00000100
00000000
00000010
00000001
00000000
00000100
00001000
00010000
00001000
00010000
01000000
00100000
00010000
,
10000000
00000000
00010000
01000000
00000000
00100000
10000000
00000000
01000000
00010000
00001000
00010000
00001000
00000100
00000010
00001000
,
00000001
00000000
00001000
00000100
00000000
00000010
00000001
00000000
00000100
00001000
00000100
00001000
00010000
00100000
00010000
00100000
,
20000000
00000000
00000000
00000000
00000000
00000000
31000000
00100000
00010000
00000000
01000000
00000000
00002000
00000000
00000000
00000000
,
00013000
00000000
00000000
00012000
00003020
00000032
00000203
00000320
,
00010030
00001000
00000010
00001000
00010000
00000010
00001000
00000010
00010000
00001000
00000010
00001000
00010000
00000010
00001000
00000010
,
00010000
00000000
00000000
00021000
02030000
23000000
30200000
02300000
,
03001000
00010000
01000000
00010000
00001000
01000000
00010000
01000000
00001000
00010000
01000000
00010000
00001000
01000000
00010000
01000000
,
00001000
00000000
00000000
00000000
00000000
00000000
00021000
00000000
00030020
00000000
00000230
00000000
00000302
00000000
00001003
00000100
,
00000010
00000001
00000100
00001000
00010000
00001000
00010000
01000000
10000000
00010000
00000000
00000000
,
02000000
00010000
00000000
00000000
03002000
00010000
00000000
00000000
00203000
00010000
00000000
00000000
01300000
00000000
10000000
00010000
,
01000000
00100000
00010000
00001000
00000100
00000010
00001000
00000001
00000020
00000000
00001000
00000000
00000100
00000000
00000031
00000000
,
00002002
00000000
00000000
00000000
,
00000000
00000000
00000000
00000000
,
00003003
00000000
00000000
00000000
;
