#VERSION:0.83;
#TITLE:Nightmare Wizard ~BVG eurobeat arrange~;
#SUBTITLE:;
#ARTIST:安藤浩和;
#TITLETRANSLIT:;
#SUBTITLETRANSLIT:;
#ARTISTTRANSLIT:Hirokazu Ando;
#GENRE:SUPER KIRBYBEAT;
#ORIGIN:;
#CREDIT:;
#BANNER:Nightmare Wizard ~BVG eurobeat arrange~.png;
#BACKGROUND:Nightmare Wizard ~BVG eurobeat arrange~-bg.png;
#PREVIEWVID:;
#JACKET:Nightmare Wizard ~BVG eurobeat arrange~-jacket.png;
#CDIMAGE:;
#DISCIMAGE:;
#LYRICSPATH:;
#CDTITLE:;
#MUSIC:Nightmare Wizard ~BVG eurobeat arrange~.ogg;
#OFFSET:-0.392000;
#SAMPLESTART:31.952999;
#SAMPLELENGTH:12.680000;
#SELECTABLE:YES;
#BPMS:0.000=152.000;
#STOPS:;
#DELAYS:;
#WARPS:;
#TIMESIGNATURES:0.000=4=4;
#TICKCOUNTS:0.000=4;
#COMBOS:0.000=1;
#SPEEDS:0.000=1.000=0.000=0;
#SCROLLS:0.000=1.000;
#FAKES:;
#LABELS:0.000=Song Start;
#BGCHANGES:;
#KEYSOUNDS:;
#ATTACKS:
;

//---------------dance-single - ----------------
#NOTEDATA:;
#CHARTNAME:;
#STEPSTYPE:dance-single;
#DESCRIPTION:;
#CHARTSTYLE:;
#DIFFICULTY:Beginner;
#METER:3;
#RADARVALUES:0.177129,0.234929,0.008157,0.065258,0.000000,152.000000,151.000000,1.000000,8.000000,0.000000,0.000000,0.000000,0.000000,0.000000,0.177129,0.234929,0.008157,0.065258,0.000000,152.000000,151.000000,1.000000,8.000000,0.000000,0.000000,0.000000,0.000000,0.000000;
#CREDIT:BlindedVanguard573;
#NOTES:
0000
0000
0000
0000
,
0000
0000
0000
0000
,
0000
0000
0000
0000
,
0000
0000
0000
0000
,
0001
0000
0010
0010
,
0010
0000
0100
0000
,
1000
0000
0001
0001
,
0001
0000
0100
0000
,
0010
0000
1000
1000
,
1000
0000
0100
0000
,
0010
0000
0001
0001
,
0001
0001
0001
0001
,
0001
0000
0010
0000
,
0100
0000
1000
1000
,
1000
0000
0001
0000
,
0100
0000
0010
0010
,
0010
0000
1000
0000
,
0100
0000
0001
0001
,
0001
0000
0100
0000
,
0010
0010
0010
0010
,
0010
0000
0001
0001
,
0001
0000
0100
0000
,
0010
0000
1000
1000
,
1000
0000
0001
0001
,
0001
0000
0010
0010
,
0010
0000
0100
0000
,
1000
0000
0001
0001
,
0001
0001
0001
0000
,
1000
1000
1000
0000
,
0010
0010
0010
0000
,
0100
0100
0100
0000
,
0001
0001
0001
0001
,
0001
0001
0001
0000
,
0010
0010
0010
0000
,
0100
0100
0100
0000
,
1000
1000
1000
1000
,
1000
0000
0000
0000
,
0001
0000
0000
0000
,
0200
0000
0000
0000
,
0300
0000
0000
0000
,
0020
0000
0030
0000
,
0200
0000
0300
0000
,
0002
0000
0000
0000
,
0003
0000
0000
0000
,
0020
0000
0030
0000
,
0200
0000
0300
0000
,
1000
1000
1000
1000
,
0000
0000
0000
0000
,
0001
0000
0000
0000
,
0100
0000
0000
0000
,
0010
0000
0000
0000
,
1000
0000
0000
0000
,
0001
0000
0000
0000
,
0010
0000
0000
0000
,
0100
0000
0000
0000
,
1000
1000
1000
0000
,
0010
0010
0010
0000
,
0100
0100
0100
0000
,
0001
0001
0001
0000
,
1000
1000
1000
0000
,
0100
0100
0100
0000
,
0010
0010
0010
0000
,
0001
0001
0001
0000
,
1000
1000
1000
1000
,
1000
0000
0000
0000
,
0010
0000
0000
0000
,
0100
0100
0100
0000
,
0010
0010
0010
0010
,
0010
0000
0100
0000
,
0010
0000
0000
0000
,
2002
0000
0000
0000
,
0000
0000
0000
0000
,
3003
0000
0000
0000
;

//---------------dance-single - ----------------
#NOTEDATA:;
#CHARTNAME:;
#STEPSTYPE:dance-single;
#DESCRIPTION:;
#CHARTSTYLE:;
#DIFFICULTY:Easy;
#METER:9;
#RADARVALUES:0.371739,0.438012,0.122359,0.195775,0.101966,319.000000,304.000000,15.000000,24.000000,6.000000,0.000000,0.000000,0.000000,0.000000,0.371739,0.438012,0.122359,0.195775,0.101966,319.000000,304.000000,15.000000,24.000000,6.000000,0.000000,0.000000,0.000000,0.000000;
#CREDIT:Highflyer & BlindedVanguard573;
#NOTES:
0000
0000
0000
0000
,
0000
0000
0000
0000
,
0000
0000
0000
0000
,
0000
0000
0000
0000
,
0001
0010
0100
1000
,
0100
0010
0001
1000
,
0001
0100
0010
1000
,
0010
0000
0100
0000
0001
1000
0001
0000
,
1000
0100
0001
0100
,
0010
0001
1000
1001
,
0001
0100
0010
0100
,
1000
0000
0100
0000
0001
0000
0010
0010
,
0100
0000
0010
0000
0001
0000
1000
0010
,
2000
0000
0000
3000
0001
0010
0001
1000
,
0000
0010
0100
0000
0010
0000
1000
0000
,
0002
2000
3003
0000
,
0001
0000
0010
0000
0100
0000
1000
0010
,
0200
0000
0000
0300
0010
1000
0001
1000
,
0000
0001
0010
0000
0100
0000
0010
0000
,
0002
2003
3020
0230
,
0301
0000
0000
0000
0010
0000
0000
0100
0000
1000
0000
0000
0001
0000
0100
0000
,
0000
0000
0000
0000
0010
0000
0000
0100
0000
0010
0000
0000
1000
0000
0001
0000
,
0000
0000
0000
0000
0010
0000
0000
0100
0000
0010
0000
0000
0001
0000
1000
0000
,
0000
0000
0000
0000
0010
0000
0000
1000
0000
0001
0000
0000
1000
0000
0100
0000
,
0000
0000
0000
0000
0010
0000
0000
0100
0000
0010
0000
0000
0001
0000
1000
0000
,
0000
0000
0000
0000
0010
0000
0000
0100
0000
0010
0000
0000
1000
0000
0001
0000
,
0000
0000
0000
0000
0010
0000
0000
0100
0000
0010
0000
0000
0001
0000
1000
0000
,
0020
0230
0302
0023
,
0031
1000
0001
0000
0100
0000
0010
0000
,
1000
0001
1000
0000
0100
0000
0010
0000
,
0001
0100
0010
0000
0100
0000
0001
0000
,
1000
0100
0010
0000
0100
0000
1000
0000
,
0001
0010
1000
0000
0010
0000
0001
0000
,
1000
0100
0001
0000
0100
0000
1000
0000
,
0001
0100
1000
0000
0100
0000
0001
0000
,
0010
0100
1000
0000
0001
0001
0001
0001
,
0002
0010
1003
0001
,
2000
0010
3001
1000
,
0002
0000
0000
1003
,
1100
0100
0010
0001
,
0101
1000
1100
0010
,
1001
0000
0001
0000
1000
0100
0001
0100
,
1000
0010
0100
0001
,
0011
0000
0001
1000
0001
0000
0100
0000
,
0110
0010
1010
1000
,
1100
0000
0100
0000
0010
0001
1000
0000
,
1010
0000
0000
0000
1001
1001
0000
0000
,
0000
0001
0100
1000
0100
0000
0000
0000
,
0000
0010
0000
1000
0000
0001
0000
0010
,
0100
0000
0000
0000
0010
0100
0010
0000
,
0000
0100
0000
0010
0000
0001
0000
1000
,
0001
0000
0000
0000
1000
0000
0000
0000
0000
0000
0001
0000
0000
0100
0000
0010
,
0000
1000
0000
0100
0000
0010
0000
0100
,
1000
0000
0000
0000
0001
0100
0001
0000
,
0000
1000
0000
0100
0000
0010
0000
0100
,
1000
0001
0100
0010
,
1000
0001
1000
0000
0100
0000
0010
0000
,
0001
1000
0001
0000
0100
0000
0010
0000
,
1000
0100
0010
0000
0100
0000
1000
0000
,
0001
0100
0010
0000
0100
0000
0001
0000
,
1000
0010
0001
0000
0010
0000
1000
0000
,
0001
0100
1000
0000
0100
0000
0001
0000
,
1000
0100
0001
0000
0100
0000
1000
0000
,
0010
0100
0001
0000
1000
1000
1000
1000
,
2000
0010
3001
1000
,
0002
0010
1003
0001
,
2001
0010
0100
3001
,
1002
0010
0100
1003
,
0001
0000
0000
0100
0000
0000
0010
0000
0000
1000
0000
0000
0010
0000
0100
0000
,
0002
0000
0003
0000
1000
0100
0001
0100
,
0020
0000
0000
0000
,
0000
0000
0000
0000
0000
0000
0000
0030
,
2002
0000
0000
0000
3003
0000
0000
0000
0000
0000
0000
0000
0000
000M
0000
M000
,
0000
0000
0000
0020
0000
0000
0000
0000
0000
0000
0000
0000
0000
0000
0000
0000
,
0000
0000
0000
0000
,
0000
0000
0000
0000
,
0000
0000
0000
0000
0000
0000
0000
0000
0000
0000
0000
0000
0000
0000
0000
0000
0000
0000
0000
0000
0000
0000
0000
0000
0030
0000
0000
0000
0000
0000
0000
0000
0000
0000
0000
0000
0000
0000
0000
0000
0000
0000
0000
0000
0000
0000
0000
0000
0000
0000
0000
0000
0000
0000
0000
M000
0000
0000
0000
0000
0000
0000
0000
0000
0000
0000
0000
0000
0000
0000
0000
0000
0000
0000
0000
0000
0000
0000
0000
0000
0M00
0000
0000
0000
0000
0000
0000
0000
0000
0000
0000
0000
0000
0000
0000
0000
0000
0000
0000
0000
0000
0000
0000
0000
0000
0000
0000
000M
0000
0000
0000
0000
0000
0000
0000
0000
0000
0000
0000
0000
0000
0000
0000
0000
0000
0000
0000
0000
0000
0000
0000
0000
0000
0000
0000
0000
0M00
0000
0000
0000
0000
0000
0000
0000
0000
0000
0000
0000
0000
0000
0000
0000
0000
0000
0000
0000
0000
0000
0000
0000
0000
0000
0000
0000
0000
0000
0000
0000
0000
0000
0000
0000
0000
0000
0000
0000
0000
0000
0000
0000
0000
0000
0000
0000
0000
0000
0000
0000
0000
0000
0000
0000
;

//---------------dance-single - DS FS XO----------------
#NOTEDATA:;
#CHARTNAME:;
#STEPSTYPE:dance-single;
#DESCRIPTION:DS FS XO;
#CHARTSTYLE:;
#DIFFICULTY:Medium;
#METER:14;
#RADARVALUES:0.638598,0.782164,0.024472,0.358920,0.546537,548.000000,545.000000,3.000000,44.000000,27.000000,0.000000,1.000000,0.000000,0.000000,0.638598,0.782164,0.024472,0.358920,0.546537,548.000000,545.000000,3.000000,44.000000,27.000000,0.000000,1.000000,0.000000,0.000000;
#CREDIT:Highflyer & BlindedVanguard573;
#NOTES:
0000
0000
0000
0000
,
0000
0000
0000
0000
,
0000
0000
0000
0000
,
0000
0000
0000
0000
,
0002
0000
1003
0100
1000
0010
0001
0010
,
2000
0000
0000
0000
3001
0000
0010
0000
0100
1000
0100
0000
0010
0001
0010
0000
,
0200
0000
1300
0001
1000
0100
0001
0100
,
2000
0000
3020
0000
0130
0010
0001
0010
,
2000
0000
3001
1000
0001
0010
1000
0010
,
0002
0000
0000
0000
0103
0000
0010
0000
1000
0001
1000
0000
0100
0010
0100
0000
,
2000
0000
3001
1000
0001
0100
1000
0100
,
0001
0000
0010
0100
1000
0000
0010
0000
0100
0001
1000
0000
0100
1000
0001
0000
,
0100
0000
0001
0010
0001
0000
0010
0001
0010
0000
0100
0000
1000
0000
0100
0000
,
0020
0000
0100
0030
1000
0010
0100
0001
,
0000
0000
1000
0100
1000
0000
0100
1000
0100
0000
0010
0000
0001
0000
0100
0000
,
0020
0000
0000
0000
0230
0000
0000
0000
0301
0000
0100
0001
1000
0000
0010
0000
,
0000
0000
1000
0100
1000
0000
0001
0010
0001
0000
1000
0000
0010
0000
0100
0000
,
0002
0000
0010
0003
0001
0100
0010
1000
,
0000
0000
0001
0010
0001
0000
1000
0100
1000
0000
0001
0000
0100
0000
0010
0000
,
0002
0023
2030
3002
,
1003
0000
0001
0100
0010
0000
0010
0100
0001
0000
1000
0100
0010
0000
0100
0000
,
2000
0000
0001
3000
1000
0001
0010
0100
,
0000
0000
1000
0010
0100
0000
0100
0010
1000
0000
0001
0010
0100
0000
0010
0000
,
0002
0000
1000
0003
0001
0100
0010
1000
,
0000
0000
0001
0010
0100
0000
1000
0100
0010
0000
0001
0100
0010
0000
1000
0000
,
0002
0000
0010
0003
0001
0100
0010
1000
,
0000
0000
0001
0010
0100
0000
1000
0100
0010
0000
0001
0100
0010
0000
0100
0000
,
1000
0100
0010
0100
0001
0100
0010
1000
,
0001
0000
0010
0000
1000
0000
0010
0000
0001
0100
00M0
0100
1000
0000
0010
0000
,
1000
0000
0001
0000
0010
0000
0001
0000
1000
0100
00M0
0100
0001
0000
0100
0000
,
1000
0000
0100
0000
0001
0000
1000
0000
0001
0010
0M00
0010
1000
0000
0010
0000
,
0100
0000
0001
0000
0010
0000
0001
0000
1000
0010
0M00
0010
0001
0000
1000
0001
,
1000
0000
0100
0000
0001
0000
1000
0000
0010
0100
000M
0100
0001
0000
0100
0000
,
1000
0000
0001
0000
0010
0000
1000
0000
0001
0100
00M0
0100
0010
0000
0100
0000
,
0001
0000
0100
0000
1000
0000
0001
0000
1000
0010
0M00
0010
0001
0000
0100
0000
,
0010
0000
1000
0000
0001
0000
0010
0000
0001
1000
0001
1000
0001
1000
0001
1000
,
0001
0000
0000
0000
2000
0000
0000
0010
0000
3002
0000
0000
0010
0000
1003
0000
,
0001
2000
3002
0203
,
0302
0000
0000
0000
0010
0000
0000
0000
1000
0000
0000
0000
0103
0000
00M0
0100
,
1000
0000
0000
0000
0010
0000
0000
0000
0100
0000
0000
0000
0001
0000
0000
0000
1000
0000
0000
0000
0000
0000
0000
0000
0100
0000
0000
00M0
0000
0000
0100
0000
,
0001
0000
0000
0000
0000
0000
0000
0000
0010
0000
0000
0M00
0000
0000
0010
0000
1000
0000
0000
0000
0000
0000
0000
0000
0100
0000
0000
00M0
0000
0000
0100
0000
,
0002
0000
0000
0000
0000
0000
0000
0000
1003
0001
1000
0001
1000
0001
1000
0001
,
1000
0010
0100
0010
1000
0100
0010
0001
,
0100
0000
0000
0000
1000
0000
0000
0000
0100
0000
0000
0000
0010
0000
0000
0000
1000
0000
0000
0000
0010
0000
0000
0000
0100
0000
0000
M000
0000
0000
0100
0000
,
1000
0000
0000
0000
0001
0000
0000
0000
0010
0000
0000
000M
0000
0000
0010
0000
0100
0000
0000
0000
0001
0000
0000
0000
0010
0000
0000
0M00
0000
0000
0010
0000
,
1000
0000
0100
0000
0010
0000
0001
0000
1000
0010
0100
0000
0001
0000
1000
0000
,
0100
0000
0000
00M0
0000
0000
0100
0000
0001
0000
0000
0000
0010
0000
0000
0000
0000
0000
0000
0000
0100
0000
0000
0000
1000
0000
0000
0000
0100
0000
0000
0000
,
0000
1000
0001
0200
,
0300
0000
0001
0010
0001
0000
0010
0001
0010
0000
0100
0000
1000
0000
0100
0000
,
0020
0000
0100
0030
1000
0010
0100
0001
,
0000
0000
1000
0100
1000
0000
0100
1000
0100
0000
0010
0000
0001
0000
0100
0000
,
0020
0000
0000
0000
0230
0000
0000
0000
0301
0000
0100
0001
1000
0000
0010
0000
,
0000
0000
1000
0100
1000
0000
0001
0010
0001
0000
1000
0000
0010
0000
0100
0000
,
0002
0000
0010
0003
0001
0100
0010
1000
,
0000
0000
0001
0010
0001
0000
1000
0100
1000
0000
0001
0000
0100
0000
0010
0000
,
0002
0023
2030
3002
,
1003
0000
0001
0010
0001
0000
1000
0000
0001
0100
00M0
0100
0010
0000
0001
0000
,
0100
0000
0010
0100
0001
0000
1000
0000
0001
0010
0M00
0010
1000
0000
0001
0010
,
0100
0000
0010
0000
0001
1000
0001
0000
1000
0100
00M0
0100
0001
0000
1000
0010
,
0100
0000
0010
0000
1000
0001
1000
0000
0001
0010
0M00
0010
1000
0000
0001
0010
,
0001
0000
1000
0000
0010
0000
0100
0000
0001
0000
1000
0000
0100
0010
0000
0100
,
1000
0000
0001
0100
0000
0010
1000
0000
0001
0000
0010
0000
0100
0010
0000
0001
,
1000
0000
0010
0100
0000
0001
0010
0000
0001
0000
1000
0000
0010
0100
0000
0010
,
1000
0000
0001
0010
0000
0001
0100
0000
0010
0100
0010
0100
0010
0100
0010
0100
,
0001
0000
0010
0000
0200
0000
0000
1000
0000
0320
0000
0000
0100
0000
0031
0000
,
1000
0000
0010
0000
0200
0000
0000
0001
0000
0320
0000
0000
0100
0000
1030
0000
,
2001
0000
0000
0000
3001
1000
0000
0100
0000
0001
0000
0000
0100
0000
1000
0000
,
1001
0000
0000
0000
0001
0100
0001
1000
0001
0010
0100
1000
0010
0100
0001
1000
,
0001
0010
0M00
0010
1000
0000
0001
0100
00M0
0100
1000
0000
0010
0000
0100
0000
,
0020
0000
0000
0000
0130
0000
0001
1000
0010
0000
0100
0000
1000
0000
0100
0000
,
0002
0000
0000
0000
,
0000
0000
0000
0000
0000
0000
0000
0003
,
2002
0000
0000
0000
3003
0000
0000
0000
0000
0000
0000
0000
0000
M000
0000
000M
,
0000
0000
0000
0040
0000
0000
0000
0000
0000
0000
0000
0000
0000
0000
0000
0000
,
0000
0000
0000
0000
,
0000
0000
0000
0000
,
0000
0000
0000
0000
0000
0000
0000
0000
0000
0000
0000
0000
0000
0000
0000
0000
0000
0000
0000
0000
0000
0000
0000
0000
0030
0000
0000
0000
0000
0000
0000
0000
0000
0000
0000
0000
0000
0000
0000
0000
0000
0000
0000
0000
0000
0000
0000
0000
0000
0000
0000
0000
0000
0000
0000
000M
0000
0000
0000
0000
0000
0000
0000
0000
0000
0000
0000
0000
0000
0000
0000
0000
0000
0000
0000
0000
0000
0000
0000
0000
0M00
0000
0000
0000
0000
0000
0000
0000
0000
0000
0000
0000
0000
0000
0000
0000
0000
0000
0000
0000
0000
0000
0000
0000
0000
0000
0000
M000
0000
0000
0000
0000
0000
0000
0000
0000
0000
0000
0000
0000
0000
0000
0000
0000
0000
0000
0000
0000
0000
0000
0000
0000
0000
0000
0000
0000
0M00
0000
0000
0000
0000
0000
0000
0000
0000
0000
0000
0000
0000
0000
0000
0000
0000
0000
0000
0000
0000
0000
0000
0000
0000
0000
0000
0000
0000
0000
0000
0000
0000
0000
0000
0000
0000
0000
0000
0000
0000
0000
0000
0000
0000
0000
0000
0000
0000
0000
0000
0000
0000
0000
0000
0000
;

//---------------dance-single - DS FS XO----------------
#NOTEDATA:;
#CHARTNAME:;
#STEPSTYPE:dance-single;
#DESCRIPTION:DS FS XO;
#CHARTSTYLE:;
#DIFFICULTY:Hard;
#METER:16;
#RADARVALUES:0.878655,0.969883,0.154988,0.375235,1.301085,754.000000,735.000000,19.000000,46.000000,14.000000,0.000000,1.000000,0.000000,0.000000,0.878655,0.969883,0.154988,0.375235,1.301085,754.000000,735.000000,19.000000,46.000000,14.000000,0.000000,1.000000,0.000000,0.000000;
#CREDIT:Highflyer & BlindedVanguard573;
#NOTES:
0000
0000
0000
0000
,
0000
0000
0000
0000
,
0000
0000
0000
0000
,
0000
0000
0000
0000
,
2002
0000
0000
0003
3001
1000
0010
0000
0100
0000
0001
0000
0010
0000
0100
1000
,
0002
0000
0000
0000
0103
0000
0010
0000
1000
0100
1000
0001
0100
0010
1000
0001
,
0020
0000
0000
0000
0130
0010
0100
0000
1000
0000
0001
0000
0100
0000
0010
1000
,
0100
0000
0010
0001
0100
0000
0000
0000
0010
1000
0001
1000
0100
0010
0001
0100
,
0020
0000
0000
0000
0130
0010
1000
0000
0001
0000
0010
0000
0100
0000
1000
0001
,
0200
0000
0000
0000
0310
0000
1000
0000
0001
0010
0001
1000
0010
0100
0001
1000
,
0200
0000
0000
0000
0310
0001
0010
0000
0100
0000
1000
0000
0001
0000
0100
0001
,
0010
0000
0100
1000
0001
1000
0100
1000
0001
0100
0010
1000
0010
0100
0001
1000
,
0000
0001
0010
0001
0010
0001
0010
0001
0010
0100
1000
0001
1000
0010
0100
0001
,
0020
0000
0000
0000
0100
0000
0030
0000
0010
0001
0100
0010
0100
0001
0010
0100
,
0000
1000
0010
1000
0010
1000
0010
1000
0010
0100
0001
1000
0001
0010
0100
1000
,
0020
0000
0000
0130
0002
0000
0000
0000
0010
0000
1003
0001
0010
0001
0100
0001
,
0000
1000
0010
1000
0010
1000
0010
1000
0010
0100
0001
1000
0001
0010
0100
1000
,
0020
0000
0000
0000
0100
0000
0030
0000
0010
1000
0100
0010
0100
1000
0010
0100
,
0000
0001
0100
0001
0100
0001
0100
0001
0100
0010
1000
0001
1000
0100
0010
0001
,
2000
0000
0000
3002
0010
0000
0000
2003
0100
0000
0000
3001
0200
0000
0000
0000
,
0301
1000
0010
1000
0001
1000
0010
1000
0001
0010
0100
1000
0100
0010
0001
0100
,
0020
0000
0000
0000
0100
0000
0030
0000
0001
0100
0010
1000
0001
0010
0100
0010
,
0000
0001
1000
0100
1000
0001
1000
0010
1000
0100
0010
0001
0100
0010
1000
0001
,
0010
0000
0000
0002
0100
0000
0000
0000
1003
0000
0001
1000
0100
0010
0001
1000
,
0000
0010
0100
0001
0100
0010
0100
0001
0100
0010
1000
0100
0010
0001
0100
0010
,
2000
0000
0000
0000
0100
0000
3000
0000
1000
0001
0010
0100
1000
0001
0100
0010
,
0000
1000
0001
0100
0001
1000
0001
0010
0001
0100
0010
1000
0100
0010
0001
1000
,
0020
0000
0000
2030
0100
0000
0000
3002
0010
0000
0000
1003
0020
0000
0000
0000
,
1030
0100
0000
1000
0001
0000
0100
0000
0010
1000
0001
0000
0010
0001
1000
0000
,
0010
0100
0000
0001
0010
0000
0001
0000
1000
0010
0100
0000
0001
0010
0100
0000
,
0010
0000
0100
0000
1000
0001
0100
0000
0010
1000
0000
0010
0100
0001
1000
0000
,
0001
0000
0010
0000
0001
0100
0001
0000
1000
0100
0000
1000
0001
0100
0010
1000
,
0100
0000
0010
0000
0001
1000
0001
0000
1000
0100
0000
1000
0010
1000
0001
0010
,
0100
0000
0010
0000
0100
1000
0001
0000
1000
0001
0000
0010
0001
1000
0010
0100
,
0001
0000
0010
0000
0100
1000
0001
0000
1000
0010
0000
1000
0001
1000
0000
0010
,
0100
0001
1000
0100
0010
0100
1000
0001
0100
0010
0100
0010
0100
0010
0100
0010
,
1000
0000
0001
0000
0011
0000
0000
0101
0000
1001
0000
0000
1010
0000
0110
0000
,
0001
0000
1000
0000
1100
0000
0000
0000
1001
0000
0000
0000
0001
0000
0000
1000
,
0002
0000
1000
0000
1000
0000
1000
0000
0000
0000
1003
0000
0002
0000
0000
0103
,
0010
0000
0000
0000
0001
0000
0000
0000
0010
0000
0000
0000
0100
0000
0000
0000
0002
0000
0000
0000
0000
0000
0000
0000
0103
0000
0000
00M0
0000
0000
0100
0000
,
2000
0000
0000
0000
0000
0000
0000
0000
3010
0000
0000
0M00
0000
0000
0010
0000
0002
0000
0000
0000
0000
0000
0000
0000
0103
0000
0000
00M0
0000
0000
0100
0000
,
2000
0000
0001
0000
0001
0000
3001
0000
1000
0010
0100
0001
1000
0100
0010
0001
,
0100
0000
0010
1000
0010
0100
0001
0000
1000
0000
0100
0010
0001
0010
0100
0000
,
0010
0000
0000
0000
1000
0000
0000
0000
0010
0000
0000
0000
0001
0000
0000
0000
2000
0000
0000
0000
0010
0000
0000
0000
3002
0000
0000
0000
0013
0M00
0010
0000
,
2000
0000
0000
0000
0100
0000
0000
0000
3002
0000
0000
0000
0103
00M0
0100
0000
2000
0000
0000
0000
0010
0000
0000
0000
3200
0000
0000
0000
0310
000M
0010
0000
,
1000
0010
0100
0001
0010
0001
0100
0010
1000
0100
0010
0001
0100
0001
0010
0100
,
1000
0000
0000
1000
0100
0000
0001
0000
0000
0000
0100
0000
0010
0000
0100
0000
,
0000
0000
1000
0000
0001
0000
0200
0300
,
0000
0001
0100
0001
0100
0001
0100
0001
0100
0010
1000
0010
0100
0001
0100
0010
,
2000
0000
0000
0000
3000
0000
0000
0000
0100
0000
0010
1000
0010
0100
1000
0001
,
0000
1000
0010
1000
0010
1000
0010
1000
0010
0100
0001
0010
0100
1000
0001
0010
,
0001
0000
0000
1000
0200
0000
0000
0000
0300
0000
1000
0001
0100
0000
1000
0100
,
0000
0001
0010
0001
0010
0001
0010
0001
0010
0100
1000
0100
0010
0001
0010
0100
,
2000
0000
0000
0000
3000
0000
0000
0000
0010
0000
0100
1000
0100
0010
1000
0001
,
0000
1000
0100
1000
0100
1000
0100
1000
0100
0010
0001
0100
0010
1000
0001
0100
,
0002
0000
0000
2003
0010
0000
0000
3002
0013
0001
0100
0010
1000
0100
0010
0001
,
1000
0010
1000
0010
0100
0001
1000
0000
0100
0000
0000
0010
0001
1000
0001
0000
,
0010
0100
0010
0100
1000
0001
0100
0000
0010
0000
0000
0100
0001
1000
0001
0010
,
0100
0000
0010
0001
1000
0001
0100
0000
0010
0100
0000
0010
1000
0001
0100
0010
,
1000
0000
0001
0000
0010
0100
1000
0000
0001
0100
0000
0001
1000
0100
1000
0001
,
0010
0100
0010
0001
1000
0010
0100
0000
0000
0010
0000
1000
0001
0010
0100
1000
,
0010
0000
1000
0001
0010
0001
1000
0000
0100
0010
0000
0100
1000
0001
0010
0001
,
0100
0000
0001
1000
0001
0010
0100
0000
0010
0001
0000
0010
0100
1000
0001
1000
,
0010
0000
0100
0000
0010
0100
0001
0010
0200
0000
1300
0001
1000
0001
1000
0001
,
0100
0000
0000
0000
0110
0000
0000
1010
0000
1001
0000
0000
0001
0000
0010
0000
,
0100
0000
0000
0000
1100
0000
0000
1001
0000
0101
0000
0000
0110
0000
1010
0000
,
1001
0000
0000
0000
1000
0100
1000
0100
0000
0001
0000
0000
0100
0000
1000
0000
,
1001
0000
0000
0000
0001
0100
0010
0100
0001
0010
0100
1000
0100
0010
0001
1000
,
0001
0010
0M00
0010
1000
0000
0001
0100
00M0
0100
1000
0000
0001
0010
0100
1000
,
0020
0000
0000
0000
0030
0000
0100
0001
1000
0100
0010
0100
0001
0100
1000
0001
,
0020
0000
0000
0000
,
0000
0000
0000
0000
0000
0000
0000
0030
,
2002
0000
0000
0000
3003
0000
0000
0000
0000
0000
0000
0000
0000
000M
0000
M000
,
0000
0000
0000
0040
0000
0000
0000
0000
0000
0000
0000
0000
0000
0000
0000
0000
,
0000
0000
0000
0000
,
0000
0000
0000
0000
,
0000
0000
0000
0000
0000
0000
0000
0000
0000
0000
0000
0000
0000
0000
0000
0000
0000
0000
0000
0000
0000
0000
0000
0000
0030
0000
0000
0000
0000
0000
0000
0000
0000
0000
0000
0000
0000
0000
0000
0000
0000
0000
0000
0000
0000
0000
0000
0000
0000
0000
0000
0000
0000
0000
0000
M000
0000
0000
0000
0000
0000
0000
0000
0000
0000
0000
0000
0000
0000
0000
0000
0000
0000
0000
0000
0000
0000
0000
0000
0000
0M00
0000
0000
0000
0000
0000
0000
0000
0000
0000
0000
0000
0000
0000
0000
0000
0000
0000
0000
0000
0000
0000
0000
0000
0000
0000
0000
000M
0000
0000
0000
0000
0000
0000
0000
0000
0000
0000
0000
0000
0000
0000
0000
0000
0000
0000
0000
0000
0000
0000
0000
0000
0000
0000
0000
0000
0M00
0000
0000
0000
0000
0000
0000
0000
0000
0000
0000
0000
0000
0000
0000
0000
0000
0000
0000
0000
0000
0000
0000
0000
0000
0000
0000
0000
0000
0000
0000
0000
0000
0000
0000
0000
0000
0000
0000
0000
0000
0000
0000
0000
0000
0000
0000
0000
0000
0000
0000
0000
0000
0000
0000
0000
;

//---------------dance-single - BU FS HT KS XO----------------
#NOTEDATA:;
#CHARTNAME:;
#STEPSTYPE:dance-single;
#DESCRIPTION:BU FS HT KS XO;
#CHARTSTYLE:;
#DIFFICULTY:Challenge;
#METER:18;
#RADARVALUES:1.060445,1.063742,0.008157,0.228404,1.721184,910.000000,909.000000,1.000000,28.000000,10.000000,0.000000,1.000000,0.000000,0.000000,1.060445,1.063742,0.008157,0.228404,1.721184,910.000000,909.000000,1.000000,28.000000,10.000000,0.000000,1.000000,0.000000,0.000000;
#CREDIT:Highflyer & BlindedVanguard573;
#NOTES:
// measure 0
0000
0000
0000
0000
,  // measure 1
0000
0000
0000
0000
,  // measure 2
0000
0000
0000
0000
,  // measure 3
0000
0000
0000
0000
,  // measure 4
0002
0000
0013
0000
0001
0100
0010
1000
0100
0010
0100
1000
0010
0100
0001
1000
,  // measure 5
0200
0000
1000
0000
0310
0100
1000
0010
0001
0010
0100
0001
1000
0100
0010
0001
,  // measure 6
2000
0000
3010
0000
1000
0100
0010
0001
0100
0010
0100
0001
0010
0100
1000
0001
,  // measure 7
0200
0000
0301
1000
0200
0000
1300
0000
0001
1000
0100
0010
0100
1000
0001
1000
,  // measure 8
0020
0000
1030
0000
0010
0100
0001
0010
0001
0100
0010
0100
0001
1000
0100
0010
,  // measure 9
0002
0000
1000
0000
0013
0100
1000
0010
0001
0010
0100
0001
1000
0100
0010
0001
,  // measure 10
0200
0000
0301
0000
0100
0010
1000
0100
1000
0010
0100
0010
1000
0001
0010
0100
,  // measure 11
0001
0100
1000
0010
0001
0010
1000
0100
0010
0100
1000
0001
0100
0010
0001
0010
,  // measure 12
1000
0100
0100
0100
0100
0100
0100
0100
1000
0010
0100
1000
0100
0001
1000
0100
,  // measure 13
0020
0000
0001
0000
0000
0000
0031
0000
0010
0001
0100
1000
0100
0001
0010
0001
,  // measure 14
1000
0100
0100
0100
0100
0100
0100
0100
1000
0010
0100
1000
0100
0001
1000
0100
,  // measure 15
0020
0000
0001
1000
0000
0000
0000
0000
0000
0000
0130
0001
1000
0100
0010
0001
,  // measure 16
1000
0100
0100
0100
0100
0100
0100
0100
1000
0100
0010
1000
0010
0001
0100
0010
,  // measure 17
0002
0000
0010
0000
0000
0000
0013
0000
0001
0010
1000
0001
0010
0100
0001
0100
,  // measure 18
1000
0100
0100
0100
0100
0100
0100
0100
1000
0001
0010
0100
0001
0100
1000
0001
,  // measure 19
0200
0000
0010
1000
0000
0000
0010
0001
0000
0000
0010
1000
0000
0310
0001
1000
,  // measure 20
0001
0100
0100
0100
0010
0100
0100
1000
0100
0100
0001
0100
0100
0010
0001
0100
,  // measure 21
0020
0000
1000
0000
1030
0010
0010
0001
0100
0100
1000
0010
0010
0001
1000
0001
,  // measure 22
1000
0100
0100
0100
0010
0100
0100
0001
0100
0100
1000
0100
0100
0001
0100
0100
,  // measure 23
0020
0000
0001
1000
0000
0000
1030
0010
0100
0010
1000
0001
0010
0010
1000
0001
,  // measure 24
0010
0100
0100
0100
1000
0010
0010
0001
0010
0010
1000
0100
0100
0001
0100
0100
,  // measure 25
2000
0000
0001
0000
3001
0010
0010
1000
0100
0100
0001
0010
0010
1000
0100
0010
,  // measure 26
0001
0010
0010
0010
0001
0100
0100
1000
0010
0010
0100
0010
0010
1000
0001
1000
,  // measure 27
0100
0000
0000
0000
0010
0000
0001
1000
0100
0000
0000
0000
1000
0000
0001
0100
0010
0000
1000
0010
1000
0000
0100
0000
0100
0000
0001
0000
1000
0000
0100
0000
,  // measure 28
1000
0100
0100
0001
0100
0001
1000
0000
0010
0010
0001
0010
0010
1000
0001
0100
,  // measure 29
0001
0100
0100
1000
0100
1000
0001
0000
0010
0010
1000
0010
0010
0001
1000
0100
,  // measure 30
1000
0010
0100
1000
0100
0010
1000
0000
0001
0010
0100
1000
0010
0001
0010
0100
,  // measure 31
0001
0010
0100
0001
0100
0010
0001
0000
1000
0010
0100
0001
0010
1000
0010
0100
,  // measure 32
1000
0100
0100
0001
0100
0010
0010
0000
0100
0100
0001
0100
0100
1000
0010
0100
,  // measure 33
0001
0010
0010
1000
0010
0100
0100
0000
0010
0010
1000
0010
0010
0001
0100
0010
,  // measure 34
1000
0100
0010
0001
0100
0010
0001
0000
0010
1000
0100
0010
0100
0001
0100
1000
,  // measure 35
0010
0100
0001
1000
0000
0010
1000
0100
0001
0100
0001
0100
0001
0100
0001
0100
,  // measure 36
1000
0100
1000
0100
0010
0100
0100
0001
0100
0010
0100
0100
1000
0010
0100
0001
,  // measure 37
1000
0000
0100
0000
1000
0000
0100
0000
0010
0000
0100
0000
0100
0000
0001
0000
1000
0000
0001
0010
0100
0000
1000
0000
0001
0000
0100
0000
0010
0000
1000
0000
,  // measure 38
0200
0000
0000
1000
0000
0000
0000
0000
0000
1000
0000
0000
0000
0000
0000
1000
0000
0000
0000
0000
0000
1300
0000
M100
,  // measure 39
0001
0000
0010
0000
0100
0000
1000
0000
0020
0000
0000
0000
1000
0030
0000
M010
,  // measure 40
0200
0000
0000
0000
1000
0000
0300
M100
0020
0000
0000
0000
1000
0000
0030
M010
,  // measure 41
0001
0000
0000
0000
1000
0000
0000
0000
0010
0000
0000
0000
1000
0000
0000
0000
0001
0000
1000
0100
1000
0000
0010
0000
0100
0000
0001
0000
1000
0000
0100
0000
,  // measure 42
0010
0000
0100
1000
0100
0100
0001
1000
0010
0100
1000
0100
0001
1000
0100
0010
,  // measure 43
0100
0100
0001
0100
0100
1000
0001
1000
0010
1000
0001
0010
0100
1000
0010
0100
,  // measure 44
0100
1000
0001
0100
0001
1000
0001
0100
0100
0010
0001
1000
0010
0100
0001
0010
,  // measure 45
0010
0000
1000
0000
0001
0000
1000
0000
0100
0000
0010
0000
0001
0000
1000
0000
0001
0000
1000
0010
0100
0000
0001
0000
1000
0000
0100
0000
0010
0000
0001
0000
,  // measure 46
0100
0000
0001
0010
1000
0010
0001
2000
0010
0000
3001
0000
1000
0000
0100
0000
,  // measure 47
0000
0000
1000
0010
0100
0001
0010
0100
1000
0000
0000
0000
0001
0000
0000
0000
,  // measure 48
1000
0000
0010
0000
0100
0000
0001
0000
0010
0100
0010
0000
0001
0100
0010
1000
,  // measure 49
0002
0000
0000
0000
0000
0000
0000
0000
1003
0100
0010
0001
1000
0000
0010
0000
,  // measure 50
0000
0100
0001
0000
1000
0100
1000
0000
0001
0000
0100
0000
0010
1000
0001
0010
,  // measure 51
0100
0000
0000
0000
0000
0000
1000
0001
1000
0000
0000
0000
0000
0000
0000
0000
0000
0000
0000
0000
0001
0000
0100
0000
0001
0000
1000
0000
0001
0000
0010
0000
,  // measure 52
0000
0100
1000
0000
0001
0000
0100
0000
0010
1000
0010
0000
0100
0001
1000
0100
,  // measure 53
0020
0000
0000
0000
0100
0000
0000
0000
0130
1000
0010
0100
0001
0000
0010
0000
,  // measure 54
0000
0001
1000
0000
0010
0000
0100
0000
0001
0010
0001
0000
1000
0010
0100
0010
,  // measure 55
1000
0000
0000
0000
0000
0000
0001
0010
0001
0000
0000
0000
0000
0000
1000
0010
1000
0000
0001
0000
0010
0000
0100
0000
1000
0000
0010
0000
0100
0000
0001
0000
,  // measure 56
1000
0100
0100
0001
0100
0001
1000
0000
0010
0010
0001
0010
0010
1000
0001
0100
,  // measure 57
0001
0100
0100
1000
0100
1000
0001
0000
0010
0010
1000
0010
0010
0001
1000
0100
,  // measure 58
1000
0010
0100
1000
0100
0010
1000
0000
0001
0010
0100
1000
0010
0001
0010
0100
,  // measure 59
0001
0010
0100
0001
0100
0010
0001
0000
1000
0010
0100
0001
0010
1000
0010
0100
,  // measure 60
1000
0100
0100
0001
0100
0010
0010
0000
0100
0100
0001
0100
0100
1000
0010
0100
,  // measure 61
0001
0010
0010
1000
0010
0100
0100
0000
0010
0010
1000
0010
0010
0001
0100
0010
,  // measure 62
1000
0100
0010
0001
0100
0010
0001
0000
0010
1000
0100
0010
0100
0001
0100
1000
,  // measure 63
0010
0100
0001
1000
0000
0010
1000
0100
0001
0100
0001
0100
0001
0100
0001
0100
,  // measure 64
1000
0100
1000
0100
0010
0100
0100
0001
0100
0010
0100
0100
1000
0010
0100
0001
,  // measure 65
1000
0010
1000
0010
0100
0010
0010
0001
0010
0100
0010
0010
1000
0100
0010
0001
,  // measure 66
1000
0010
1000
0010
0001
0010
0020
0031
0010
0001
0100
0100
1000
0010
0100
0001
,  // measure 67
1000
0000
0100
0000
1000
0000
0100
0000
0001
0000
0100
0000
0200
0000
0301
0000
1000
0000
0010
0100
0001
0000
1000
0000
0001
0000
0010
0000
1000
0000
0010
0000
,  // measure 68
0001
0100
0100
1000
0010
0010
0001
0010
0010
1000
0100
0100
0001
0010
1000
0010
,  // measure 69
0002
0000
0000
0000
0000
0000
1003
0010
0100
0000
0000
0000
0010
0000
1000
0000
0100
0000
0010
0000
0001
0000
0100
0000
1000
0000
0100
0000
0010
0000
1000
0000
,  // measure 70
0002
0000
0000
0000
,  // measure 71
0000
0000
0000
0000
0000
0000
0000
0003
,  // measure 72
2002
0000
0000
0000
3003
0000
0000
0000
0000
0000
0000
0000
0000
000M
0000
M000
,  // measure 73
0000
0000
0000
0040
0000
0000
0000
0000
0000
0000
0000
0000
0000
0000
0000
0000
,  // measure 74
0000
0000
0000
0000
,  // measure 75
0000
0000
0000
0000
,  // measure 76
0000
0000
0000
0000
0000
0000
0000
0000
0000
0000
0000
0000
0000
0000
0000
0000
0000
0000
0000
0000
0000
0000
0000
0000
0030
0000
0000
0000
0000
0000
0000
0000
0000
0000
0000
0000
0000
0000
0000
0000
0000
0000
0000
0000
0000
0000
0000
0000
0000
0000
0000
0000
0000
0000
0000
M000
0000
0000
0000
0000
0000
0000
0000
0000
0000
0000
0000
0000
0000
0000
0000
0000
0000
0000
0000
0000
0000
0000
0000
0000
0M00
0000
0000
0000
0000
0000
0000
0000
0000
0000
0000
0000
0000
0000
0000
0000
0000
0000
0000
0000
0000
0000
0000
0000
0000
0000
0000
000M
0000
0000
0000
0000
0000
0000
0000
0000
0000
0000
0000
0000
0000
0000
0000
0000
0000
0000
0000
0000
0000
0000
0000
0000
0000
0000
0000
0000
0M00
0000
0000
0000
0000
0000
0000
0000
0000
0000
0000
0000
0000
0000
0000
0000
0000
0000
0000
0000
0000
0000
0000
0000
0000
0000
0000
0000
0000
0000
0000
0000
0000
0000
0000
0000
0000
0000
0000
0000
0000
0000
0000
0000
0000
0000
0000
0000
0000
0000
0000
0000
0000
0000
0000
0000
;
