#TITLE:Necronomicon;
#SUBTITLE:;
#ARTIST:AGLORY;
#TITLETRANSLIT:;
#SUBTITLETRANSLIT:;
#ARTISTTRANSLIT:;
#GENRE:Electronic Dead Music;
#CREDIT:;
#BANNER:Necronomicon.png;
#BACKGROUND:Necronomicon-bg.png;
#LYRICSPATH:;
#CDTITLE:;
#MUSIC:Necronomicon.ogg;
#OFFSET:0.004000;
#SAMPLESTART:46.076000;
#SAMPLELENGTH:15.360000;
#SELECTABLE:YES;
#BPMS:0.000000=124.999992
;
#STOPS:
;
#BGCHANGES:;
#KEYSOUNDS:;
#ATTACKS:;

//---------------dance-single - ----------------
#NOTES:
     dance-single:
     Chart of the Dead:
     Hard:
     13:
     0.611876,0.697545,0.053406,0.277710,0.801085,401.000000,396.000000,5.000000,26.000000,35.000000,0.000000,0.611876,0.697545,0.053406,0.277710,0.801085,401.000000,396.000000,5.000000,26.000000,35.000000,0.000000:
// measure 0
0000
0000
0000
0000
,  // measure 1
1000
0000
0001
0000
1000
0000
0100
0100
0001
0000
0100
0000
0001
0000
0000
0000
,  // measure 2
1000
0100
0010
0100
,  // measure 3
1000
0010
0100
0001
,  // measure 4
0010
0100
1000
0000
0010
0100
0001
0000
,  // measure 5
1000
0000
0001
0000
1000
0000
0100
0100
0001
0000
1000
0000
0010
0000
0000
0000
,  // measure 6
1000
0100
0010
0001
,  // measure 7
0100
0010
1000
0001
,  // measure 8
1001
0000
0000
0000
0000
0000
0000
0000
0000
0000
0000
0000
0000
0000
0000
0000
1000
0000
0000
0000
0000
0000
0000
0000
0100
0000
0000
0000
0100
0000
0000
0000
0001
0000
0000
0000
0000
1000
0000
0000
0001
0000
0000
0000
0000
0000
0000
0000
2000
0000
0000
0000
0000
0000
0000
0000
0000
0000
0000
0000
0000
0000
0000
0000
,  // measure 9
3010
0200
0301
0020
,  // measure 10
0130
0000
0000
0000
0000
0000
0000
0000
0000
0000
0000
0000
0000
0000
0000
0000
2000
0000
0000
0000
0000
0000
0000
0000
3100
0000
0000
0000
0100
0000
0000
0000
0001
0000
0000
0000
0000
1000
0000
0000
0001
0000
0000
0000
0000
0000
0000
0000
0200
0000
0000
0000
0000
0000
0000
0000
0000
0000
0000
0000
0000
0000
0000
0000
,  // measure 11
0310
2000
3001
0020
,  // measure 12
0130
0000
0000
0000
0000
0000
0000
0000
0000
0000
0000
0000
0000
0000
0000
0000
2000
0000
0000
0000
0000
0000
0000
0000
3100
0000
0000
0000
0100
0000
0000
0000
0001
0000
0000
0000
0000
1000
0000
0000
0010
0000
0000
0000
0000
0000
0000
0000
0200
0000
0000
0000
0000
0000
0000
0000
0000
0000
0000
0000
0000
0000
0000
0000
,  // measure 13
0301
0020
0130
2000
,  // measure 14
3001
0000
0000
0000
0000
0000
0000
0000
0000
0000
0000
0000
0000
0000
0000
0000
2000
0000
0000
0000
0000
0000
0000
0000
3100
0000
0000
0000
0100
0000
0000
0000
0001
0000
0000
0000
0000
1000
0000
0000
0100
0000
0000
0000
0000
0000
0000
0000
0020
0000
0000
0000
0000
0000
0000
0000
0000
0000
0000
0000
0000
0000
0000
0000
,  // measure 15
0031
0000
0000
0000
0000
0000
0000
0000
0000
0000
0000
0000
0000
0000
0000
0000
0200
0000
0000
0000
0000
0000
0000
0000
0000
0000
0000
0000
0000
0000
0000
0000
0310
0000
0000
0000
0000
0000
0000
0000
0000
0000
0000
0000
0000
0000
0000
0000
2000
0000
0000
0000
0000
0000
0000
0000
0000
0000
0000
0000
0000
3001
0000
0000
,  // measure 16
0100
0000
0000
0010
1000
0000
1000
0000
0100
0000
0010
0000
0011
0000
0000
0000
,  // measure 17
1001
0000
0000
1000
0010
0000
0010
0000
0100
0000
0001
0000
1000
0100
0000
1000
,  // measure 18
0100
0000
0000
0010
0001
0000
0001
0000
1000
0000
0010
0000
0100
0000
0000
0000
,  // measure 19
0001
0000
0000
1000
0100
0000
0010
0000
0100
0000
1000
0000
0010
0100
0001
0100
,  // measure 20
0010
1000
0010
0100
0001
1000
0100
0010
,  // measure 21
0100
1000
0010
0100
0001
1000
0100
0010
,  // measure 22
0001
0010
0001
0010
0001
1000
0001
1000
0010
1000
0010
1000
0001
0100
0001
0100
,  // measure 23
0020
0000
0000
0000
,  // measure 24
1030
0000
0000
0100
0010
0000
0001
0000
0010
0000
0100
0000
1000
0000
0000
0000
,  // measure 25
0002
0000
0003
0100
000M
0100
000M
0100
000M
0100
0000
0010
0001
0000
0000
0000
,  // measure 26
1002
0000
0103
0010
1000
0010
0100
0000
,  // measure 27
0002
0000
0003
0100
000M
0100
000M
0100
000M
0100
0000
0010
0001
0000
0100
0000
,  // measure 28
0010
0000
0000
1000
0100
0000
0010
0000
0100
0000
1000
0000
0001
0000
0000
0000
,  // measure 29
2000
0000
3000
0100
M000
0100
M000
0100
M000
0100
0000
0010
1000
0000
0001
0000
,  // measure 30
0021
0000
0130
1000
0001
1000
0010
0000
,  // measure 31
2000
0000
3000
0100
M000
0100
M000
0100
M000
0100
0000
0010
1000
0000
1000
0000
,  // measure 32
0001
0100
00M0
0100
1000
0100
0000
0000
1000
0100
00M0
0100
0001
0000
0100
0100
,  // measure 33
1000
0001
0000
0100
0001
0100
00M0
0100
1000
0100
0000
0010
0001
0000
0100
0100
,  // measure 34
1000
0100
00M0
0100
0001
1000
0100
0000
1000
0100
00M0
0100
0001
0000
0100
0100
,  // measure 35
1000
0010
0000
0100
0001
0100
00M0
0100
1000
0100
0000
0010
0001
0100
0010
1000
,  // measure 36
0001
0100
00M0
0100
1000
0001
0100
0000
0001
0100
00M0
0100
1000
0000
0010
0010
,  // measure 37
0001
1000
0000
0100
1000
0100
00M0
0100
0001
0100
0000
0001
1000
0000
0100
0100
,  // measure 38
0001
0100
00M0
0100
1000
0001
0010
0000
0001
0100
00M0
0100
1000
0000
0100
0100
,  // measure 39
0001
0010
0000
0100
00M0
0100
00M0
0100
2000
0000
0000
0000
0000
0000
0000
0000
,  // measure 40
3001
0100
00M0
0100
1000
0100
0000
0000
1000
0100
0100
0010
1000
0000
0100
0100
,  // measure 41
0010
1000
0000
0100
1000
0100
00M0
0100
0001
0100
0000
0010
1000
0000
0100
0100
,  // measure 42
0001
0100
M000
0100
0010
0001
1000
0000
0001
0100
0100
0010
0001
0000
0100
0100
,  // measure 43
0010
0001
0000
0100
0001
0100
00M0
0100
1000
0100
0000
0010
0001
0100
0010
1000
,  // measure 44
0001
0100
00M0
0100
1000
0001
0100
0000
0010
0100
0100
1000
0001
0000
0010
0010
,  // measure 45
0100
0001
0000
0100
0001
0100
00M0
0100
1000
0100
0000
0010
0001
0000
0100
0100
,  // measure 46
1000
0100
00M0
0100
0010
1000
0100
0000
1000
0100
0100
0010
1000
0000
0100
0100
,  // measure 47
0002
0000
0003
0010
000M
0010
000M
0010
000M
0010
0000
0100
0002
0000
0000
0000
,  // measure 48
0203
0000
0000
0300
0000
0000
0000
0000
;
