#TITLE:Nature Trail to Hell;
#SUBTITLE:;
#ARTIST:"Weird Al" Yankovic;
#TITLETRANSLIT:;
#SUBTITLETRANSLIT:;
#ARTISTTRANSLIT:Weird Al Yankovic;
#GENRE:;
#CREDIT:;
#BANNER:Nature Trail to Hell-bn.png;
#BACKGROUND:Nature Trail to Hell-bg.png;
#LYRICSPATH:Nature Trail to Hell.lrc;
#CDTITLE:;
#MUSIC:Nature Trail to Hell.ogg;
#OFFSET:-0.040000;
#SAMPLESTART:45.244999;
#SAMPLELENGTH:22.622999;
#SELECTABLE:YES;
#BPMS:0.000000=169.500000
,8.000000=170.500000
,16.000000=169.500000
,32.000000=169.000000
,40.000000=170.500000
,56.000000=169.000000
,64.000000=169.500000
,72.000000=168.000000
,80.000000=169.500000
,88.000000=170.000000
,96.000000=169.500000
,104.000000=170.000000
,112.000000=169.000000
,120.000000=170.000000
,128.000000=169.000000
,136.000000=170.000000
,144.000000=169.500000
,152.000000=170.000000
,160.000000=173.000000
,168.000000=169.000000
,176.000000=168.500000
,184.000000=169.000000
,192.000000=168.000000
,200.000000=170.000000
,208.000000=169.000000
,216.000000=170.000000
,224.000000=170.500000
,232.000000=169.000000
,240.000000=170.000000
,248.000000=171.000000
,256.000000=170.000000
,264.000000=169.000000
,272.000000=170.000000
,280.000000=171.000000
,288.000000=169.500000
,312.000000=170.000000
,320.000000=169.500000
,328.000000=170.000000
,336.000000=170.500000
,344.000000=169.000000
,352.000000=171.000000
,360.000000=170.000000
,368.000000=159.000000
;
#STOPS:
;
#BGCHANGES:;
#KEYSOUNDS:;
#ATTACKS:;

//---------------dance-single - ----------------
#NOTES:
     dance-single:
     :
     Medium:
     9:
     0.330577,0.441982,0.007120,0.256324,0.121042,325.000000,324.000000,1.000000,36.000000,80.000000,0.000000,0.330577,0.441982,0.007120,0.256324,0.121042,325.000000,324.000000,1.000000,36.000000,80.000000,0.000000:
// measure 0
0000
0000
0000
0000
,  // measure 1
0000
0000
0000
0000
,  // measure 2
0000
0000
0000
0000
,  // measure 3
0000
0000
0000
0000
,  // measure 4
0000
0000
0000
0000
,  // measure 5
0000
0000
0000
0000
,  // measure 6
0000
0000
0000
0000
,  // measure 7
0000
0000
0000
0000
,  // measure 8
1000
0000
0100
0010
0000
0100
2000
0000
,  // measure 9
0000
0000
0000
3000
0001
0000
0001
0000
,  // measure 10
0001
0000
0100
0010
0000
0100
0002
0000
,  // measure 11
0000
0000
0000
0003
1000
0000
1000
0000
,  // measure 12
1000
0000
0100
0010
0000
0001
0200
0000
,  // measure 13
0000
0000
0000
0300
0001
0000
1000
0000
,  // measure 14
0001
0000
0010
0000
0001
1000
0010
0000
,  // measure 15
0100
0001
1000
0000
0100
0000
0010
0000
,  // measure 16
0100
0000
1000
0000
0100
1000
0001
0000
,  // measure 17
0100
0000
0001
0000
1000
0001
0100
0000
,  // measure 18
0001
0000
0010
0000
0001
0100
0010
0000
,  // measure 19
1000
1000
0001
0100
,  // measure 20
0010
0000
0100
0000
0001
0010
0100
0000
,  // measure 21
1000
1000
0001
0010
,  // measure 22
0001
0100
0010
2000
,  // measure 23
0002
0000
3003
0000
,  // measure 24
1000
0000
0100
0000
0010
0001
0010
0000
,  // measure 25
0001
0000
0100
0000
0010
1000
0010
0000
,  // measure 26
0100
0100
0001
1000
,  // measure 27
0100
0000
1000
0000
0100
1000
0100
0000
,  // measure 28
1000
0010
0100
0100
,  // measure 29
0001
0100
0010
2000
,  // measure 30
0002
0000
3003
0000
,  // measure 31
1000
0100
0010
0100
,  // measure 32
0020
0000
0000
0030
0002
0000
0000
0000
,  // measure 33
0103
0010
0100
0001
,  // measure 34
0001
0000
0010
0000
0100
0010
0000
0001
,  // measure 35
2000
0000
0000
3000
0002
0000
0000
0003
,  // measure 36
1000
0001
0100
0000
0010
1000
0001
0000
,  // measure 37
1000
0100
0100
1000
,  // measure 38
0002
0000
0000
0003
0020
0000
0000
0030
,  // measure 39
0100
0100
1000
1000
,  // measure 40
0100
0000
0010
0001
0000
0010
0200
0000
,  // measure 41
0000
0000
0000
0300
1000
0000
1000
0000
,  // measure 42
0010
0000
0100
0001
0000
0100
0020
0000
,  // measure 43
0000
0000
0000
0030
0100
0000
0100
0000
,  // measure 44
0001
0000
1000
0100
0000
1000
0002
0000
,  // measure 45
0000
0000
0000
0003
1000
0000
0100
0000
,  // measure 46
0010
0001
0100
0001
,  // measure 47
0100
0000
0010
1000
0000
1000
0000
0000
,  // measure 48
0001
0000
1000
0000
0010
0100
0010
0100
,  // measure 49
0000
0001
0100
0000
0001
0000
0001
0000
,  // measure 50
1000
0100
1000
0000
0100
1000
0100
0000
,  // measure 51
1000
0100
1000
0000
0100
0010
0100
0000
,  // measure 52
0010
0001
0100
0000
0010
1000
0000
0001
,  // measure 53
1000
0001
0010
0000
0100
1000
0000
0100
,  // measure 54
0010
0001
0100
0000
0010
0100
0001
0000
,  // measure 55
0002
0000
0000
0003
,  // measure 56
0100
0000
0001
0000
1000
0100
0010
0000
,  // measure 57
0002
0003
2000
3000
,  // measure 58
0100
0000
1000
0000
0001
0010
0100
0000
,  // measure 59
2000
3000
0002
0003
,  // measure 60
0100
0000
0010
0000
1000
0001
0100
0000
,  // measure 61
0002
0000
0000
0000
00M3
00M0
00M0
00M0
02M0
00M0
00M0
00M0
03M0
0000
0000
0000
,  // measure 62
0M10
0M00
1000
0000
0M01
0010
0M01
0000
,  // measure 63
0200
00M0
03M0
0000
0020
0000
0030
0000
,  // measure 64
2M00
0M00
0M00
0M00
0M00
0M00
0M00
0M00
0M00
0M00
0M00
0M00
3M00
0000
0000
0000
,  // measure 65
0200
0000
0000
0300
,  // measure 66
0M20
0M00
0M00
0M00
0M00
0M00
0M00
0M00
0M00
0M00
0M00
0M00
0M30
0000
0000
0000
,  // measure 67
0200
0000
0000
0300
,  // measure 68
20M0
00M0
00M0
00M0
00M0
00M0
00M0
00M0
00M0
00M0
00M0
00M0
30M0
0000
0000
0000
,  // measure 69
0020
0000
0000
0030
,  // measure 70
M200
M000
M000
M000
M000
M000
M000
M000
M000
M000
M000
M000
M300
0000
0000
0000
,  // measure 71
0020
0000
0000
0030
,  // measure 72
2M00
0M00
0M00
0M00
0M00
0M00
0M00
0M00
0M00
0M00
0M00
0M00
3M00
0000
0000
0000
,  // measure 73
0001
0000
1000
1000
,  // measure 74
0100
0010
0001
0000
,  // measure 75
0001
0010
0100
1000
,  // measure 76
0001
0100
0001
0000
1000
0010
1000
0000
,  // measure 77
0001
0100
0001
0000
1000
0000
1000
0000
,  // measure 78
0001
0000
0100
0010
0000
1000
0100
0000
,  // measure 79
1000
0100
0010
0100
,  // measure 80
1000
0000
0001
0100
0000
0001
1000
0000
,  // measure 81
0100
0010
0001
0010
,  // measure 82
0100
0000
1000
0010
0000
1000
0100
0000
,  // measure 83
1000
1000
0001
0001
,  // measure 84
0100
0010
0100
0000
0010
0100
0010
0000
,  // measure 85
1000
0100
0010
0000
0010
0100
1000
0000
,  // measure 86
0001
0000
0100
0010
0000
0100
0001
0000
,  // measure 87
1000
0100
0000
1000
0010
0000
1000
0000
,  // measure 88
0100
0000
0010
0001
0000
0010
0100
0000
,  // measure 89
1000
0001
0000
1000
0100
0000
0010
0000
,  // measure 90
0001
0000
1000
0100
0000
1000
0001
0000
,  // measure 91
0100
0001
0000
1000
0001
0000
0100
0000
,  // measure 92
0010
0000
2002
0000
,  // measure 93
0000
0000
0000
0000
,  // measure 94
0000
0000
0000
0000
,  // measure 95
0000
0000
3003
0000
;

//---------------dance-single - XO/LAT FS----------------
#NOTES:
     dance-single:
     :
     Hard:
     13:
     0.441448,0.577976,0.106802,0.121042,0.142402,434.000000,419.000000,15.000000,17.000000,95.000000,0.000000,0.441448,0.577976,0.106802,0.121042,0.142402,434.000000,419.000000,15.000000,17.000000,95.000000,0.000000:
0000
0000
0000
0000
,
0000
0000
0000
0000
,
0000
0000
0000
0000
,
0000
0000
0000
0000
,
0000
0000
0000
0000
,
0000
0000
0000
0000
,
0000
0000
0000
0000
,
0000
0000
0000
0000
,
1000
0000
0001
0100
00M0
0100
1000
0000
,
1000
0001
0101
1100
,
0001
0000
1000
0100
00M0
0100
0001
0000
,
0001
1000
1010
0011
,
1000
0000
0001
0010
0M00
0010
1000
0000
,
1000
0001
1001
0010
,
1001
0000
0100
0000
0001
0001
0100
0000
,
0010
0000
1000
0000
0010
0010
1000
0000
,
0100
1000
0100
0010
0000
0001
0000
0100
,
0001
1000
0100
0001
,
1000
0010
0001
1000
0000
0100
0000
0010
,
0001
0000
0100
0100
,
0010
0100
0001
0100
0000
0010
0000
1000
,
0001
0000
0100
0010
0000
1000
0000
0001
,
1000
0100
0001
0100
,
1000
1000
0001
0100
,
0001
0100
0010
1000
0000
0100
0000
1000
,
0001
0100
0000
0010
1000
0000
0001
0000
,
1000
0100
0010
0100
0000
0001
0000
0100
,
1000
0001
1000
0100
,
0001
0100
1000
1000
0000
0010
0000
1000
,
0001
0000
0010
0001
0000
1000
0000
0001
,
0100
0100
0010
1000
,
0001
1000
0001
0001
,
1000
0000
0100
1000
0010
0000
1000
0010
,
0100
0000
0001
0010
0000
0100
0010
0000
,
0001
0000
0100
0000
0010
1000
0000
0010
,
0100
0001
1000
0100
,
1000
0100
0010
0100
0000
0010
0001
0000
,
0001
0000
0100
0000
1000
0000
0001
0010
,
1000
0000
0100
0001
0000
0100
0010
0000
,
0110
1100
1001
0101
,
0001
0000
1000
0100
00M0
0100
0001
0000
,
0100
0010
0100
0000
0001
0000
1000
0000
,
0001
0000
1000
0010
0M00
0010
0001
0000
,
0010
0100
0010
0000
0100
0000
0100
0000
,
1000
0000
0001
0100
00M0
0100
1000
0000
,
0010
0100
0010
0000
1000
0000
0100
0000
,
1000
0000
0010
0100
0010
0000
1000
0010
,
1000
0000
0010
0100
0000
0010
0100
0000
,
0001
0000
1000
0000
0100
0010
0100
1000
,
0000
0001
0010
0100
0001
0100
0010
0100
,
1000
0100
1000
0100
0001
0100
1000
0100
,
0010
0100
1000
0001
0100
0001
1000
0100
,
0010
0001
0100
0001
1000
0010
1000
0001
,
0000
1000
0001
0100
0000
0001
1000
0100
,
0001
0100
1000
0001
0010
1000
0001
0100
,
1000
1000
0100
1000
,
0100
0000
0010
0000
1000
0010
0001
0000
,
0020
0130
2000
3100
,
0020
0130
0020
0031
,
2000
3001
0200
0301
,
2000
3100
0020
0031
,
2000
0000
0000
0000
30M1
00M0
00M0
00M0
02M0
00M0
00M0
00M0
03M1
0000
0000
0000
,
1M00
1M00
0010
0000
1M00
1000
0M01
0000
,
0100
01M0
00M1
0000
0100
0100
0010
0000
,
2M00
0M00
0M00
0M00
0M00
0M00
0M00
0M00
0M00
0M00
0M00
0M00
3M00
0000
0000
0000
,
0001
0000
0100
0000
,
00M2
00M0
00M0
00M0
00M0
00M0
00M0
00M0
00M0
00M0
00M0
00M0
00M3
0000
0000
0000
,
1000
0000
0000
0100
0010
0000
0000
0100
,
200M
000M
000M
000M
000M
000M
000M
000M
000M
000M
000M
000M
300M
0000
0010
0000
,
0010
0010
0100
0001
,
00M2
00M0
00M0
00M0
00M0
00M0
00M0
00M0
00M0
00M0
00M0
00M0
00M3
0000
0000
0000
,
1000
1000
0000
0000
0001
0000
0001
0000
,
20M0
00M0
00M0
00M0
00M0
00M0
00M0
00M0
00M0
00M0
00M0
00M0
30M0
0000
0000
0000
,
0001
0000
0100
0010
,
1000
0001
0010
0000
,
0001
0000
1000
0000
0100
1000
0001
0100
,
1000
0100
0001
1000
0010
0001
1000
0100
,
0001
0010
1000
0001
0100
0000
1000
0000
,
0001
0000
1000
0100
00M0
0100
0001
0000
,
1000
0100
0010
0001
0100
0000
0001
0000
,
1000
0000
0001
0100
00M0
0100
1000
0000
,
0001
0100
0010
0100
0010
0000
1000
0000
,
0001
0000
1000
0100
00M0
0100
0001
0000
,
1000
0010
0100
0001
1000
0000
0100
0000
,
1000
0100
0010
0000
1000
0010
0001
0000
,
0001
0100
0010
0000
0001
0010
1000
0000
,
1000
0000
0100
00M0
0100
0000
0001
0000
0100
00M0
0100
0000
1000
0000
0000
0000
,
0010
0100
0001
1000
0100
0000
0011
0000
,
0001
0000
0010
0M00
0010
0000
1000
0000
0010
0M00
0010
0000
0001
0000
0000
0000
,
0010
0100
1000
0001
0010
0000
1100
0000
,
1000
0000
0100
00M0
0100
0000
0001
0000
0100
00M0
0100
0000
1000
0000
0000
0000
,
1000
0001
0100
0000
0010
0000
1001
0000
,
0110
0000
2002
0000
,
0000
0000
0000
0000
,
0000
0000
0000
0000
,
0000
0000
3003
0000
;
