#TITLE:Nasty;
#SUBTITLE:;
#ARTIST:The Prodigy;
#TITLETRANSLIT:;
#SUBTITLETRANSLIT:;
#ARTISTTRANSLIT:;
#GENRE:;
#CREDIT:;
#MUSIC:Nasty.ogg;
#BANNER:Nasty BN.png;
#BACKGROUND:Nasty BG.jpg;
#CDTITLE:;
#SAMPLESTART:0.000;
#SAMPLELENGTH:0.000;
#SELECTABLE:YES;
#OFFSET:-0.428;
#BPMS:0.000=140.000
,28.000=280.000
,204.000=140.000
,236.000=280.000
,292.000=140.000
,296.000=280.000
,456.000=140.000
,460.000=70.000
,462.000=35.000
;
#STOPS:;
#BGCHANGES:;
#FGCHANGES:;

//--------------- dance-single - Minxyz ----------------
#NOTES:
     dance-single:
     Minxyz:
     Medium:
     13:
     0,0,0,0,0:
0000
0000
0000
0000
,
0000
0000
0000
0000
,
0000
0000
0000
0000
,
0000
0000
0000
0000
,
0000
0000
0000
0000
,
0000
0000
0000
0000
,
0000
0000
0000
0000
,
1000
0000
0000
0010
0000
0000
0010
0000
,
0000
1000
0000
0001
0100
0000
0000
0000
,
0001
0000
0000
0010
0000
0000
0010
0000
,
0000
0001
0000
0000
0001
0010
0100
1000
,
0001
0000
0000
0100
0000
0000
0100
0000
,
0000
0001
0000
1000
0010
0000
0000
0000
,
1000
0000
0000
0100
0000
0000
0100
0000
,
0000
1000
0000
0000
1000
0000
0001
0100
,
0010
0000
0000
1000
0000
0000
1000
0000
,
0000
1000
0000
0000
0100
0000
0000
0000
,
0010
0000
0000
0001
0000
0000
0010
0000
,
0000
0100
0000
0000
1000
0100
0010
0001
,
1000
0000
0000
0100
0000
0000
0100
0000
,
0000
1000
0000
0001
0010
0000
0000
0000
,
0001
0000
0000
0100
0000
0000
0100
0000
,
0000
0001
0000
0000
0001
0100
0010
1000
,
0001
0000
0000
0010
0000
0000
0010
0000
,
0000
0001
0000
1000
0100
0000
0000
0000
,
1000
0000
0000
0010
0000
0000
0010
0000
,
0000
1000
0000
0000
1000
0000
0001
0010
,
0100
0000
0000
1001
0000
0000
0100
0000
,
0000
1001
0010
0000
,
0100
0000
0000
0001
0000
0000
0100
0000
,
0000
0010
0000
0000
1000
0010
0100
0001
,
0100
0000
0000
0101
0000
0000
0010
0000
,
0000
1010
0100
0000
,
0010
0000
0001
0010
0000
0100
0010
0000
,
0110
0000
0000
0000
1000
0100
0010
0001
,
0010
0000
0000
1001
0000
0000
0010
0000
,
0000
1001
0100
0000
,
0010
0000
0000
1000
0000
0000
0010
0000
,
0000
0100
0000
0000
0001
0100
0010
1000
,
0010
0000
0000
1010
0000
0000
0100
0000
,
0000
0101
0010
0000
,
0100
0000
1000
0100
0000
0010
0100
0000
,
0110
0000
0000
0000
0001
0010
0100
1000
,
0100
0000
0000
0011
,
0000
0000
1100
0000
,
0010
0000
0000
0101
,
0000
0000
1010
0000
,
0110
0000
0000
1001
,
0000
0000
0110
0000
,
1000
0000
0100
0010
0000
0001
0010
0000
,
0100
0000
0000
1000
0000
0000
0001
0000
,
0100
0000
0010
0000
,
0001
0000
0010
0000
1000
0000
0001
0000
0000
0000
0000
0000
,
1000
0000
0010
0000
,
1000
0000
0100
0000
0001
0000
1000
0000
0000
0000
0000
0000
,
0010
0000
0001
0000
,
1000
0000
0010
0000
0001
0000
1000
0000
0000
0000
0000
0000
,
0001
0000
0010
0000
,
1000
0000
0000
0000
0100
0000
0000
0000
0010
0000
0000
0000
0001
0000
0000
0100
0000
0000
0010
0000
0000
1000
0000
0000
,
0100
0000
0000
1000
0100
0000
0000
0000
,
1000
1010
0000
0000
,
0100
0000
0000
0001
0100
0000
0000
0000
,
0001
0011
0000
0000
,
1000
0000
0000
0010
0100
0000
0000
0000
,
0001
0011
0000
0000
,
0010
0000
0000
0001
0010
0000
0000
0000
,
0100
0000
0110
0000
0010
0100
0010
0100
,
0010
0000
0000
0001
0010
0000
0000
0000
,
0001
0101
0000
0000
,
0010
0000
0000
1000
0010
0000
0000
0000
,
1000
1100
0000
0000
,
0001
0000
0000
0100
0010
0000
0000
0000
,
1000
0010
0000
0000
,
0001
0000
0000
0010
0000
0000
0100
0000
1000
0000
0000
0010
0000
0000
0100
0000
,
0001
0000
1001
0100
,
0000
0110
0000
0000
,
0001
0000
0000
0010
0000
0000
1000
0000
,
0000
0010
0000
0000
0000
1000
0000
0000
,
0110
0000
0010
1001
,
0000
0110
0000
0000
,
1000
0000
0000
0100
0000
0000
0001
0000
,
0100
0000
0000
0000
1000
0100
1000
0100
,
1000
0000
1001
0010
,
0000
0110
0000
0000
,
1000
0000
0000
0100
0000
0000
0001
0000
,
0000
0100
0000
0000
0000
0001
0000
0000
,
0110
0000
0100
1001
,
0000
0110
0000
0000
,
0001
0000
0000
0010
0000
0000
1000
0000
,
0010
0000
0000
0000
0001
0010
0001
0010
,
0001
0000
0000
0010
1000
0000
0100
0000
,
0000
0001
0100
0000
1000
0000
0001
0000
,
0100
0000
0000
0001
0000
0000
0010
0000
,
0000
1000
0000
0000
0000
0010
0000
0000
,
0001
0000
0000
0010
1000
0000
0001
0000
,
0000
0100
1000
0000
0010
0000
0100
0000
,
0120
0000
0000
1000
0000
0000
0100
0000
,
0130
0000
1000
0000
0100
0010
0100
0010
,
1000
0000
0000
0010
0001
0000
0100
0000
,
0000
1000
0100
0000
0001
0000
1000
0000
,
0100
0000
0000
1000
0000
0000
0010
0000
,
0000
0001
0000
0000
0000
0010
0000
0000
,
1000
0000
0000
0010
0001
0000
1000
0000
,
0000
0100
0001
0000
0010
0000
0100
0000
,
0120
0000
0000
0001
0000
0000
0100
0000
,
0130
0000
0001
0000
0100
0010
0100
0010
,
0001
0000
0000
0010
0000
0000
1000
0000
,
0000
0100
0000
0000
0010
0000
0000
0000
,
1000
0000
0000
0010
0000
0000
0001
0000
,
0000
0100
0000
0000
0010
0000
0000
0000
,
1000
0000
0000
0100
0000
0000
0010
0000
,
0000
0001
0000
0000
0010
0000
0001
1000
,
0001
0000
1100
0000
0000
0110
0000
0000
,
0101
0000
0000
0110
0000
0000
0110
0000
,
0220
0000
0000
0000
,
0330
0000
0000
0000
;

//--------------- dance-single - Minxyz ----------------
#NOTES:
     dance-single:
     Minxyz:
     Hard:
     15:
     0,0,0,0,0:
0000
0000
0000
0000
,
0000
0000
0000
0000
,
0000
0000
0000
0000
,
0000
0000
0000
0000
,
0000
0000
0000
0000
,
0000
0000
0000
0000
,
0000
0000
0000
1001
,
1000
0000
0000
0100
0000
0000
0010
0000
,
0000
0001
0000
0000
1000
0000
0000
0000
,
0001
0000
0000
0010
0000
0000
0100
0000
,
0000
1000
0000
0000
0001
0010
0001
0010
,
0100
0000
0000
0010
0000
0000
0001
0000
,
0000
0100
0000
0000
0010
0000
0000
0000
,
1001
0000
0000
0010
0000
0000
1000
0000
,
0000
0100
0000
0000
0010
0000
0000
0000
,
0110
0000
0000
0100
0000
0000
1000
0000
,
0000
0010
0000
0000
0100
0000
0000
0000
,
1100
0000
0000
0100
0000
0000
0001
0000
,
0000
0010
0000
0000
0100
0010
0100
0010
,
0001
0000
0000
1000
0000
0000
0100
0000
,
0000
0010
0000
0000
0001
0000
0000
0000
,
0011
0000
0000
0011
0000
0000
0110
0000
,
0000
1100
0000
0000
1100
0000
0000
0000
,
1000
0000
0000
0001
0000
0000
0010
0000
,
0000
0100
0000
0000
1000
0000
0000
0000
,
1100
0000
0000
1100
0000
0000
0110
0000
,
0000
0011
0000
0000
0001
0010
0100
1000
,
0100
0000
0000
0100
0110
0000
0001
0000
,
0000
0000
2002
0000
0000
3003
0000
0000
,
1002
0000
0000
0010
0000
0000
0100
0000
,
0000
1000
0000
0000
0013
0000
0000
0000
,
0010
0000
0000
0010
0110
0000
1000
0000
,
0000
0000
2002
0000
0000
3003
0000
0000
,
2001
0000
0000
0100
0000
0000
0010
0000
,
0001
0000
0001
0000
3100
0010
0100
0010
,
0001
0000
0000
1000
1001
0000
0100
0000
,
0000
0000
0220
0000
0000
0330
0000
0000
,
0210
0000
0000
1000
0000
0000
0010
0000
,
0000
0001
0000
0000
1300
0000
0000
0000
,
1000
0000
0000
0001
1001
0000
0010
0000
,
0000
0000
0220
0000
0000
0330
0000
0000
,
0120
0000
0000
0001
0000
0000
0100
0000
,
0000
1000
0000
0000
0031
0010
0000
0001
,
1000
0000
0000
0010
0000
0000
1010
0000
,
0000
0010
0000
0000
0101
0000
0000
0000
,
0001
0000
0000
0010
0000
0000
0011
0000
,
0000
0010
0000
0000
0110
0000
0000
0000
,
1000
0000
0000
0100
0000
0000
0110
0000
,
0000
0100
0000
0000
1100
0000
0000
0000
,
0100
0000
0001
0100
0000
1000
0100
0000
,
0001
0100
0000
1000
0010
0000
1000
0010
,
2000
3000
0020
0030
,
0002
0000
0000
0003
0200
0000
0000
0000
2300
0000
0000
0000
3020
0000
0000
0030
0000
0000
0000
0000
0000
0000
0000
0000
,
0002
0003
0020
0030
,
2000
0000
3200
0000
0302
0000
0023
0000
0030
0000
0000
0000
,
0002
0003
0020
0030
,
2000
0000
3200
0000
0302
0000
0023
0000
0030
0000
0000
0000
,
2000
3000
0020
0030
,
0002
0000
0000
0000
0000
0000
0000
0000
0203
0000
0000
0000
0000
0000
0000
0000
2300
0000
0000
0000
0000
0000
0000
0000
3010
0000
0000
0000
0000
0000
1000
0000
0000
0000
0000
0000
0100
0000
0000
0010
0000
0000
0100
0000
0000
0010
0000
0000
,
0001
0000
0000
0100
0010
0000
0000
0000
,
1000
1001
0000
0000
,
1010
0000
0000
0000
0010
0000
0100
0000
0001
0000
0000
0000
,
0001
1001
0000
0000
,
1100
0000
0000
0001
0100
0000
0000
0000
,
0100
0110
0000
0000
,
0101
0000
0000
0000
0100
0000
1000
0000
0001
0000
0000
0000
,
0010
0000
0110
0000
0001
1000
0001
1000
,
0001
0000
0000
0010
0100
0000
0000
0000
,
1000
1001
0000
0000
,
1100
0000
0000
0000
0100
0000
0010
0000
0001
0000
0000
0000
,
0100
1001
0000
0000
,
0110
0000
0000
0001
0010
0000
0000
0000
,
0010
0110
0000
0000
,
0001
0000
0000
0010
0000
0000
1000
0000
0001
0000
0000
0100
0000
0000
1000
0000
,
0100
0000
0000
0010
0001
0000
1000
0100
,
0000
0220
0330
0000
,
1000
0000
0000
0010
0100
0000
0010
1000
,
0000
0010
0001
0000
0010
0000
0000
0000
,
1000
0000
0000
0100
1000
0000
0001
0010
,
0000
0220
0330
0000
,
0001
0000
0100
0010
0000
0100
0001
0000
,
0100
1000
0100
0000
0100
0001
1000
0100
,
0010
0000
0000
0100
1000
0000
0001
0010
,
0000
0220
0330
0000
,
0001
0000
0000
0100
0010
0000
0100
0001
,
0000
0100
1000
0000
0100
0000
0000
0000
,
0001
0000
0000
0010
0001
0000
1000
0100
,
0000
0220
0330
0000
,
1000
0000
0010
0100
0000
0010
1000
0000
,
0010
0001
0010
0000
0010
1000
0000
0010
,
0100
0000
0001
0010
0000
0100
1000
0000
,
0000
0001
0100
0000
0010
1000
0010
1000
,
0010
0000
0000
0100
0001
0000
1000
0100
,
0000
0010
0001
0000
1000
0001
1000
0001
,
1000
0000
0100
0001
0000
0100
1000
0000
,
0010
0100
0000
0000
0001
0010
0001
0010
,
0001
0000
1000
0100
0000
0010
0001
0000
,
0010
0100
0000
0000
1000
0100
0010
0001
,
0010
0000
0001
0100
0000
0010
1000
0000
,
0000
0001
0010
0000
0100
1000
0100
1000
,
0100
0000
0000
0010
0001
0000
1000
0010
,
0000
0100
0001
0000
1000
0001
1000
0001
,
1000
0000
0010
0001
0000
0010
1000
0000
,
0100
0010
0000
0000
0001
0100
0001
0100
,
0001
0000
1000
0010
0000
0100
0001
0000
,
0100
0010
0000
0000
1000
0010
0100
0001
,
1000
0000
0000
0010
0000
0000
1010
0000
,
0000
0010
0000
0000
0101
0000
0000
0000
,
0001
0000
0000
0010
0000
0000
0011
0000
,
0000
0010
0000
0000
0110
0000
0000
0000
,
1000
0000
0000
0100
0000
0000
0110
0000
,
0000
0100
0000
0000
1100
0000
0000
0000
,
1100
0000
0001
1000
0000
0001
1000
0000
,
1001
0000
0000
1001
0000
1000
0001
0000
,
2002
0000
0000
0000
,
3003
0000
0000
0000
;
