#TITLE:My Only Shining Star;
#SUBTITLE:;
#ARTIST:NAOKI feat. Becky Lucinda and SilvaGunner;
#TITLETRANSLIT:;
#SUBTITLETRANSLIT:;
#ARTISTTRANSLIT:;
#GENRE:;
#CREDIT:GalaxyStar;
#MUSIC:My Only Shining Star - DanceDanceRevolution SuperNOVA.ogg;
#BANNER:My Only Shining Star.png;
#BACKGROUND:;
#CDTITLE:My Only Shining Star-jacket.png;
#SAMPLESTART:0.000;
#SAMPLELENGTH:0.000;
#SELECTABLE:YES;
#OFFSET:0.745;
#BPMS:0.000=155.000;
#STOPS:;
#BGCHANGES:;
#FGCHANGES:;

//--------------- dance-single - GalaxyStar ----------------
#NOTES:
     dance-single:
     GalaxyStar:
     Hard:
     13:
     0,0,0,0,0:
0000
0000
0000
0000
,
0000
0000
1000
0000
0000
0001
0000
0010
0000
0000
0001
0000
0000
0100
0000
0010
,
0000
0000
1000
0000
0000
0010
0000
0100
0000
0000
0010
0000
0000
1000
0000
0001
,
0000
0000
0100
0000
0000
0001
0000
0010
0000
0000
0001
0000
0000
1000
0000
0001
,
0000
0000
0010
0000
0000
0100
0000
0010
0001
0000
0100
0001
0000
1000
0010
0000
,
0100
0010
1000
0100
0001
0100
1000
0010
,
0100
0010
1000
0001
0100
0010
0100
0001
,
1000
0100
0010
0001
0100
1000
0100
0001
,
1100
0000
0000
0000
1010
0000
0000
0000
0110
0000
0000
0101
0000
0000
0101
0000
,
1000
0100
0001
0000
0100
1000
0001
0000
,
0100
0100
0010
0100
0001
0010
0100
1000
,
0000
0010
0100
0000
0001
0000
1000
0000
,
0100
0010
0000
0100
1000
0000
0010
0100
0000
0001
0010
0000
0001
1000
0010
0100
,
0001
0010
1000
0000
0010
0001
1000
0000
,
0010
0010
0100
0010
1000
0100
0010
0001
,
0000
0100
0010
0000
1000
0000
0001
0000
,
0010
0100
0000
0010
0001
0000
0100
0010
0000
1000
0100
0000
1000
0001
0100
0000
,
1010
1000
0100
0010
0011
0010
0001
1000
,
0001
0100
1000
0100
0010
0100
0001
0010
,
0011
0001
0010
0100
1100
0100
1000
0001
,
1000
0100
0001
0100
0020
0000
0030
0000
,
1010
1000
0100
0010
0011
0010
0001
1000
,
0001
0100
1000
0100
0010
0100
0001
0010
,
0011
0101
0000
0011
0101
0100
0010
0000
,
1100
0000
1010
0000
0000
0000
1100
0000
2020
0000
0000
0000
0000
0000
0000
3030
,
1000
0010
0001
0010
1000
0000
0001
0010
,
0001
0100
0000
1000
0000
0000
0000
0100
,
0010
1000
0010
0100
0010
0000
0001
0010
,
0001
0100
0000
1000
0000
0000
0000
0000
,
0001
0010
1000
0010
0001
0000
1000
0010
,
1000
0100
0000
0001
0000
0000
0100
0010
,
0100
1000
0010
0100
0001
0000
1000
0100
,
0010
0100
0010
0001
1001
0000
0110
0000
,
1000
0010
0001
0010
1000
0000
0001
0010
,
0001
0100
0000
1000
0000
0000
0000
0100
,
0010
1000
0010
0100
0010
0000
0001
0010
,
0001
0100
0000
1000
0000
0000
0000
0000
,
0001
0010
1000
0010
0001
0000
1000
0010
,
1000
0100
0000
0001
0000
0000
0100
0010
,
0100
1000
0010
0100
0001
0000
1000
0100
,
0010
0100
0010
0001
1001
0000
0110
0000
,
0200
0000
0000
0000
0000
0000
0000
1000
1000
0000
0000
0000
0000
0000
0010
0000
,
0010
0000
0300
0100
0010
0100
1000
0100
,
0110
0000
0101
0000
0101
0000
0000
0020
,
0000
0030
0011
0000
0011
0000
0000
0000
0001
0000
0100
0000
0010
1000
0000
0000
,
0100
0000
0000
0100
0000
0000
0020
0000
0000
0030
0002
0000
0000
0003
0020
0000
,
0030
0010
0100
0000
0100
1000
0000
0000
0001
0000
0010
0000
0100
0000
1000
0000
,
0100
0000
0010
0000
0010
0000
1000
0100
,
0000
0000
0010
0000
0001
0000
0000
0000
4004
0000
0000
0000
0000
0000
0000
3003
,
0001
0100
1000
0100
0001
0000
1000
0100
,
1000
0010
0000
0001
0000
0000
0000
0010
,
0100
0001
0100
0010
0100
0000
1000
0100
,
1000
0010
0000
0001
0000
0000
0000
0000
,
1000
0100
0001
0100
1000
0000
0001
0100
,
0001
0010
0000
1000
0000
0000
0010
0100
,
0010
0001
0100
0010
1000
0000
0001
0010
,
0100
0010
0100
1000
1001
0000
0110
0000
,
0100
0000
1000
0100
0000
1000
0010
0000
0022
0000
0033
0202
0000
0303
0011
0000
,
0010
0000
0100
1000
0000
0100
0010
0000
0022
0000
0033
0202
0000
0303
0110
0000
,
0010
0000
0100
0001
0000
0100
0010
0000
0220
0000
0330
2020
0000
3030
1100
0000
,
1000
0000
0000
0010
0000
0000
0100
0000
0000
0001
1000
0000
0001
0000
0100
0000
,
0101
0000
0000
0110
0000
0000
2020
0000
3030
0000
0000
0000
0000
0000
0000
0000
;
