#TITLE:Murder Me '21;
#SUBTITLE:;
#ARTIST:E-Rotic;
#TITLETRANSLIT:;
#SUBTITLETRANSLIT:;
#ARTISTTRANSLIT:;
#GENRE:;
#CREDIT:;
#BANNER:Murder_Me-bn.png;
#BACKGROUND:Murder_Me-bg.png;
#LYRICSPATH:;
#CDTITLE:;
#MUSIC:Murder Me '21.ogg;
#OFFSET:0.210000;
#SAMPLESTART:48.571487;
#SAMPLELENGTH:12.000000;
#SELECTABLE:YES;
#BPMS:0.000000=123.000000
;
#STOPS:
;
#BGCHANGES:0.000=Murder_Me-bg.png=1.000=0=0=0=StretchNoLoop====,
0.431=Murder Me '21.avi=1.000=0=0=1=====,
351.000=Murder_Me-bg.png=1.000=0=0=1=====,
99999=-nosongbg-=1.000=0=0=0 // don't automatically add -songbackground-
;
#KEYSOUNDS:;
#ATTACKS:;

//---------------dance-single - ----------------
#NOTES:
     dance-single:
     :
     Easy:
     5:
     0.291241,0.351618,0.345914,0.000000,0.000000,277.000000,230.000000,47.000000,0.000000,0.000000,0.000000,0.291241,0.351618,0.345914,0.000000,0.000000,277.000000,230.000000,47.000000,0.000000,0.000000,0.000000:
// measure 0
0000
0000
0000
0000
,  // measure 1
0000
0000
0000
0000
1000
0000
0000
0001
,  // measure 2
0000
0000
0000
0000
0100
0000
0000
0010
,  // measure 3
0000
0000
0000
0000
0100
0000
0000
0001
,  // measure 4
0000
0000
0000
0000
1000
0000
0000
0100
,  // measure 5
0000
0010
0001
1000
,  // measure 6
0010
0000
0100
0010
,  // measure 7
1000
0001
0010
0100
,  // measure 8
0010
0000
0100
1000
,  // measure 9
0001
0100
0010
0100
,  // measure 10
0001
0000
1000
0100
,  // measure 11
1000
0010
0100
0100
,  // measure 12
0010
0010
0100
0100
,  // measure 13
0001
1000
0100
0010
,  // measure 14
0001
0000
0010
0100
,  // measure 15
1000
0010
0100
0001
,  // measure 16
1000
0000
0000
0001
,  // measure 17
0010
0100
0010
0001
,  // measure 18
1000
0000
0000
0010
,  // measure 19
0100
0010
1000
1000
,  // measure 20
0001
0001
1000
1000
,  // measure 21
0100
0010
1001
1001
,  // measure 22
1000
0010
0110
0110
,  // measure 23
0010
0000
1000
0000
1100
0000
0000
1001
,  // measure 24
0000
0000
0101
0000
0110
0000
0000
1010
,  // measure 25
0000
1001
0001
0010
,  // measure 26
0100
1000
0010
0010
,  // measure 27
0100
0000
0001
0000
0011
0000
0000
1001
,  // measure 28
0000
0000
1010
0000
0110
0000
0000
0101
,  // measure 29
0000
1001
1000
0100
,  // measure 30
0010
0100
1000
1000
,  // measure 31
0001
0000
0100
0000
0110
0000
0000
1010
,  // measure 32
0000
0000
0011
0000
1010
0000
0000
0101
,  // measure 33
0000
1100
0001
0100
,  // measure 34
0010
0000
0100
0001
,  // measure 35
1000
0000
0100
0010
,  // measure 36
0001
0000
1000
0010
,  // measure 37
0100
0010
1000
0001
,  // measure 38
0010
0000
0010
0100
,  // measure 39
0010
0001
1000
0010
,  // measure 40
0100
0000
0010
0100
,  // measure 41
0001
1000
0100
0100
,  // measure 42
0010
0010
0100
0100
,  // measure 43
1000
0001
0100
0010
,  // measure 44
0100
0000
0010
1000
,  // measure 45
0001
0010
0001
1000
,  // measure 46
0010
0000
0100
0001
,  // measure 47
1000
0100
0010
0100
,  // measure 48
1000
0000
0001
0100
,  // measure 49
0010
0100
0100
0010
,  // measure 50
0010
0100
0100
0001
,  // measure 51
1000
0100
0010
0010
,  // measure 52
0100
1000
0010
0010
,  // measure 53
0100
0000
0001
0000
0011
0000
0000
1001
,  // measure 54
0000
0000
1010
0000
0110
0000
0000
0101
,  // measure 55
0000
1100
0100
0010
,  // measure 56
0001
1000
0010
0010
,  // measure 57
0100
0000
0001
0000
0011
0000
0000
1100
,  // measure 58
0000
0000
1010
0000
0101
0000
0000
0011
,  // measure 59
0000
1001
1000
0100
,  // measure 60
0010
0100
1000
1000
,  // measure 61
0001
0000
0100
0000
0110
0000
0000
0101
,  // measure 62
0000
0000
1001
0000
1100
0000
0000
0110
,  // measure 63
0000
0011
1000
0010
,  // measure 64
0100
0010
0100
0100
,  // measure 65
0001
0000
1000
0000
1100
0000
0000
1001
,  // measure 66
0000
0000
0101
0000
0011
0000
0000
0110
,  // measure 67
0000
0000
1100
0000
1000
0000
0000
0001
,  // measure 68
0000
1001
0000
0000
;

//---------------dance-single - ----------------
#NOTES:
     dance-single:
     :
     Medium:
     8:
     0.348017,0.351618,0.110398,0.110398,0.000000,331.000000,316.000000,15.000000,15.000000,0.000000,0.000000,0.348017,0.351618,0.110398,0.110398,0.000000,331.000000,316.000000,15.000000,15.000000,0.000000,0.000000:
0000
0000
0000
0000
,
0000
0000
1000
0001
,
0100
0000
0010
0100
,
0001
0000
0010
0100
,
0010
0000
0001
1000
,
0010
0000
0100
0000
0010
0000
1000
0001
,
1000
0000
0001
0100
,
0010
0000
1000
0000
0001
0000
0010
0100
,
0010
0000
0100
0010
,
0001
0000
1000
0000
0010
0000
0100
0001
,
0100
0000
0010
1000
,
0100
0000
0010
0000
0001
0000
1000
0010
,
0100
0000
0010
1000
0001
0000
0010
0100
,
1000
0000
0001
0000
1000
0000
0010
0100
,
0001
0010
0100
0010
,
0001
0000
1000
0000
0010
0000
0100
0010
,
1000
0001
0010
0100
,
0010
0000
0001
0000
1000
0000
0010
0100
,
0010
1000
0001
0010
,
0100
0000
0010
0001
1000
0000
0010
0100
,
0001
0000
0010
0100
1000
0000
0010
0100
,
0001
0000
2001
3100
,
0010
0001
0010
0000
1002
0000
0103
0000
,
0010
1000
0010
0000
0100
0000
0100
0010
,
0000
0100
0010
0000
0100
0000
0010
0100
,
0000
0010
0100
0000
1002
0000
0013
0000
,
0001
0100
0001
0000
2001
0000
3010
0000
,
1000
0100
1000
0000
0001
0000
0010
0100
,
0000
0010
0001
0000
1000
0000
0010
0100
,
0000
0010
1000
0000
1020
0000
0130
0000
,
0001
1000
0001
0000
0021
0000
0130
0000
,
0010
0001
0010
0000
0100
0000
1000
0100
,
0000
1000
0001
0000
0100
0000
0010
0100
,
0000
0001
1000
0000
0100
0000
0010
0000
,
0002
0003
1000
0010
,
0100
0000
0000
0000
0010
0000
1000
0001
,
1000
0100
0010
0100
,
1000
0000
0010
0000
0100
0000
0001
0010
,
0001
1000
0010
0100
,
0010
0000
1000
0000
0100
0000
0010
0001
,
0010
0100
1000
0001
,
0100
0000
0010
1000
0010
0000
1000
0010
,
1000
0000
0010
1000
0010
0000
1000
0010
,
1000
0000
0001
0000
0010
0000
0100
0010
,
0100
0010
0001
1000
,
0010
0000
0100
0000
0001
0000
0010
0100
,
0010
0001
1000
0010
,
0100
0000
0010
0000
1000
0000
0001
0010
,
0001
1000
0010
0100
,
0001
0000
0010
0100
0010
0000
0100
0010
,
0100
0000
0010
0100
0010
0000
0100
0000
,
0010
0001
2001
3010
,
0100
0001
0100
0000
1002
0000
0013
0000
,
0100
1000
0100
0000
0010
0000
0001
0100
,
0000
0010
0100
0000
0010
0000
1000
0100
,
0000
0010
0001
0000
1002
0000
0103
0000
,
0001
0010
0001
0000
2001
0000
3100
0000
,
1000
0010
1000
0000
0001
0000
0100
0010
,
0000
0100
0001
0000
1000
0000
0100
0010
,
0000
0100
1000
0000
1200
0000
0310
0000
,
0001
1000
0001
0000
0201
0000
0310
0000
,
0100
0001
0100
0000
0010
0000
1000
0010
,
0000
1000
0001
0000
0010
0000
0100
1000
,
0000
0010
0100
0000
0210
0000
0301
0000
,
0100
0001
0010
0000
0120
0000
0031
0000
,
1000
0001
0100
0000
0010
0000
1000
0100
,
0000
1000
0001
0000
0100
0000
0010
0100
,
0000
0001
0010
0000
0100
1000
0100
1000
,
0001
0100
0110
0000
0000
0000
0000
0000
;

//---------------dance-single - JA XO----------------
#NOTES:
     dance-single:
     Nymphomanijacks:
     Hard:
     12:
     0.500471,0.452080,0.022080,0.272315,0.007360,476.000000,473.000000,3.000000,37.000000,0.000000,0.000000,0.500471,0.452080,0.022080,0.272315,0.007360,476.000000,473.000000,3.000000,37.000000,0.000000,0.000000:
0000
0000
0000
0000
,
0000
0000
0000
0000
1000
0100
1000
0100
,
0010
0010
0000
0000
0001
0100
0001
0100
,
0010
0010
0000
0000
1000
0001
1000
0001
,
0010
0010
0000
0000
0100
1000
0100
1000
,
0010
0010
1001
0000
0001
1000
0001
0100
,
1000
0000
0100
0000
0010
0100
0010
1000
,
0100
0010
0001
1000
0001
0010
1000
0010
,
0001
0000
1000
0000
0010
1000
0100
0010
,
0001
0001
1000
0100
1000
0010
0001
0010
,
1000
0000
0001
0000
0010
0100
1000
0001
,
1000
0100
0001
0100
1000
1000
0001
0100
,
0010
0010
0100
0001
1000
1000
0100
0000
,
0010
0000
0001
1000
0001
0000
0000
0000
1000
0000
0010
0000
1000
0000
0001
0000
,
0020
0000
0130
0000
0010
0001
1000
0010
,
0100
1000
0100
0001
0010
0100
0001
0100
,
2000
0000
3001
0100
0100
0010
0100
0001
,
0010
0100
0001
0100
1000
0001
1000
0010
,
0001
0010
0200
0300
0001
0010
0200
2300
,
3001
0100
1000
0100
0001
0001
0010
0100
,
1000
1000
0010
0100
0001
1000
0100
0010
,
0100
1000
0010
0000
0200
0000
0301
0000
,
1000
0100
0001
0100
2000
0000
3001
0000
,
1000
0010
0001
0010
1000
1000
1000
0100
,
0100
0100
0010
0010
0001
0001
0001
1000
,
1000
1000
0010
0010
0200
0000
0301
0000
,
1000
0010
0001
0010
2000
0000
3001
0000
,
1000
0100
0001
0100
1000
1000
1000
0010
,
0010
0010
0100
0100
0001
0001
0001
0010
,
0010
0010
0100
0100
2000
0000
3010
0000
,
0100
0001
0100
0001
0200
0000
0310
0000
,
0100
0100
0100
0001
0010
0010
0010
0001
,
0001
0001
1000
1000
0010
0010
0010
0100
,
0100
0100
0001
0001
2000
3002
2003
0000
,
3020
0030
0100
0002
2003
3002
0023
0000
,
0230
0000
0310
0000
0001
1000
0010
0100
,
1000
0000
0100
0000
0001
1000
0100
0010
,
0100
1000
0001
0010
1000
0010
0001
0100
,
0020
0000
0130
0000
0001
1000
0001
0010
,
0100
0001
0100
1000
0010
0100
0001
0010
,
0200
0000
1300
0000
0001
1000
0001
0100
,
0010
0010
0010
1000
0100
0100
0010
0001
,
0100
0000
0100
0000
0010
0000
1000
0000
0002
0000
0000
0000
0013
0000
0000
0100
,
1000
0001
1001
0000
0001
1000
0010
0100
,
1000
0000
0100
0001
1000
0100
0100
1000
,
0001
0100
0001
0010
1000
0010
0100
1000
,
0100
0020
0032
0203
0310
0100
1000
0100
,
0001
0001
1000
0100
0010
0100
0001
0100
,
1000
0020
0230
0302
0003
1000
0001
0100
,
0001
0010
1000
0010
0001
0001
1000
0010
,
0100
0100
0010
1000
0001
0010
0100
1000
,
0010
0100
0001
1000
0200
0000
0310
0000
,
0001
0100
1000
0100
0002
0000
1003
0000
,
0001
0010
1000
0010
0001
0001
0001
0100
,
0100
0100
0010
0010
1000
1000
1000
0001
,
0001
0001
0010
0010
0200
0000
1300
0000
,
0001
0010
0001
0010
0002
0000
1003
0000
,
0100
0100
0100
1000
0001
0001
0001
0010
,
0010
0010
0100
0100
1000
1000
1000
0010
,
0010
0010
0100
0100
0002
0000
0013
0000
,
0001
0100
1000
0100
0002
0000
1003
0000
,
0001
0010
1000
0010
0100
0100
0100
1000
,
1000
1000
0001
0001
0100
0100
0100
0010
,
0010
0010
1000
1000
0002
0000
1003
0000
,
0010
0100
0010
0100
0020
0000
1030
0000
,
0100
0100
0100
0010
0001
0001
0001
0100
,
0100
0100
0010
0010
0100
0100
0100
0001
,
0001
0001
1000
1000
0001
0010
0001
0010
,
0100
0100
1001
0000
0000
0000
0000
0000
;

//---------------dance-single - FS XO-----------------
#NOTES:
     dance-single:
     Death by snu-snu:
     Challenge:
     14:
     0.645566,0.761746,0.139838,0.206076,0.526231,614.000000,595.000000,19.000000,28.000000,47.000000,0.000000,0.645566,0.761746,0.139838,0.206076,0.526231,614.000000,595.000000,19.000000,28.000000,47.000000,0.000000:
0000
0000
0000
0000
,
0000
0000
0000
0000
1000
0001
0010
0001
,
0100
1000
0000
0000
0100
0001
1000
0001
,
0010
1000
0000
0000
0010
0100
1000
0010
,
0100
1000
0000
0000
0100
0001
1000
0100
,
0001
0100
1001
0000
1000
0010
0100
0001
,
0020
0000
0000
0000
0130
0000
0000
0000
0010
0000
0001
1000
0001
0000
0010
0000
,
0100
0000
1000
0000
0010
0000
0100
0000
0001
0000
1000
0100
1000
0000
0001
0000
,
0200
0000
0000
0000
0310
0000
0000
0000
0100
0000
0001
1000
0100
0000
0010
0000
,
0100
0000
1000
0000
0001
0000
0100
0000
0010
0000
1000
0001
0010
0000
0100
0000
,
0020
0000
0000
0000
0031
0000
0000
0000
1000
0000
0001
1000
0010
0000
0100
0000
,
0020
0000
2030
0000
3001
0000
0010
0000
0100
0000
1000
0001
0100
0000
0010
0000
,
0100
0000
0001
0000
0010
0000
0100
0000
1100
0000
1000
0001
0100
0010
1000
0000
,
0001
0000
0010
0100
1000
0000
0001
0000
1000
0000
0001
0010
0100
0000
1000
0000
,
0001
0000
1000
0000
0010
0000
0001
0000
0010
0000
0100
0001
1000
0000
0001
0000
,
2000
0000
0001
0000
3020
0000
0100
0000
1030
0000
0001
0010
0100
0000
1000
0000
,
0001
0000
0010
0000
1000
0000
0010
0M00
0010
0000
1000
0001
1000
0000
0010
0000
,
0100
0000
0010
0000
1000
0000
0001
0000
1001
0000
0001
0100
0010
0000
1000
0000
,
1100
0000
0001
0000
0100
0000
1000
0000
0100
0000
0010
1000
0001
0000
0010
0000
,
0200
0000
0310
0000
0200
0000
0310
0000
0001
0000
1000
0100
1000
0001
0100
0000
,
0020
0000
0000
0000
0130
0000
0010
0000
1000
0000
0001
0010
0100
0000
1000
0000
,
0010
0100
0001
0000
2001
0000
3100
0000
,
0010
0001
0100
1000
1200
0000
0301
0000
,
1000
0000
0100
0000
0001
0000
0100
0000
0010
0M00
0010
0000
1000
0000
0010
0M00
,
0010
0000
0001
0000
0100
00M0
0100
0000
0010
0M00
0010
0000
1000
0000
0010
0M00
,
0010
0000
0001
0000
0010
0M00
0010
0000
1020
0000
0000
0000
0130
0000
0000
0000
,
0001
0010
0100
0001
0201
0000
1300
0000
,
0001
0000
0100
0000
1000
0000
0100
0000
0010
0M00
0010
0000
0001
0000
0010
0M00
,
0010
0000
1000
0000
0100
00M0
0100
0000
0010
0M00
0010
0000
0001
0000
0010
0M00
,
0010
0000
1000
0000
0010
0M00
0010
0000
0012
0000
1003
0010
0100
0000
0010
1000
,
0001
0000
0010
0100
1000
0000
0001
0100
0001
0100
0001
0100
0001
0000
1000
0001
,
0100
0000
0100
0000
0100
0000
0001
0000
0100
00M0
0100
0000
1000
0000
0100
00M0
,
0100
0000
0001
0000
0010
0M00
0010
0000
0100
00M0
0100
0000
1000
0000
0100
00M0
,
0100
0000
0001
0000
0100
00M0
0100
0000
1000
0000
0001
0000
0100
0010
0100
0000
,
MMMM
0000
0000
0000
1000
0000
0001
0000
0010
0000
1000
0000
0010
0000
0001
1000
,
0002
0000
0000
0000
2003
0000
0000
0000
3010
0000
0100
0001
1000
0000
0100
0000
,
0120
0000
0000
0000
0031
0000
1000
0000
0010
0000
0100
0010
1000
0000
0001
0000
,
1000
0000
0100
0000
0001
0000
0100
0000
1000
0000
0001
0010
0100
0000
1000
0000
,
2001
0000
0000
0000
3100
0000
0000
0000
0010
0000
0100
1000
0001
0000
0010
0000
,
0001
0000
0100
0000
1000
0000
0100
0000
0001
0000
1000
0010
0100
0000
0001
0000
,
0020
0000
0000
0000
0031
0000
1000
0000
0020
0030
0100
0001
1000
0000
0100
0000
,
1000
0000
0010
0000
0001
0000
0010
0000
0100
0000
0001
1000
0100
0010
0001
1000
,
0010
0100
0000
0000
0010
0000
1000
0000
1001
0000
0001
0010
0100
0000
0000
1000
,
0001
1000
0010
0100
0110
0000
1000
0100
0010
0000
0001
1000
0010
0000
0100
0000
,
0001
0000
0000
0000
1001
0000
0000
0000
1000
0000
0001
0010
0100
0000
1000
0000
,
0001
0000
0010
0000
1000
0000
0010
0000
0001
0000
1000
0010
0100
0000
0010
1000
,
0001
0000
0100
0000
1000
0000
0100
0000
0010
0000
1000
0001
1000
0000
0100
0000
,
1000
0000
0010
0000
0001
0000
0010
0000
1000
0000
0100
0010
0001
0000
1000
0000
,
0020
0000
0000
0000
0130
0000
0001
0000
1000
0000
0001
0010
0100
0000
1000
0000
,
0001
0000
0010
0000
1000
0000
0010
0000
0001
0000
1000
0010
0100
0000
0010
0000
,
1000
0100
1000
0100
0010
0001
0010
0001
1000
0010
0100
0001
0100
0010
1000
0010
,
0100
0001
0010
0100
1000
0010
0100
0001
2000
0000
0000
0000
3200
0000
0000
0000
,
0310
0001
1000
0010
0002
0000
0023
0000
,
1030
0000
0001
0000
0010
0000
0100
0000
0010
0M00
0010
0000
0100
0000
0010
0M00
,
0010
0000
0001
0000
0010
0M00
0010
0000
0100
00M0
0100
0000
1000
0000
0100
00M0
,
0100
0000
0001
0000
0100
00M0
0100
0000
1100
0000
1000
0001
0100
0001
1000
0000
,
0001
0000
0010
0001
0010
0100
1000
0000
0010
0100
0010
0100
0010
0000
1000
0001
,
0100
0000
0100
0000
0100
0000
0010
1000
0010
0M00
0010
0000
0001
0000
0010
0M00
,
0010
0000
1000
0000
0100
00M0
0100
0000
0010
0M00
0010
0000
0001
0000
0010
0M00
,
0010
0000
1000
0000
1100
00M0
0100
0000
0101
0000
0100
0010
1000
0001
0010
0100
,
0010
0000
0001
1000
0001
0100
0010
1000
0100
0000
0010
0100
1000
0001
1000
0010
,
0100
0000
0010
0100
0001
0010
0001
1000
0100
00M0
0100
0001
1000
0000
0100
00M0
,
0100
0001
1000
0000
0100
00M0
0100
0000
0010
0M00
0010
0001
1000
0000
0010
0M00
,
0010
0001
1000
0000
0010
0M00
0010
0000
0011
0000
0001
0010
0100
0010
0001
1000
,
0010
0000
0100
0001
1000
0100
1000
0001
0100
0010
0100
0010
0100
0000
0010
1000
,
0100
0000
0100
0000
0100
0000
0010
0001
0010
0M00
0010
1000
0001
0000
0010
0M00
,
0010
1000
0001
0000
0010
0M00
0010
0000
0100
00M0
0100
1000
0010
0000
0100
00M0
,
0100
1000
0010
0000
0100
00M0
0100
0000
1000
0000
1000
0000
0100
0000
0010
0000
,
0001
0001
0220
0000
0000
0000
0000
0000
,
0330
0000
0000
0000
;
