#VERSION:0.83;
#TITLE:Monsters;
#SUBTITLE:;
#ARTIST:Zomboy;
#TITLETRANSLIT:;
#SUBTITLETRANSLIT:;
#ARTISTTRANSLIT:;
#GENRE:;
#CREDIT:Braeden;
#MUSIC:monsters.ogg;
#BANNER:ban.png;
#BACKGROUND:bg.png;
#CDTITLE:;
#JACKET:jacket.png;
#SAMPLESTART:44.138;
#SAMPLELENGTH:11.034;
#SELECTABLE:YES;
#OFFSET:0.000;
#BPMS:0.000=174.000;
#STOPS:;
#TICKCOUNTS:0.000=0;
#TIMESIGNATURES:0.000=4=4;
#LABELS:0.000=Song Start;
#COMBOS:0.000=1;
#ORIGIN:;
#PREVIEWVID:;
#JACKET:;
#CDIMAGE:;
#DISCIMAGE:;
#BGCHANGES:;
#FGCHANGES:;

//--------------- dance-single - ----------------
#NOTEDATA:;
#STEPSTYPE:dance-single;
#DESCRIPTION:;
#DIFFICULTY:Beginner;
#METER:5;
#RADARVALUES:0,0,0,0,0;
#NOTES:
0000
0000
0000
0000
,
0000
0000
0000
0000
,
0000
0000
0000
0000
,
0000
0000
0000
0000
,
1000
0000
0000
0000
,
0001
0000
0000
0000
,
1000
0000
0000
0000
,
0010
0000
0000
0000
,
1000
0000
0002
0000
,
0203
0000
0310
2000
,
0000
3002
0000
0023
,
0000
0000
0130
1000
,
0002
0000
0000
0000
,
0203
0000
0000
0000
,
0320
0000
0000
0000
,
0000
0000
0000
0000
,
1030
0001
0200
0000
,
0320
0000
0000
0000
,
0030
1000
0001
1000
,
0001
0000
0000
2000
,
0000
0000
3000
0000
,
0001
0100
0001
0100
,
0001
1000
0010
1000
,
0001
0000
0000
0100
,
0002
0000
0000
0000
,
2003
0000
0000
0000
,
3010
0000
0000
0000
,
0200
0000
0000
0310
,
1000
0000
0001
0000
,
1000
0010
1000
0010
,
0100
0001
0100
0001
,
1000
0000
0000
0000
,
1001
1000
0000
0001
,
2000
0001
0000
3001
,
1001
1000
0000
0010
,
0000
0100
0000
0001
,
1001
1000
0000
1000
,
0002
0100
0000
1003
,
0010
0010
0000
0100
,
0000
0001
0000
1000
,
1001
0001
0000
1000
,
0002
1000
0000
1003
,
1001
0001
0000
0100
,
0000
0010
0000
1000
,
0010
0010
0000
0100
,
0002
0000
0003
1000
,
1001
0000
0000
0000
,
0001
0000
0001
0000
,
1001
1000
0000
0010
,
0200
0001
0000
0301
,
1001
0001
0001
0100
,
0010
0000
0000
1000
,
1001
0001
0000
1000
,
0020
0100
0000
0130
,
0010
0010
0000
1000
,
0000
0001
0000
1000
,
1001
0001
0000
1000
,
0020
0100
0000
1030
,
0100
0010
0100
1000
,
0001
0000
0000
1000
,
0001
0001
0000
0100
,
0002
0000
0003
1000
,
1001
0001
0000
0000
,
2000
0000
0000
3000
,
0001
0100
0020
0000
,
2030
0000
0000
0000
,
3001
0010
0100
1000
,
0001
0000
0000
0100
,
0000
0000
0020
0000
,
2030
0000
0000
0000
,
3000
0000
0001
0000
,
0000
0000
1000
0000
,
0001
0000
2000
0000
,
3002
0000
0000
0000
,
0003
1000
0010
1000
,
0001
0000
0000
1000
,
0002
0000
0000
0000
,
0103
0010
0100
0001
,
0100
0010
1000
0001
,
1000
0000
0000
0001
,
1001
1000
0010
0010
,
0010
0010
0010
0010
,
0100
0001
0001
0001
,
1000
0010
0100
0001
,
1001
0000
1000
1000
,
1000
1000
0010
0010
,
0100
0001
0200
0000
,
0000
0000
0310
0000
,
1001
0000
1000
1000
,
0010
0010
0100
0001
,
0100
0010
1000
0001
,
0010
0001
1000
0001
,
1001
0000
1000
1000
,
0010
0010
0100
0100
,
0002
0000
0000
0000
,
0000
0000
0003
0000
,
1001
0000
0000
0000
;

//--------------- dance-single - ----------------
#NOTEDATA:;
#STEPSTYPE:dance-single;
#DESCRIPTION:;
#DIFFICULTY:Easy;
#METER:9;
#RADARVALUES:0,0,0,0,0;
#NOTES:
0000
0000
0000
0000
,
0000
0000
0000
0000
,
0000
0000
0000
0000
,
0000
0000
0000
0000
,
1001
0000
0000
0000
,
0110
0100
0001
1000
,
0100
1000
0001
0010
,
0100
1000
0001
0100
,
0101
0000
0002
0000
,
2003
0000
3010
2000
,
0000
3200
0000
0320
,
0000
0000
0031
1000
,
2002
0000
0000
3003
,
0120
0000
0000
0000
,
2030
0001
0010
0001
,
3002
0100
1000
0103
,
0101
0100
0010
1000
,
1002
0100
0010
0103
,
0101
0001
1000
0100
,
1200
0000
1300
0010
0000
1000
0010
0000
,
1000
1001
0001
0101
,
0200
0000
0320
0000
1030
0001
1000
0000
,
0020
2030
3100
1100
,
1001
0000
0001
0100
0000
0010
1000
0000
,
1001
0000
0000
0001
0000
0000
1000
0000
,
0001
0000
0000
0100
0000
0000
0010
0000
,
1000
0000
0000
0001
0000
0000
1000
0000
,
0001
0000
0010
0001
1000
0010
1000
0000
,
0001
0100
0001
0100
0002
0000
0003
0000
,
1000
0100
1000
0001
0200
0000
0300
0000
,
0001
1000
0001
1000
0001
1000
0001
1000
,
0001
0100
0010
1000
,
1001
0000
0001
0000
0100
0010
0100
0000
,
0002
1000
0000
0103
,
0101
0000
0001
0100
0000
0010
1000
0010
,
0000
1000
0001
0100
,
0110
0000
0010
0000
1000
0001
1000
0000
,
1200
0010
0000
1300
,
1010
0000
0101
0000
0000
0001
0000
1000
,
0010
1000
0100
0010
,
0011
0000
0001
0000
1000
0010
0100
0000
,
0102
0010
0000
1003
,
1010
0000
0001
0100
0000
0010
0000
1000
,
0001
0010
0100
1000
,
1001
0000
0110
0000
0100
0001
1000
0000
,
2100
0000
3200
0000
0300
1000
0001
1000
,
0010
0000
0100
0001
0000
0010
0100
0000
,
1000
0001
0010
0001
,
1001
0000
1000
0000
0010
1000
0010
0000
,
2000
0001
0000
3010
,
1001
0001
0001
1000
,
0001
0000
0000
0100
0000
0000
0010
1000
,
0001
0000
1000
0000
0001
0010
0001
0000
,
2000
0010
0000
3100
,
1001
0000
0110
0000
0000
0001
0000
1000
,
0010
0000
1000
0100
0000
0010
0001
0000
,
1001
0000
0001
0000
1000
0010
1000
0000
,
0002
0100
0000
1003
,
0110
0100
0100
0001
,
1000
0000
0000
0010
0000
0000
1000
0010
,
0100
0000
1001
0000
0001
1000
0010
0000
,
2000
0000
3100
0000
0000
0010
0001
0010
,
0001
0000
1000
0000
0000
0010
0000
0000
,
2000
0000
0000
3000
,
0001
0010
0200
0000
,
2300
0001
0010
0001
,
3001
0100
0010
1000
,
0002
0000
0000
0203
0000
0000
0320
0000
,
1030
0100
0020
0000
,
0032
0100
0010
0013
,
0001
0000
1000
0000
0010
1000
0000
0001
,
0000
0010
0000
0001
0000
1000
0000
0010
,
0200
0301
2000
0000
,
3002
0010
0010
1003
,
0100
0010
0001
1000
,
0002
0000
0000
0203
0000
0000
0310
0000
,
1000
0001
1000
0010
,
1000
0001
0010
0001
,
0100
0010
1000
0001
,
2000
0000
3010
1000
0000
0001
0100
0000
,
0101
0000
0001
0000
1000
0010
1000
0000
,
0001
0100
0001
0000
1000
0010
1000
0000
,
0010
0000
1000
0100
1000
0001
1000
0000
,
0010
0000
1000
0001
1000
0000
0001
0000
,
1001
0000
1000
0000
0001
0010
0001
0000
,
1000
0010
1000
0000
0001
0100
0001
0000
,
0100
0010
2000
0000
,
0000
0000
0000
3010
,
1001
0000
0001
0000
0010
0100
1000
0000
,
0001
0100
0010
0000
1000
0100
0010
0000
,
0001
0000
1000
0010
1000
0000
0001
0100
,
0001
0000
1000
0010
0100
0000
0001
0000
,
1001
1001
0001
0110
,
1000
1001
0001
0101
,
0100
0000
0001
0000
0000
0001
0000
0000
,
0100
0010
1000
0001
,
0202
0000
0000
0000
,
0303
0000
0000
0000
;

//--------------- dance-single - ----------------
#NOTEDATA:;
#STEPSTYPE:dance-single;
#DESCRIPTION:;
#DIFFICULTY:Medium;
#METER:13;
#RADARVALUES:0,0,0,0,0;
#NOTES:
0000
0000
0000
0000
,
0000
0000
0000
0000
,
0000
0000
0000
0000
,
0000
0000
0000
0000
,
2001
0000
0000
3001
0000
0100
0010
0000
,
1020
0000
0000
1030
0001
0000
1000
0000
,
0100
0010
0001
0100
,
0010
1000
0001
0100
,
0001
1000
0001
0000
2000
0000
0010
0000
,
3002
0100
1003
0010
,
1000
0100
1000
0000
0001
0000
2000
0000
,
0010
0000
3002
0000
0103
0000
0010
1000
,
1020
1000
2030
3001
,
1002
0000
0000
0000
,
0203
0010
0001
0010
,
0301
1000
0001
0000
1000
0100
0010
0001
,
1000
0010
1000
0001
0010
0001
1000
0100
,
0001
0100
0010
0001
1000
0010
1000
0001
,
1000
0000
0001
0100
0010
0000
1000
0000
,
1002
0000
1003
0010
0000
1000
0001
0010
,
0001
1000
0001
1000
0001
0010
0100
0000
,
2100
0000
3001
0000
0100
0010
0100
0010
,
2000
3001
1000
1010
,
0120
0000
0130
0001
0000
0100
0020
0000
,
1030
0100
1000
0001
0010
0001
1000
0000
,
0001
0100
0001
1000
0010
1000
0001
0010
,
1000
0010
0100
0010
0001
1000
0100
0010
,
0002
0000
0000
0203
0010
0000
0310
0000
,
1000
0100
1000
0100
0001
0100
1000
0010
,
1000
0001
1000
0100
0001
0100
1000
0100
,
0010
0001
0010
0001
0100
0010
1000
0001
,
1000
0000
0010
0000
1000
0100
1000
0001
,
2001
0000
0000
0000
3001
0000
1000
0000
0100
00M0
0100
0000
0001
0000
1000
0000
,
0002
0000
0200
0000
0300
0000
2000
3003
,
1001
0000
0001
0100
1000
0100
0010
1000
,
0001
0000
0010
0000
0001
0000
1000
0000
0010
0M00
0010
0000
0001
0000
1000
0000
,
1001
0000
0000
0000
0001
0000
1000
0000
0100
00M0
0100
0000
0010
0000
1000
0000
,
0002
0000
2000
0000
3000
0000
0020
0033
,
0011
0000
1001
0000
1000
0010
0001
1000
,
0100
0000
0001
0000
1000
0000
0001
0000
1000
0000
0010
0M00
0010
0000
0000
0000
,
0011
0000
0000
0000
0001
0000
0010
0000
0100
M000
0100
0000
0001
0000
1000
0000
,
0020
0000
0002
0000
0003
0000
0200
0330
,
0110
0000
0010
1000
0100
0001
0100
0010
,
0001
0000
0010
0000
0001
0000
1000
0000
0100
00M0
0100
0000
0001
0000
1000
0000
,
1010
0000
0000
0000
0101
0000
0000
0000
0001
0000
0100
00M0
0100
0000
1000
0000
,
0200
0000
2300
0000
3001
0100
0010
1000
,
1100
0000
0100
0010
0000
0001
1000
0000
,
0001
0010
0001
0010
0100
1000
0200
0300
,
1100
0000
0000
0000
1000
0000
0001
0000
0100
00M0
0100
0000
1000
0000
0001
0000
,
2000
0000
0020
0000
0030
0000
0002
3003
,
1001
0000
0001
0100
1000
0100
0001
0000
,
1000
0000
0000
0010
0000
0000
1000
0000
0000
0010
0000
0000
1000
0000
0001
0000
,
0011
0000
0000
0000
0010
0000
0001
0000
0010
0M00
0010
0000
1000
0000
0001
0000
,
2000
0000
0020
0000
0030
0000
0002
3003
,
1001
0000
0110
0000
0100
0001
0001
1000
,
0100
0000
0000
0010
0001
0000
1000
0000
0001
0000
0100
0000
0020
0000
0030
0000
,
1001
0000
0000
0000
1000
0000
0001
0000
0100
00M0
0100
0000
1000
0000
0001
0000
,
0200
0000
2000
0000
3000
0000
0002
0303
,
0101
0000
0100
0010
0001
0010
0100
0000
,
0001
0000
0000
0010
0000
0000
0100
0000
0000
1000
0000
0000
0001
0000
1000
0000
,
1010
0000
0101
0000
0001
0100
0100
1000
,
0020
0000
0230
0000
0300
0001
1000
0001
,
0101
0000
0100
0010
0000
0010
1000
0000
,
0002
0000
0100
0000
1003
0100
0010
0001
,
1000
0100
1000
0100
2000
0000
3010
0000
,
0200
0001
0010
0001
,
0310
1000
0001
1000
,
0010
1000
0010
0100
0001
0100
0001
0010
,
0001
1000
0020
0130
,
0001
1000
0100
1000
0001
0010
0001
1000
,
0001
0010
0100
0000
1000
0010
0100
0001
,
0010
0001
1000
0100
1000
0001
0010
0100
,
2000
3010
0200
0301
,
0020
0031
2000
3001
,
0100
0010
0100
0001
0100
0010
0100
1000
,
0100
0010
1000
0001
0010
0100
2000
0000
,
3001
0100
0001
0100
0010
1000
0001
0010
,
0100
1000
0001
0100
0010
1000
0100
0001
,
0100
1000
0010
0100
0001
0010
0100
1000
,
0002
0000
0103
0010
0000
1000
0001
0000
,
0101
0000
0000
0000
0001
0000
1000
0000
0001
0000
0001
0000
0100
00M0
0100
0000
,
1000
0000
1000
0000
0010
0M00
0010
0000
0001
0000
1000
0000
0001
0000
0100
0000
,
0001
0000
0000
0000
1000
0000
1000
0000
0100
00M0
0100
0000
0001
0000
0000
0000
,
0101
0000
0000
0000
0100
00M0
0100
0000
1000
0000
0001
0000
0100
0000
0010
0000
,
1010
0000
0000
0000
1000
0000
0001
0000
0010
0M00
0010
0000
2000
0000
0000
0000
,
3001
0000
0001
0000
0010
0M00
0010
0000
1000
0000
1000
0000
0100
0000
0000
0000
,
0010
0001
1000
0000
0002
0000
0203
0000
,
0320
0000
0030
1010
,
1001
0000
0000
0000
1000
0000
0001
0000
0100
00M0
0100
0000
1000
0000
1000
0000
,
0010
0M00
0010
0000
0001
0000
0001
0000
1000
0000
0010
0000
0100
0000
0000
0000
,
0101
0000
0000
0000
0001
0000
0001
0000
0100
M000
0100
0000
0020
0000
0000
0000
,
0031
0000
0000
0000
1000
0000
1000
0000
0010
0M00
0010
0000
0001
0000
1000
0000
,
1010
0000
0000
0000
0010
0000
1000
0000
0100
00M0
0100
0000
0002
0000
0000
0000
,
1003
0000
1000
0000
0100
00M0
0100
0000
0001
0000
1000
0000
0001
0000
0010
0000
,
0100
0000
1000
0000
0100
0000
0000
0010
0000
0000
0001
0000
0200
0000
0000
0000
,
0320
0000
0000
0130
,
0220
0000
0000
0000
,
0330
0000
0000
0000
;

//--------------- dance-single - ----------------
#NOTEDATA:;
#STEPSTYPE:dance-single;
#DESCRIPTION:;
#DIFFICULTY:Hard;
#METER:17;
#RADARVALUES:0.722014,1.239691,0.620434,1.1363,0.33113,725,625,89,163,5,12,17,0,0,0.722014,1.239691,0.620434,1.1363,0.33113,725,625,89,163,5,12,17,0,0;
#CHARTNAME:underneath our foreskin;
#CHARTSTYLE:;
#CREDIT:Yisus;
#NOTES:
0000
0000
0000
0000
,
0000
0000
0000
0000
,
0000
0000
0000
0000
,
0000
0000
0000
0000
,
1001
0000
0000
1000
0000
0001
0100
0000
,
0110
0000
0000
0020
0000
0000
0030
0000
,
1000
0001
0100
0001
,
1000
0100
0010
0001
,
1001
1000
0001
0000
2000
0000
0010
0000
,
3002
1000
0103
0020
,
1000
0000
0230
0000
0001
0000
0310
1000
,
0010
0100
0010
1000
0001
0100
0001
0000
,
1001
1002
1003
0010
,
0101
0001
2000
0000
0100
0000
0010
0000
,
3001
1000
0001
0010
0100
1000
0001
0100
,
0001
0010
0001
1000
0100
1000
0001
0010
,
0011
0001
1000
0010
0001
0010
0100
0010
,
1000
0100
0010
0001
1000
0010
0100
0001
,
1000
0000
0001
0010
1000
0010
0100
1000
,
0002
0010
1003
0001
0100
0001
2000
0100
,
3001
0010
0001
1000
0001
0010
1000
0010
,
0002
0010
1003
0100
0020
0001
0130
0000
,
1000
0100
1000
0100
1000
0010
0001
0010
,
0100
0000
0101
0001
1000
0100
1100
0000
,
1000
0000
0010
0M00
0010
0000
0001
0000
0100
00M0
0100
0000
1000
0000
0010
0000
,
1000
0000
0100
00M0
0100
0000
0001
0000
0010
0M00
0010
0000
1000
0000
0100
0000
,
1000
0010
0010
1000
0010
0010
1000
0001
,
0100
0100
0010
0100
0010
0010
0100
0001
,
1000
0000
1000
0000
0001
0000
0001
0000
1000
0001
0100
0001
1000
0100
0010
0001
,
1000
0010
1000
0001
1000
0100
0010
0001
1000
0010
0100
0001
1000
0100
1000
0001
,
0100
0001
1000
0100
0010
0001
1000
0010
0100
0001
0100
0001
1000
0010
1000
0010
,
0100
0000
0001
1000
0100
0000
0010
0000
0001
1000
0001
1000
0001
0000
1000
0000
,
1020
0000
0000
0000
1030
0000
0001
0010
0100
1000
0001
0000
2000
0000
0100
0000
,
3002
1100
0000
1103
,
1101
0000
1000
0100
0010
1000
0010
0001
,
1000
0000
0010
0M00
0010
0000
0001
0010
0100
1000
0001
0000
1000
0000
0010
0000
,
2002
0000
3003
0000
1000
0000
0001
0010
0100
1000
0001
0000
2000
0000
0100
0000
,
3002
1010
0000
1013
,
1011
0000
1011
0000
1000
1001
0001
0100
,
0001
0010
0100
1000
0001
0100
0010
1000
0001
0100
0001
1000
0020
0000
0030
0000
,
0220
0000
0330
0000
0100
0000
0001
0100
0010
1000
0010
0000
0200
0000
0001
0000
,
0320
1100
0000
1130
,
1101
0000
1000
0010
0100
1000
0100
0001
,
1000
0000
0010
0M00
0010
0000
0001
1000
0100
0010
0001
0000
1000
0000
0010
0000
,
2020
0000
3030
0000
0101
0000
0001
0000
1000
0010
0100
0010
2000
0000
0001
0000
,
3200
0000
0000
0000
0311
0000
1000
0000
0001
0000
0100
00M0
0100
0000
1000
0000
,
0004
0000
1003
0100
0000
0010
0001
0000
,
1000
0010
1000
0010
1000
0010
1000
0001
,
0101
0000
0000
0000
1001
0000
1000
0100
0010
0001
1000
0000
0002
0000
0010
0000
,
2003
0101
0000
3101
,
1101
0000
4000
3010
4000
3001
0100
0010
,
1000
0000
0000
0000
0001
0000
0010
0M00
0010
0000
0000
0000
1000
0000
0000
0000
0001
0000
1000
0000
0010
0000
0000
0000
1000
0000
0000
0000
0010
0000
0000
0000
,
0220
0000
0330
0000
0100
0000
0001
0010
0100
1000
0100
0010
0002
0000
0010
0000
,
2003
0101
0000
3101
,
1101
0000
0000
0000
1001
0000
0000
0000
1000
0000
0010
0M00
0010
0000
0001
0000
,
0100
00M0
0100
1000
0001
0000
1000
0100
0010
0001
1000
0000
0002
0000
0003
0000
,
2002
0000
3003
0000
1000
0000
0001
0010
0100
0010
0100
0010
0001
0000
1000
0000
,
0020
1100
0000
1130
,
1110
0000
4000
3001
0400
0301
0101
0100
,
0110
0000
0000
0010
1000
0000
0001
0100
0000
0001
0010
0000
0100
0000
1000
0000
,
1001
0000
0000
0000
1001
0000
0001
0000
1000
0100
0010
0100
2000
0000
0001
0000
,
3200
0000
0011
0000
0300
0010
1010
0010
,
4000
0000
0000
0000
3001
0000
0010
0000
0100
1000
0100
0000
1000
0000
0001
1000
,
0020
0000
0000
0000
0130
0000
0001
0000
1000
0100
0010
0001
1000
0010
0100
0010
,
1000
0010
0001
0010
0100
0001
1000
0100
,
0010
0001
0010
0001
1000
0010
1000
0010
,
1000
0000
0002
0010
1003
0001
0100
0001
,
0101
0100
0010
1000
0010
0100
0001
1000
,
0001
0010
0001
1000
0020
0100
1030
0001
,
0100
0010
0100
0010
1000
0001
1000
0001
,
1000
0000
0001
0100
0001
0010
1000
0010
,
0100
0010
0100
1000
0001
0100
0010
1000
,
0002
0000
1003
0010
2000
0010
3001
0100
,
0001
1000
0001
1000
0010
0100
0010
0100
,
0001
0000
1000
0100
0010
0001
0100
0001
,
0101
0100
0010
1000
0100
0010
0001
1000
,
0001
0000
0100
0000
0001
0000
0100
0000
0010
1000
0100
0010
0001
1000
0010
0100
,
0001
0010
0100
1000
0001
0100
0010
1000
0100
0010
0001
0100
0010
1000
0010
0100
,
0001
0010
0100
1000
0001
0100
0001
1000
0010
0100
0001
0100
0001
0100
0010
1000
,
0002
0000
0000
0000
1003
0000
0000
0000
1000
0001
1000
0010
0100
0000
0001
0000
,
2002
0000
3003
0000
1000
0000
0100
0000
0100
0000
0100
0000
0010
000M
0010
0000
,
1000
0000
1000
0000
0100
00M0
0100
0000
0001
0000
0001
0000
0010
0M00
0010
0000
,
1010
1000
0010
0010
0100
0100
0001
0001
,
0100
00M0
0100
0000
1000
0000
1000
0001
0010
0100
1000
0010
0100
0001
1000
0000
,
2020
0000
3030
0000
1001
0000
0001
0000
1000
0000
1000
0000
0100
00M0
0100
0000
,
0001
0000
0001
0000
0010
0M00
0010
0000
1000
0000
0010
0000
1010
0000
1000
0000
,
0001
0100
0020
0000
0230
0000
0000
0302
,
0000
0000
0000
0000
2003
0000
0000
0000
3000
0000
0000
0000
0001
0010
0100
1000
,
0001
0000
0000
0000
1001
0000
0001
0000
0100
00M0
0100
0000
1000
0000
1000
0000
,
0010
0M00
0010
0000
0001
0000
0001
0000
0100
0000
0100
0000
0020
0000
0030
0000
,
2010
0000
0000
0000
3001
0000
0001
0000
0010
0M00
0010
0000
1000
0000
0000
0000
,
2001
0000
0000
0000
3001
0000
0001
0010
0100
1000
0001
0000
0100
0010
1000
0000
,
1002
0000
0000
0000
0013
0000
0100
0000
0100
0000
0100
0000
0010
000M
0010
0000
,
1000
0000
1000
0000
0100
00M0
0100
0000
0001
0000
0001
0000
1000
0000
1000
0000
,
0100
0000
0010
0000
0001
0000
0000
1000
0010
0100
0001
0000
1000
0001
1000
0001
,
0100
0000
0010
0000
1000
0000
0001
0000
0010
0100
1000
0001
0100
0010
0100
0000
,
0202
0000
0000
0000
,
0303
0000
0000
0000
;
