#VERSION:0.83;
#TITLE:Miracle Go! プリンセスプリキュア;
#SUBTITLE:;
#ARTIST:礒部花凜;
#TITLETRANSLIT:Miracle Go! Princess Precure;
#SUBTITLETRANSLIT:;
#ARTISTTRANSLIT:Isobe Karin;
#GENRE:Anime;
#CREDIT:Create!;
#MUSIC:princess_precure.ogg;
#BANNER:bn.png;
#BACKGROUND:bg.png;
#CDTITLE:create_cdtitle.png;
#SAMPLESTART:10.465;
#SAMPLELENGTH:12.273;
#SELECTABLE:YES;
#OFFSET:-0.125;
#BPMS:0.000=171.000;
#STOPS:;
#SPEEDS:0.000=1.000=0.000=0;
#SCROLLS:0.000=1.000;
#TIMESIGNATURES:0.000=4=4;
#JACKET:jacket.png;
#JACKET:;
#BGCHANGES:-0.356=video.mp4=1.000=1=0=0=StretchNoLoop==CrossFade==,
99999.000=-nosongbg-=1.000=0=0=0=StretchNoLoop====
;
#FGCHANGES:;

//--------------- dance-single - ----------------
#NOTEDATA:;
#STEPSTYPE:dance-single;
#DESCRIPTION:;
#DIFFICULTY:Hard;
#METER:11;
#RADARVALUES:0,0,0,0,0;
#NOTES:
0000
0000
0000
0000
,
0000
0000
0000
0000
,
0000
0000
0000
0000
,
0000
0002
0023
0032
,
2003
0000
3020
0000
,
0130
0001
0100
0001
,
0100
0001
0100
0001
,
1000
0000
0100
0000
1000
0000
0001
0100
,
0010
1000
0010
1000
,
0001
0010
0001
0010
,
1001
0001
1010
1000
,
0110
0101
1001
0001
,
0010
0100
0010
0000
0001
1000
0001
0000
,
1000
0010
0000
1000
0000
0100
1000
0010
,
0002
0003
2000
3000
0000
0100
0010
0100
,
0000
0001
1000
0001
0000
0010
0100
1000
,
0010
0000
0002
0003
0010
1000
0001
0010
,
0001
0200
0010
0000
0010
0000
0301
0000
,
0100
0010
0100
0000
0001
0010
0002
0000
,
0100
1000
0013
0110
,
1000
0001
0010
0100
1000
0010
0002
0003
,
2000
3000
0002
0003
0010
1000
0001
0020
,
0000
0000
0000
0000
0000
0001
0031
0000
,
1000
0000
0001
0100
0010
1000
1000
0001
,
0010
0000
0100
1000
0000
0001
0100
0010
,
1000
0100
0010
0000
0001
0100
0010
0000
,
1000
0000
0001
0000
0010
0100
0010
0000
,
0001
0000
1000
0010
0000
0000
0100
0010
,
1000
0000
1001
1000
0100
0010
0100
0000
,
1000
0000
0010
0000
1000
0000
0001
2000
,
0000
0010
0001
3100
,
1000
0000
0010
0100
0000
0001
0100
0010
,
1000
0100
0100
0010
0001
0100
0100
0010
,
1000
0000
1000
0000
1000
0000
0001
0010
,
0001
0000
1000
0000
0010
0100
0010
1000
,
0001
0000
0000
0010
0000
0000
0100
0000
,
1000
0010
0100
0001
1000
0001
0010
0000
,
0100
1000
0100
0010
0000
0001
1000
0002
,
0000
0100
1000
0013
,
0001
0000
0100
0010
0000
0000
1000
0100
,
1000
0010
0010
0100
0001
0010
0010
0100
,
1000
0000
1000
0000
1000
0000
0001
0100
,
0010
0010
1000
1000
,
0001
0001
0010
0010
,
0100
0000
0100
0000
1000
0000
1000
0001
,
0100
0010
1000
0100
0010
0100
1000
0010
,
0100
0001
1000
0100
0010
0100
1000
0000
,
0001
0100
0001
0010
,
0100
1000
0001
0000
0100
0001
0010
0000
,
0100
1000
0000
0000
0100
0002
0103
1000
,
0001
0000
0100
2000
3100
0001
1000
0100
,
1000
0000
0001
0001
0100
0010
1000
1000
,
0100
0000
MMMM
MMMM
0000
0001
0000
0010
,
0001
0100
2000
3000
0002
0003
0000
0010
,
0100
0010
0000
1000
0001
1000
0000
0010
,
0100
0001
0010
0000
2000
3000
0010
0001
,
1000
0010
1000
0200
0010
0000
0010
0000
,
1300
0000
0100
0010
0100
0000
1000
0010
,
2000
0100
0001
3010
,
0110
0000
0001
1000
0010
0100
0001
0010
,
0001
0100
0010
1000
0001
1000
0000
0100
,
1000
0010
0002
0003
2000
3000
0000
0100
,
0010
0100
0000
0001
1000
0001
0000
0100
,
0010
1000
0100
0000
0002
0003
0100
1000
,
0001
0100
0001
0020
0100
0000
0100
0000
,
0031
0000
0010
0100
0010
0000
0001
0100
,
0002
0010
1000
0103
,
0110
0000
1000
0001
0100
0010
1000
0100
,
0002
0003
2000
3000
0002
0003
0100
1000
,
0001
0200
0000
0000
0000
0000
0000
0000
,
0300
0000
0010
1000
0010
1000
0000
1001
,
0000
0011
0000
0000
0000
0100
0000
0000
;

//--------------- dance-single - ----------------
#NOTEDATA:;
#STEPSTYPE:dance-single;
#DESCRIPTION:;
#DIFFICULTY:Challenge;
#METER:13;
#RADARVALUES:0,0,0,0,0;
#NOTES:
0000
0000
0000
0000
,
0000
0000
0000
0000
,
0000
0000
0000
0000
,
0000
0002
0023
0032
,
0203
0000
0320
0000
,
1030
0001
1000
0001
,
1000
0001
1000
0001
,
0020
0000
0001
0000
0001
0000
0230
2300
,
3020
1000
1000
1000
,
0230
0000
0001
0000
0001
0000
0001
0300
,
1100
0000
0000
0000
0001
0000
0000
1000
0100
0000
0000
0000
1000
0001
1000
0001
,
0100
0000
0000
0000
0010
0000
0000
1000
0100
0000
0000
0000
1000
0010
0100
0001
,
0010
1000
0010
0000
0100
0001
0100
0000
,
1000
0010
0000
0100
0000
0001
1000
0100
,
0002
0003
2000
3000
0010
0001
0100
0010
,
0100
0001
1000
0100
1000
0010
0100
0001
,
0001
0000
0010
0000
0100
1000
0001
0001
,
1000
0000
0020
0000
0100
0000
0000
0000
1030
0000
0001
0000
1000
0100
1000
0000
,
0010
0001
0010
0000
0100
1000
0100
0000
,
0110
0000
0000
0000
0101
0000
0000
0000
0110
0000
0000
0000
0001
1000
0010
0000
,
0100
0001
0010
0100
1000
0010
0002
0003
,
2000
3000
0002
0003
0010
1000
0001
0020
,
0001
0000
0100
0000
0031
1000
1000
0001
,
0010
0000
0000
0000
0001
0000
0100
0010
1000
0000
0001
0000
0001
0000
0100
0000
,
0010
0000
1000
0100
0000
0010
0001
0100
,
0010
0000
1000
0000
0100
0000
0000
0000
0010
0000
0001
1000
0010
0000
0000
0000
,
0100
0000
0001
0000
1000
0010
0100
0000
,
0001
0000
0000
0000
1000
0000
0100
0000
0000
0000
0000
0000
0010
0001
1000
0000
,
0010
0000
0101
0001
1000
0010
0100
0000
,
0001
0000
0010
0000
0001
1000
0001
0100
,
0001
1010
0101
1010
,
0001
0000
0010
0100
0000
1000
0100
0010
,
0001
0100
0110
0010
1000
0100
0110
0010
,
0001
0000
0000
0000
0001
0000
0000
0000
0001
0000
0000
0000
1000
0010
0100
0000
,
0001
0000
1010
0000
0001
0100
0010
1000
,
0100
0000
1000
0001
0010
0001
1000
0000
,
0010
0100
0001
1000
0100
0010
0001
0000
,
0100
0001
0010
0100
1000
0001
0100
0010
,
1000
0101
1010
0101
,
1000
0000
0100
0010
0001
0010
0100
1000
,
0001
0100
0110
0010
1000
0100
0110
0010
,
0001
0000
0000
0000
0001
0000
0000
0000
0001
0000
0000
0000
1000
0010
0100
0000
,
0001
0001
0010
0010
,
0100
0100
1000
1000
,
0010
0000
0100
0000
0001
0000
0000
0000
0010
0000
0000
0000
0010
0100
1000
0001
,
0100
0010
0100
0001
1000
0000
0100
00M0
0100
0000
0001
1000
0001
0000
0010
0M00
,
0010
0000
1000
0000
0001
0000
0100
00M0
0100
0000
1000
0000
0001
0000
0010
0000
,
0001
0100
0010
1000
0100
0000
0000
0000
0100
0000
0000
0000
0010
0000
0000
0000
,
0010
0000
0001
0000
0100
0000
0000
0000
0100
0000
0010
0000
1000
0001
0010
0100
,
1000
0000
0010
0100
0001
0000
0000
0000
0100
0000
1000
0000
0100
0000
0001
0000
,
1000
0000
0100
0001
0100
1000
0001
0100
,
0001
0000
1000
1000
0100
0010
0001
0001
,
0100
0000
1001
0110
0000
1000
0000
0001
,
1000
0100
0002
0003
2000
3000
0010
0001
,
0100
0010
0100
0001
1000
0100
1000
0010
,
0100
0001
0001
0000
0010
0000
0100
1000
,
0001
0001
1000
0020
0100
0000
1030
0001
,
1000
0100
1000
0000
0010
0000
0001
0000
0010
0000
0000
0000
0100
0000
1000
0000
,
0100
0110
0101
0110
,
1000
0001
0010
0000
0100
0000
1000
0000
0010
0000
0100
0000
0001
0000
0010
0000
,
0001
0100
0010
1000
0001
0100
0010
1000
,
0100
0010
2000
3000
0002
0003
0100
1000
,
0010
0100
0010
1000
0001
0010
0001
0100
,
0010
1000
1000
0000
0100
0000
0010
0001
,
1000
1000
0001
0200
0010
0000
0301
1000
,
0001
0010
0001
0000
0100
0000
1000
0000
0100
0000
0000
0000
0010
0000
0001
0000
,
0010
0110
1010
0110
,
0001
1000
0100
0000
0010
0000
0001
0000
0100
0000
0010
0000
1000
0000
0100
0000
,
0002
0003
2000
3000
0002
0003
0100
1000
,
0001
0200
0000
0000
0000
0000
0000
0000
,
0000
0000
0310
0010
0010
0010
0000
1001
,
0000
0000
0110
0000
0000
0000
0000
0000
1000
0100
0010
0000
0000
0000
0000
0000
;
