#TITLE:Midnight;
#SUBTITLE:;
#ARTIST:Swingrowers;
#TITLETRANSLIT:;
#SUBTITLETRANSLIT:;
#ARTISTTRANSLIT:;
#GENRE:;
#CREDIT:;
#MUSIC:Midnight.ogg;
#BANNER:Midnight - BN.png;
#BACKGROUND:Midnight - BG.png;
#CDTITLE:;
#SAMPLESTART:39.998;
#SAMPLELENGTH:19.375;
#SELECTABLE:YES;
#OFFSET:-1.210;
#BPMS:0.000=198.000;
#JACKET:Midnight - Jacket.png;
#STOPS:;
#BGCHANGES:0.000=Midnight.avi=1.000=0=0=0=StretchNoLoop====,
99999.000=-nosongbg-=1.000=0=0=0=StretchNoLoop====
;
#FGCHANGES:;

//--------------- dance-single - RatherBe & omgukk ----------------
#NOTES:
     dance-single:
     RatherBe & omgukk:
     Challenge:
     14:
     0,0,0,0,0:
0000
0000
0000
0000
,
0000
0000
0000
0000
,
0000
0000
0000
0000
,
0000
0000
0000
0000
,
0000
0000
0000
0000
,
0000
0000
0000
0000
,
0000
0000
0000
0000
,
0001
0000
1000
0010
0000
0010
0100
0000
0100
0001
0000
0001
,
2000
0000
0000
3001
0000
0001
0200
0000
0000
0301
0000
0100
,
2000
0000
3100
0010
0000
1000
0100
0000
0000
0100
0000
1000
,
0010
0000
0100
0000
0000
0100
0001
0000
0001
0100
0000
0100
,
0010
1000
0100
0010
0000
0001
0000
0000
1000
0001
0000
1000
,
0020
0000
0000
0130
0000
0001
2000
0000
0000
3001
0000
0010
,
2000
0000
3010
0100
0000
1000
0000
0000
1000
0001
0000
0100
,
0010
0000
0100
0001
0010
0100
2000
0000
0000
3001
0000
0100
,
0000
0000
0010
1000
0000
1000
0100
0000
0010
0001
0000
0000
,
1001
0000
0000
1000
0000
0000
0001
0000
0010
0000
0000
1000
,
0000
0000
0010
0000
0000
0001
0000
0000
1000
0000
0000
0001
,
0100
0000
0000
0010
0000
0000
1000
0000
0001
0000
0000
0010
,
0000
0000
0100
0000
0000
0010
0000
0000
0001
1000
0000
1000
,
0100
0000
0000
00M0
0000
0000
0100
0000
0000
0000
0000
0000
0001
0000
0000
0000
0001
0000
1000
0000
0000
0000
1000
0000
,
0010
0000
0000
0M00
0000
0000
0010
0000
0000
0000
0000
0000
0001
0000
0000
0000
0001
0000
1000
0000
0000
0000
1000
0000
,
0010
0000
0000
0100
0000
0001
1000
0000
0100
0000
0000
0010
,
0000
0000
0001
0010
0100
1000
0001
0000
1000
0010
0000
0100
,
0001
0000
0000
1000
0000
0000
0001
0000
0010
0000
0000
1000
,
0000
0000
0010
0000
0000
0001
0000
0000
1000
0000
0000
0001
,
1000
0000
0000
1000
0000
0010
0000
0000
0100
0000
0000
0001
,
0000
0000
1000
0000
0000
0001
0000
0000
0001
1000
0000
1000
,
0100
0000
0000
00M0
0000
0000
0100
0000
0000
0000
0000
0000
0001
0000
0000
0000
0001
0000
1000
0000
0000
0000
1000
0000
,
0010
0000
0000
0M00
0000
0000
0010
0000
0000
0000
0000
0000
0001
0000
0000
0000
0001
0000
1000
0000
0000
0000
1000
0000
,
0100
0000
0000
0010
0000
0000
0001
0000
0000
0100
0000
0010
,
1000
0000
0000
0001
0000
0010
0000
0000
0001
0000
0000
0000
,
0021
0001
1000
1000
,
0001
0000
0000
0000
0000
0000
0001
0000
0000
0030
0000
0000
0001
0000
0000
0000
1000
0000
0001
0000
0000
0000
0100
0000
,
1000
0000
0100
0000
0000
0010
0000
0000
1000
0000
0000
0100
,
0000
0000
0010
0000
0000
0001
1000
0000
0000
0001
0000
0001
,
0100
0000
0000
0100
0000
0010
0000
0000
1000
0000
0000
0100
,
0000
0000
0001
0000
0000
0100
0000
0000
1000
0001
0000
0001
,
0100
0000
0010
0000
0000
0010
0000
0000
1000
0000
0000
0001
,
0000
0000
0010
0100
0000
1000
0000
0000
0010
0000
0000
0000
,
1020
1000
0001
0001
,
1000
0000
0000
0000
0000
0000
1000
0000
0000
0030
0000
0000
1000
0000
0000
0000
0001
0000
1000
0000
0000
0000
0100
0000
,
0001
0000
0100
0000
0000
0010
0000
0000
0001
0000
0000
0100
,
0000
0000
0010
0000
0000
1000
0000
0000
0001
0000
0000
0001
,
0100
0000
0000
0010
0000
1000
0000
0000
0100
0000
0000
0001
,
0000
0000
0100
0000
0000
1000
0000
0000
0000
0001
0000
1000
,
0010
0000
0100
0000
0000
0001
0000
0000
0010
0000
0000
0100
,
0000
0000
1000
0000
0000
0001
0000
0000
0100
0001
0000
1000
,
0020
0000
0000
1030
0000
0001
0020
0000
0000
0031
0000
0010
,
2000
0000
3010
0100
0000
1000
0010
0000
0000
0010
0000
1000
,
0100
0000
0010
0000
0000
0010
0001
0000
0001
0010
0000
0010
,
0100
1000
0010
0100
0000
0001
0000
0000
1000
0001
0000
1000
,
0200
0000
0000
0310
0000
0001
2000
0000
0000
3001
0000
0100
,
2000
0000
3100
0010
0000
1000
0000
0000
1000
0001
0000
0010
,
0100
0000
0010
0001
0100
0010
2000
0000
0000
3001
0000
0010
,
0000
0000
0100
1000
0000
1000
0010
0000
0010
0100
0000
0000
,
1001
0000
0000
0001
0000
0000
1000
0000
0000
0010
0000
0001
,
0000
0000
0010
1000
0000
0001
0000
0000
1000
0000
0000
0001
,
0010
0000
0000
0100
0000
0000
1000
0000
0001
0000
0000
0100
,
0000
0000
0010
0000
0000
0100
0000
0000
0001
1000
0000
1000
,
0100
0000
0000
00M0
0000
0000
0100
0000
0000
0000
0000
0000
0001
0000
0000
0000
0001
0000
1000
0000
0000
0000
1000
0000
,
0010
0000
0000
0M00
0000
0000
0010
0000
0000
0000
0000
0000
0001
0000
0000
0000
0001
0000
1000
0000
0000
0000
1000
0000
,
0100
0000
0000
0010
0000
0001
1000
0000
0010
0000
0000
0100
,
0000
0000
0001
0010
0100
1000
0001
0000
1000
0010
0000
0100
,
0001
0000
0000
1000
0000
0000
0001
0000
0010
0000
0000
1000
,
0000
0000
0010
0000
0000
0001
0000
0000
1000
0000
0000
0001
,
1000
0000
0000
1000
0000
0000
0010
0000
0100
0000
0000
0001
,
0000
0000
1000
0000
0000
0001
0000
0000
0001
1000
0000
1000
,
0100
0000
0000
00M0
0000
0000
0100
0000
0000
0000
0000
0000
0001
0000
0000
0000
0001
0000
1000
0000
0000
0000
1000
0000
,
0010
0000
0000
0M00
0000
0000
0010
0000
0000
0000
0000
0000
0001
0000
0000
0000
0001
0000
1000
0000
0000
0000
1000
0000
,
0010
0000
0000
0100
0000
0000
0001
0000
0000
0010
0000
0100
,
1000
0000
0000
0010
0000
0100
0000
0000
0001
0000
0000
0000
,
0201
0001
1000
1000
,
0001
0000
0000
0000
0000
0000
0001
0000
0000
0300
0000
0000
0001
0000
0000
0000
1000
0000
0001
0000
0000
0000
0100
0000
,
1000
0000
0100
0000
0000
0010
0000
0000
1000
0000
0000
0100
,
0000
0000
0010
0000
0000
0001
1000
0000
0000
0001
0000
0001
,
0100
0000
0000
0100
0000
0010
0000
0000
1000
0000
0000
0100
,
0000
0000
0001
0000
0000
0100
0000
0000
1000
0001
0000
0001
,
0100
0000
0010
0000
0000
0010
0000
0000
1000
0000
0000
0001
,
0000
0000
0010
0100
0000
1000
0000
0000
0010
0000
0000
0000
,
1020
1000
0001
0001
,
1000
0000
0000
0000
0000
0000
1000
0000
0000
0030
0000
0000
1000
0000
0000
0000
0001
0000
1000
0000
0000
0000
0100
0000
,
0001
0000
0100
0000
0000
0010
0000
0000
0001
0000
0000
0100
,
0000
0000
0010
0000
0000
1000
0000
0000
0001
0000
0000
0001
,
0100
0000
0000
0010
0000
1000
0000
0000
0100
0000
0000
0001
,
0000
0000
0100
0000
0000
1000
0000
0000
0000
0001
0000
1000
,
0010
0000
0100
0000
0000
0001
0000
0000
0010
0000
0000
0100
,
0000
0000
1000
0000
0000
0001
0000
0000
0100
0001
0000
0000
,
0002
0000
0000
1003
0000
0001
0200
0000
0000
0301
0000
0100
,
2000
0000
3100
0010
0000
1000
0100
0000
0000
0100
0000
1000
,
0010
0000
0100
0000
0000
0100
0001
0000
0001
0100
0000
0100
,
0010
1000
0100
0010
0000
0001
0000
0000
1000
0001
0000
1000
,
0020
0000
0000
0130
0000
0001
2000
0000
0000
3001
0000
0010
,
2000
0000
3010
0100
0000
1000
0000
0000
1000
0001
0000
0100
,
0010
0000
0100
0001
0010
0100
2000
0000
0000
3001
0000
0100
,
0000
0000
0010
1000
0000
1000
0100
0000
0100
0010
0000
0010
,
0002
0000
0000
1003
0000
1000
0020
0000
0000
1030
0000
0010
,
0002
0000
0013
0100
0000
0001
0010
0000
0000
0010
0000
0001
,
0100
0000
0010
0000
0000
0010
1000
0000
1000
0010
0000
0010
,
0100
0001
0010
0100
0000
1000
0000
0000
0001
1000
0000
0001
,
0200
0000
0000
0310
0000
1000
0002
0000
0000
1003
0000
0100
,
0002
0000
0103
0010
0000
0001
0000
0000
0001
1000
0000
0010
,
0100
0000
0010
1000
0100
0010
0002
0000
0000
1003
0000
0010
,
0000
0000
0100
0001
0000
0001
0010
0000
0100
1000
0000
0000
,
0001
1000
0001
1000
,
0100
0010
0100
0010
,
0001
1000
0001
0100
,
0010
0100
0001
1000
,
0100
0010
0001
1000
,
0001
0100
0010
1000
,
0001
0010
0100
1000
,
1001
0000
0000
0000
;
