#VERSION:0.83;
#TITLE:Maze Town;
#SUBTITLE:;
#ARTIST:A・ZU・NA;
#TITLETRANSLIT:;
#SUBTITLETRANSLIT:;
#ARTISTTRANSLIT:;
#GENRE:;
#ORIGIN:;
#CREDIT:GOTHIC METAL;
#BANNER:Maze Town.png;
#BACKGROUND:Maze Town-bg.png;
#PREVIEWVID:;
#JACKET:Maze Town-jacket.png;
#CDIMAGE:;
#DISCIMAGE:;
#LYRICSPATH:;
#CDTITLE:;
#MUSIC:Maze Town.ogg;
#OFFSET:0.460000;
#SAMPLESTART:43.533001;
#SAMPLELENGTH:12.000000;
#SELECTABLE:YES;
#BPMS:0.000=135.000;
#STOPS:;
#DELAYS:;
#WARPS:;
#TIMESIGNATURES:0.000=4=4;
#TICKCOUNTS:0.000=4;
#COMBOS:0.000=1;
#SPEEDS:0.000=1.000=0.000=0;
#SCROLLS:0.000=1.000;
#FAKES:;
#LABELS:0.000=Song Start;
#BGCHANGES:1.000=Maze Town.mp4=1.000=0=0=1=====,
99999=-nosongbg-=1.000=0=0=0 // don't automatically add -songbackground-
;
#KEYSOUNDS:;
#ATTACKS:
;

//---------------dance-single - ----------------
#NOTEDATA:;
#CHARTNAME:;
#STEPSTYPE:dance-single;
#DESCRIPTION:;
#CHARTSTYLE:;
#DIFFICULTY:Hard;
#METER:14;
#RADARVALUES:0.614424,0.675728,0.233010,0.553398,1.097087,443.000000,419.000000,24.000000,57.000000,0.000000,0.000000,0.000000,0.000000,0.000000,0.614424,0.675728,0.233010,0.553398,1.097087,443.000000,419.000000,24.000000,57.000000,0.000000,0.000000,0.000000,0.000000,0.000000;
#CREDIT:Ben & Flicks;
#NOTES:
0000
0000
0000
0000
,
0000
0000
0000
0000
,
0000
0000
0000
0000
,
0001
1000
0001
0000
1000
0100
0010
0100
1000
0000
0001
0100
,
0010
0100
0001
0000
1000
0100
0010
0001
0100
0010
1000
0100
,
0010
0000
0001
1000
0000
0001
0010
0001
0010
0001
0000
1000
,
0100
0000
0010
0001
0000
1000
0010
1000
0010
1000
0000
0001
,
0010
0000
0000
1100
0000
1000
0001
0100
0010
1000
0100
0010
,
0002
0000
0000
0000
0000
0000
0003
0000
0000
1000
0010
0100
,
0002
0000
0000
0023
0000
0000
1030
0000
0000
0010
0100
0010
,
0100
1000
0010
0100
0001
1000
0001
0000
0000
0001
0100
0010
,
2000
0000
0000
3200
0000
0000
0301
0000
0000
0100
0010
0100
,
0010
0001
0100
0010
1000
0001
1000
0000
0000
0001
0100
0010
,
1000
0001
1000
0100
1000
0010
0100
0000
0000
0001
1000
0001
,
0100
0010
1000
0100
0010
0001
0200
0000
0000
0310
0000
0000
,
2010
0000
0000
3100
0000
0010
0002
0000
0000
1003
0000
0001
,
0100
0000
0010
0000
1000
0000
0001
0010
0001
1000
0010
1000
,
0002
0100
0020
0033
,
2000
0100
0020
3030
,
0002
0000
0000
1003
0000
0100
0020
0000
0000
0032
0000
0000
,
2003
0000
0000
3001
0000
0100
0020
0000
0000
1030
0000
0000
,
2010
0000
0000
3001
0100
1000
0200
0000
0000
0310
1000
0001
,
0020
0000
0000
0130
1000
0001
0100
0010
0100
0010
1000
0100
,
0010
0000
0010
0001
0000
0001
1000
0000
0001
0100
0001
1000
,
0100
0000
1100
0000
0011
0000
0220
0000
0000
0330
0000
0000
,
1001
0000
0002
0100
0000
2003
0100
0000
3001
0200
0000
0310
,
2000
0000
3001
0010
0100
1000
0020
0000
0000
0130
0000
0000
,
0001
0100
0001
0100
1000
0100
1000
0100
0010
0100
0001
1000
,
0200
0000
0320
0000
0031
1000
0001
0100
0010
2000
0000
0000
,
3001
0000
0011
0000
0001
1000
0010
0000
1010
0000
1000
0001
,
0100
0000
0101
0000
1000
0100
0020
0000
0000
0031
0000
0000
,
0011
0000
0000
0110
0000
0000
1100
0000
0001
0100
0010
1000
,
0100
0000
0000
0110
0000
0000
0001
1000
0001
1000
0001
1000
,
0020
0000
0000
1030
0100
0010
0002
0000
0000
1003
0000
0001
,
0100
0010
1000
0100
0010
0001
0200
0000
0000
0310
0000
0000
,
1000
0010
1000
0010
0001
0010
0001
0010
0100
0010
1000
0001
,
0020
0000
0230
0000
1300
0001
1000
0010
0100
0002
0000
0000
,
1003
0000
0011
0000
1000
0001
0100
0000
1010
0000
0001
0010
,
0100
0000
1001
0000
1000
0010
0100
0001
0010
0200
0000
0000
,
1300
0100
0010
1000
0010
0100
1000
0001
0100
0010
1000
0001
,
1000
1010
0110
0101
,
0001
0100
0010
0001
0010
0100
0001
0000
1000
0100
0010
0001
,
0000
2000
0100
3002
,
0010
2003
0002
3003
,
0001
0010
0001
1000
0010
1000
0100
0010
0001
0100
0010
1000
,
0002
0000
0000
0203
0000
0000
2300
0000
0000
3100
0000
0001
,
2000
0000
0000
3100
0000
0010
0002
0000
0000
1003
0000
0001
,
0100
0010
1000
0100
0010
0001
1000
0010
1000
0010
1000
0010
,
0200
0000
0000
0301
1000
0001
0010
0100
1000
0010
0100
0001
,
2000
0000
0000
3020
0000
0000
0032
0000
0000
0013
0000
1000
,
0002
0000
0000
0013
0000
0100
2000
0000
0000
3001
0000
1000
,
0010
0100
0001
0010
0100
1000
0010
0100
0010
0100
0010
0100
,
0002
0000
1003
0100
1000
0001
0100
0001
1000
0100
0010
0001
,
2000
0000
3001
0010
0001
1000
0010
1000
0001
0010
0100
1000
,
0001
0101
0110
1001
,
1000
0010
1000
0001
0010
0001
0100
0100
0100
0010
0010
0010
,
2002
0000
0000
0000
,
0000
0000
0000
0000
,
3003
0000
0000
0000
;

//---------------dance-single - ----------------
#NOTEDATA:;
#CHARTNAME:;
#STEPSTYPE:dance-single;
#DESCRIPTION:;
#CHARTSTYLE:;
#DIFFICULTY:Medium;
#METER:10;
#RADARVALUES:0.432732,0.506796,0.242718,0.553398,0.466019,312.000000,287.000000,25.000000,57.000000,0.000000,0.000000,0.000000,0.000000,0.000000,0.432732,0.506796,0.242718,0.553398,0.466019,312.000000,287.000000,25.000000,57.000000,0.000000,0.000000,0.000000,0.000000,0.000000;
#CREDIT:Ben Speirs;
#NOTES:
0000
0000
0000
0000
,
0000
0000
0000
0000
,
0000
0000
0000
0000
,
1000
1010
0001
0011
,
1000
0000
0000
1100
0000
0000
0001
0100
0001
1000
0100
1000
,
0020
0130
0020
0130
,
0001
0000
0100
0010
0000
0000
1000
0000
0100
0010
0000
0000
,
0001
0000
0000
0011
0000
0000
1000
0000
0000
0001
1000
0001
,
2000
0000
0000
0000
,
3010
0000
0000
0020
0000
0000
0130
0000
0000
0001
0100
0001
,
0200
0320
2030
0000
,
3100
0000
0000
0200
0000
0000
0310
0000
0000
0001
0010
0001
,
0020
0230
2300
0000
,
3001
0000
0000
0102
0000
0000
1003
0000
0000
0001
0010
0001
,
0010
0000
0000
0100
1000
0100
1000
0000
0000
0001
0000
0000
,
2020
0000
0000
3030
0000
0001
0020
0000
0000
0030
0000
0100
,
2000
0000
0000
3010
0100
0010
0200
0000
0000
0301
0000
0000
,
2000
0001
3001
0000
,
0002
0010
0013
0000
,
0020
0000
0000
0130
0000
1000
0001
0000
0000
0000
0000
0000
,
0200
0000
0000
0310
0000
1000
0001
0000
0000
0000
0000
0000
,
1010
0000
0000
0001
0000
0010
0001
0000
0000
1000
0000
0100
,
1000
0000
0000
0001
0000
0100
0010
0000
0000
1000
0000
0100
,
0020
0000
0000
0031
0000
0000
1000
0001
1000
0001
1000
0001
,
0100
0000
0100
0000
0010
0000
0010
0000
0000
0000
0000
0000
,
2001
3010
1002
0013
,
0001
0000
0000
1000
0010
1000
0020
0000
0000
0130
0000
0000
,
0001
0000
0001
0010
0000
0010
0100
0000
0100
1000
0000
1000
,
0020
0000
0000
0130
0000
0001
2000
0000
0000
3100
0000
0000
,
1000
0000
0010
0000
0010
0000
0100
0000
0001
0000
0001
0000
,
1000
0000
0100
0000
0010
0000
0002
0000
0000
1003
0000
0000
,
1010
0110
0101
0110
,
2000
0000
0000
3200
0000
0000
0310
0001
1000
0001
0000
0000
,
2001
3010
1002
0013
,
0001
0000
0001
0100
0000
0100
0020
0000
0000
1030
0000
0000
,
0001
0000
0001
0010
0000
0010
0100
0000
0100
1000
0000
1000
,
0020
0000
0000
0130
0000
0001
2000
0000
0000
3100
0000
0000
,
1000
0000
0001
0000
0100
0000
0100
0000
0010
0000
1000
0000
,
1000
0000
0100
0000
0010
0000
0020
0000
0000
0031
0000
0000
,
1000
0010
1000
0010
1000
0010
0100
0000
0000
0102
0000
0000
,
1003
2100
0002
3003
,
0001
0010
0001
0010
0001
0010
0200
0000
0000
1300
0001
1000
,
0000
0002
0103
2000
,
3100
0010
2002
3003
,
0001
0000
0001
0100
0000
0100
0010
0000
0010
2000
0000
0000
,
3200
0320
0032
1003
,
2010
3001
0012
1003
,
0001
0000
0100
0010
0000
1000
0100
0000
0010
0001
0000
0000
,
1000
0000
1000
0010
0000
0010
0100
0000
0100
0002
0000
0000
,
0023
0230
2300
3001
,
0102
1003
2100
3001
,
1000
0000
0010
0100
0000
0001
0010
0000
0100
1000
0000
0000
,
1010
0000
0000
0001
0100
0001
0100
0001
0100
0010
0000
0000
,
1000
0000
0000
0001
0010
0001
0010
0001
0010
0100
0000
0000
,
1000
0000
0100
1000
0000
0000
0001
0000
0100
0001
0000
0000
,
1001
0000
0000
1001
0000
0000
1000
0001
1000
0001
1000
0001
,
0200
0000
0000
0000
,
0000
0000
0000
0000
,
0300
0000
0000
0000
;

//---------------dance-single - ----------------
#NOTEDATA:;
#CHARTNAME:;
#STEPSTYPE:dance-single;
#DESCRIPTION:;
#CHARTSTYLE:;
#DIFFICULTY:Easy;
#METER:6;
#RADARVALUES:0.239945,0.337864,0.077670,0.456311,0.009709,173.000000,165.000000,8.000000,47.000000,0.000000,0.000000,0.000000,0.000000,0.000000,0.239945,0.337864,0.077670,0.456311,0.009709,173.000000,165.000000,8.000000,47.000000,0.000000,0.000000,0.000000,0.000000,0.000000;
#CREDIT:Ben Speirs;
#NOTES:
0000
0000
0000
0000
,
0000
0000
0000
0000
,
0000
0000
0000
0000
,
1000
0100
0010
0010
,
0001
0100
0010
0010
,
2000
3000
2000
3000
,
0010
1000
0100
0010
,
0002
0003
0002
0003
,
0020
0000
0000
0030
,
0001
0200
0000
0300
,
0010
0010
1000
0001
,
1000
0200
0000
0300
,
0010
0010
0001
1000
,
0010
0020
0000
0030
,
1000
0001
1000
0100
,
0020
0000
0032
0000
,
2003
3020
0230
0300
,
0002
0000
0000
0000
,
2003
0000
0000
0000
,
3200
0000
0000
0000
,
0320
0000
0032
0000
,
1003
0001
0100
0010
,
1000
0100
0010
0001
,
0200
0000
0000
0300
,
0010
0000
0010
0000
0010
0000
0010
0000
0000
0000
0000
0000
,
1001
0110
2002
3003
,
1000
0100
0020
0030
,
0001
0010
0100
1000
,
0010
0100
0200
0300
,
0002
0103
0020
1030
,
0002
0023
0230
0300
,
1000
0001
1000
0100
,
0010
0010
0010
0100
,
1001
0110
2002
3003
,
0001
0010
0200
0300
,
1000
0100
0010
0001
,
0100
0010
0020
0030
,
2000
3010
0200
0301
,
2000
3200
0320
0030
,
0001
0010
0100
1000
,
0010
0010
0010
0010
,
1000
0100
0010
0001
,
0000
2000
3000
0002
,
0003
2002
0000
3003
,
0001
0100
0010
1000
,
1000
0100
0100
0010
,
0002
0003
2000
3000
,
0001
0100
0010
0000
,
1000
1000
0010
0100
,
0001
0001
0010
0100
,
2000
3000
0002
0003
,
0100
0100
0100
0100
,
0001
1000
0001
0010
,
0001
1000
0010
0010
,
1000
0001
1000
0100
,
1000
0010
0100
0100
,
2002
0000
0000
0000
,
0000
0000
0000
0000
,
3003
0000
0000
0000
;

//---------------dance-single - ----------------
#NOTEDATA:;
#CHARTNAME:;
#STEPSTYPE:dance-single;
#DESCRIPTION:;
#CHARTSTYLE:;
#DIFFICULTY:Beginner;
#METER:3;
#RADARVALUES:0.138696,0.225243,0.077670,0.077670,0.000000,100.000000,92.000000,8.000000,8.000000,0.000000,0.000000,0.000000,0.000000,0.000000,0.138696,0.225243,0.077670,0.077670,0.000000,100.000000,92.000000,8.000000,8.000000,0.000000,0.000000,0.000000,0.000000,0.000000;
#CREDIT:Ben Speirs;
#NOTES:
0000
0000
0000
0000
,
0000
0000
0000
0000
,
0000
0000
0000
0000
,
0001
0000
0000
0000
,
1000
0000
0000
0000
,
0010
0000
0010
0000
,
0010
0000
0000
0000
,
0100
0000
0100
0000
,
0100
0000
0000
0000
,
0001
0001
0000
0000
,
0001
0000
0000
0000
,
0010
0010
0000
0000
,
0010
0000
0000
0000
,
0100
0100
0000
0000
,
0100
0000
0000
0000
,
1000
0000
1000
0000
,
1000
0000
0000
0000
,
1002
0000
0003
0000
,
2000
0000
3000
0000
,
0020
0000
0030
0000
,
0200
0000
0300
0000
,
0001
0000
0001
0000
,
0001
0000
0000
0000
,
0010
0000
0010
0000
,
0010
0000
0000
0000
,
1001
0000
1000
0000
,
1001
0000
0000
0000
,
0010
0010
0010
0000
,
0010
0010
0010
0000
,
0100
0000
0100
0000
,
0100
0000
0000
0000
,
0001
0000
0001
0000
,
0001
0000
0000
0000
,
1001
0000
1000
0000
,
1001
0000
0000
0000
,
0010
0010
0010
0000
,
0010
0000
0010
0000
,
0100
0000
0000
0000
,
0100
0100
0100
0000
,
0100
0000
0000
0000
,
1000
1000
1000
0000
,
1000
0000
1000
0000
,
0000
0000
0000
0000
,
0000
0000
0000
0000
,
1001
0000
0000
0001
,
0001
0001
0001
0000
,
0010
0000
0010
0000
,
0100
0000
0100
0000
,
1000
0000
0000
1000
,
1000
1000
1000
0000
,
0010
0000
0010
0000
,
0100
0000
0100
0000
,
2002
0000
0000
3003
,
0001
0001
0001
0000
,
0010
0010
0010
0000
,
0100
0100
0100
0000
,
2002
0000
0000
0000
,
0000
0000
0000
0000
,
3003
0000
0000
0000
;

//---------------dance-double - ----------------
#NOTEDATA:;
#CHARTNAME:;
#STEPSTYPE:dance-double;
#DESCRIPTION:;
#CHARTSTYLE:;
#DIFFICULTY:Hard;
#METER:14;
#RADARVALUES:0.563107,0.675728,0.213592,0.815534,0.985437,406.000000,384.000000,22.000000,84.000000,0.000000,0.000000,0.000000,0.000000,0.000000,0.563107,0.675728,0.213592,0.815534,0.985437,406.000000,384.000000,22.000000,84.000000,0.000000,0.000000,0.000000,0.000000,0.000000;
#CREDIT:Ben & Flicks;
#NOTES:
// measure 0
00000000
00000000
00000000
00000000
,  // measure 1
00000000
00000000
00000000
00000000
,  // measure 2
00000000
00000000
00000000
00000000
,  // measure 3
00010000
00001000
00010000
00000000
00001000
00100000
00001000
00010000
00000100
00000000
00010000
00000010
,  // measure 4
00010000
00001000
01000000
00000000
00001000
00010000
00001000
00100000
00001000
00100000
01000000
10000000
,  // measure 5
00010000
00000000
10000000
01000000
00000000
00100000
00001000
00100000
00001000
00100000
00000000
00001000
,  // measure 6
00010000
00000000
00010000
00000010
00000000
00001000
00000100
00001000
00000100
00001000
00000000
00000001
,  // measure 7
00000100
00000000
00000000
00002001
00000000
00000300
00003001
00000010
00000100
00000010
00000100
00010000
,  // measure 8
00002000
00000000
00000000
00000000
00000000
00000000
00000000
00000000
00000000
00103000
00010000
00100000
,  // measure 9
00020000
00000000
00000000
02030000
00000000
00000000
13000000
00000000
00000000
01000000
00100000
01000000
,  // measure 10
00001000
00000000
00100000
00010000
00100000
00001000
00020000
00000000
00000000
00030010
00001000
00000010
,  // measure 11
00002000
00000000
00000000
00003200
00000000
00000000
00000301
00000000
00000000
00000100
00000010
00000100
,  // measure 12
00010000
00000000
00000010
00001000
00000010
00010000
00002000
00000000
00000000
00103000
00000000
00000000
,  // measure 13
20010000
00000000
00000000
32000000
00000000
00000000
13000000
00010000
10000000
00100000
01000000
00100000
,  // measure 14
10000000
01000000
00100000
00001000
00010000
00000010
00000100
00000000
00000000
00000001
00000000
00000000
,  // measure 15
00002002
00000000
00000000
00003003
00000000
00000200
00020000
00000000
00000000
00030300
00000000
00002000
,  // measure 16
02000000
00000000
00003000
03100000
10000000
00010000
10000000
01000000
00100000
00010000
01000000
00001000
,  // measure 17
00020000
00000010
00002000
00033000
,  // measure 18
00002000
00100000
00020000
00033000
,  // measure 19
00020000
00000000
00000000
00030100
00000000
00000010
00000200
00000000
00000000
00001300
00000000
00000010
,  // measure 20
00020000
00000000
00000000
00031000
00000000
01000000
00200000
00000000
00000000
13300000
00000000
00000000
,  // measure 21
20010000
00000000
00000000
30130000
01000000
00001000
00020000
00000000
00000000
00030100
00000010
00000001
,  // measure 22
00002000
00000000
00000000
00003010
00000100
00000001
00000020
00000000
00000000
00000130
00000000
00000000
,  // measure 23
00020200
00000000
00000000
00030300
00000000
00010000
00001000
00000000
00100000
00010000
00100000
00001000
,  // measure 24
00010000
00000000
00010010
00000000
00101000
00000000
00022000
00000000
00000000
00033000
00000000
00000000
,  // measure 25
00011000
00000000
02000000
00010000
00000000
03000200
00010000
00000000
02000300
00010000
00000000
03000100
,  // measure 26
00002000
00000000
00003001
00003100
00000000
00000100
00000020
00000000
00000000
00001030
00000000
00000000
,  // measure 27
00000001
00001000
00000001
00001000
00000001
00001000
00000100
00010000
00000100
00010000
00000100
00010000
,  // measure 28
00002000
00000000
02003000
00000000
03100000
10000000
00010000
00000000
00000000
00110000
00000000
00000000
,  // measure 29
20000000
00000000
30200000
00000000
10300000
01000000
00200000
00000000
00320000
00000000
01030000
00001000
,  // measure 30
00020000
00003000
00030020
00000000
00000130
00000001
00002000
00000000
00000000
00003100
00000000
00000000
,  // measure 31
00001001
00000000
00000001
00000100
00000000
00000100
00000010
00000000
00000010
00001000
00000001
00001000
,  // measure 32
00000100
00000000
00000000
00001100
00000000
00000000
00010000
00001000
00010000
00001000
00000000
00000000
,  // measure 33
00011000
00000000
00000020
00001000
00000000
00200030
00001000
00000000
00300020
00001000
00000000
00100030
,  // measure 34
00020000
00000000
10030000
00130000
00000000
00100000
02000000
00000000
00000000
03010000
00000000
00000000
,  // measure 35
10000000
00010000
10000000
00010000
10000000
00010000
00100000
00001000
00100000
00001000
00100000
00001000
,  // measure 36
00020000
00000000
00030020
00000000
00000130
00000001
00001000
00000000
00000000
00001100
00000000
00000000
,  // measure 37
00000002
00000000
00000203
00000000
00000301
00000010
00000200
00000000
00002300
00000000
00003010
00010000
,  // measure 38
00002000
00030000
02003000
00000000
03100000
10000000
00020000
00000000
00000000
00130000
00000000
00000000
,  // measure 39
00010000
01000000
00010000
10000000
01000000
10000000
00100000
00000000
00100000
02000000
00000000
00000000
,  // measure 40
03001000
00000000
00000000
01001000
00000000
00000000
00022000
00000000
00000300
00033000
00000000
00000000
,  // measure 41
00010000
00000100
00010000
00000010
00000100
00000010
00002000
00000000
00003001
00000010
00000100
00010000
,  // measure 42
00000000
00002000
00100000
00023000
,  // measure 43
00000010
00032000
00020000
00033000
,  // measure 44
01001000
00000000
01000000
00100000
00000000
00100000
10000000
00010000
10000000
02000000
00000000
00000000
,  // measure 45
03200000
00000000
00000000
20300000
00300000
00000000
30200000
00000000
00000000
00301000
00000000
00010000
,  // measure 46
00000020
00000000
00000000
00000130
00000000
00000001
00000020
00000000
00000000
00000130
00000000
00000000
,  // measure 47
00001000
00000100
00001000
00000001
00000100
00000001
00001000
00000100
00010000
00001000
00000000
00000000
,  // measure 48
00010010
00000000
00000010
00000100
00000000
00000100
00000001
00001000
00000001
00000020
00000000
00000000
,  // measure 49
00000230
00000000
00000000
00000302
00000300
00000000
00000203
00000000
00000000
00010300
00000000
00001000
,  // measure 50
02000000
00000000
00000000
03100000
00000000
10000000
02000000
00000000
00000000
03100000
00000000
00000000
,  // measure 51
00010000
00100000
00010000
10000000
00100000
10000000
00010000
01000000
00100000
10000000
01000000
00100000
,  // measure 52
00002000
00000300
00103000
00013000
00100000
00001000
00100000
00010000
01000000
00001000
00010000
00001000
,  // measure 53
00020000
03000000
00030010
00031000
00000010
00010000
00000010
00001000
00000100
00010000
00001000
00010000
,  // measure 54
00001000
00101000
00010010
00011000
,  // measure 55
00001000
00100000
00010000
01000000
00010000
10000000
01000000
01000000
01000000
00100000
00100000
00100000
,  // measure 56
20020000
00000000
00000000
00000000
,  // measure 57
00000000
00000000
00000000
00000000
,  // measure 58
30030000
00000000
00000000
00000000
;

//---------------dance-double - ----------------
#NOTEDATA:;
#CHARTNAME:;
#STEPSTYPE:dance-double;
#DESCRIPTION:;
#CHARTSTYLE:;
#DIFFICULTY:Medium;
#METER:10;
#RADARVALUES:0.427184,0.506796,0.359223,0.650485,0.417476,308.000000,271.000000,37.000000,67.000000,0.000000,0.000000,0.000000,0.000000,0.000000,0.427184,0.506796,0.359223,0.650485,0.417476,308.000000,271.000000,37.000000,67.000000,0.000000,0.000000,0.000000,0.000000,0.000000;
#CREDIT:Ben Speirs;
#NOTES:
// measure 0
00000000
00000000
00000000
00000000
,  // measure 1
00000000
00000000
00000000
00000000
,  // measure 2
00000000
00000000
00000000
00000000
,  // measure 3
00002000
00100000
00023000
00000010
,  // measure 4
00031000
00000000
00001000
00100000
00000000
00100000
00010000
00000000
00010000
01000000
00000000
00000000
,  // measure 5
10010000
10100000
10010000
00110000
,  // measure 6
10000000
00000000
10000000
01000000
00000000
01000000
00100000
00000000
00100000
00001000
00000000
00001000
,  // measure 7
00020000
00000010
00000010
00030010
,  // measure 8
00022000
00000000
00000000
00033000
,  // measure 9
00020000
00000000
00000000
00030200
00000000
00000000
00000310
00000000
00000000
00000001
00000000
00001000
,  // measure 10
00000002
00000203
00000320
00000030
,  // measure 11
00002000
00000000
00000000
00003200
00000000
00000000
00010300
00000000
00000000
00000100
00000000
00010000
,  // measure 12
00002000
00203000
00320000
00030000
,  // measure 13
20000000
00000000
00000000
30200000
00000000
00000000
01300000
00000000
00000000
00010000
10000000
00010000
,  // measure 14
20000000
32000000
03200000
00301000
,  // measure 15
00020000
00000000
00000000
00000000
00000000
00030010
00000200
00000000
00000000
00000000
00000000
00000301
,  // measure 16
00000020
00000000
00000000
00000130
00001000
00000001
00002000
00000000
00000000
00003100
00000000
00000000
,  // measure 17
00020200
00000000
00030300
00010000
,  // measure 18
00002000
00000000
00003000
00001000
,  // measure 19
02000000
00000000
03000000
00100000
,  // measure 20
20000000
30000000
00020000
00030000
,  // measure 21
10010000
00000000
00000000
10000000
01000000
10000000
01000000
00000000
00000000
00100000
00010000
00100000
,  // measure 22
00010000
00000000
00000000
01000000
00001000
01000000
00002000
00000000
00000000
00013000
00000000
00000000
,  // measure 23
00011000
00011000
00011000
00011000
,  // measure 24
00010000
00000000
00000100
00000000
00000010
00000000
00000001
00000000
00000000
00000000
00000000
00000000
,  // measure 25
00002001
00003010
00001002
00000013
,  // measure 26
00001001
00000000
00001000
00000100
00000000
00000100
00000020
00000000
00000000
00000031
00000000
00000000
,  // measure 27
00001000
00000000
00001000
00000010
00000000
00000010
00010000
00000000
00010000
00001000
00000000
00001000
,  // measure 28
00100000
00000000
00100000
00010000
00000000
00010000
02000000
00000000
00000000
03100000
00000000
00000000
,  // measure 29
10000000
00000000
00100000
00000000
01000000
00000000
01000000
00000000
00010000
00000000
00100000
00000000
,  // measure 30
00100000
00000000
01000000
00000000
10000000
00000000
00020000
00000000
00000000
00130000
00000000
00000000
,  // measure 31
00102000
00013000
00020010
00031000
,  // measure 32
00011000
00000000
00000000
00110000
00000000
00000000
00100000
00010000
10000000
00010000
00000000
00000000
,  // measure 33
10020000
01030000
20010000
31000000
,  // measure 34
10010000
00000000
00010000
00100000
00000000
00100000
02000000
00000000
00000000
13000000
00000000
00000000
,  // measure 35
00010000
00000000
00010000
01000000
00000000
01000000
00001000
00000000
00001000
00010000
00000000
00010000
,  // measure 36
00000100
00000000
00000100
00001000
00000000
00001000
00000020
00000000
00000000
00000130
00000000
00000000
,  // measure 37
00000001
00000000
00000100
00000000
00000010
00000000
00000010
00000000
00001000
00000000
00000100
00000000
,  // measure 38
00000100
00000000
00000010
00000000
00000001
00000000
00002000
00000000
00000000
00003100
00000000
00000000
,  // measure 39
00010000
00001000
00010000
00001000
00010000
00001000
00200000
00000000
00000000
00310000
00000000
00000000
,  // measure 40
00110000
01100000
00110000
00002000
,  // measure 41
00013000
00000010
00010000
00000010
00010000
00000010
00002000
00000000
00000000
00003001
00000000
00000000
,  // measure 42
00000000
00000002
00000003
00000200
,  // measure 43
00000300
00000020
00000200
00000330
,  // measure 44
00002001
00000000
00000000
00003100
00000000
00000000
00010000
00000000
00010000
00002000
00000000
00000000
,  // measure 45
00203000
00000000
00000000
00320000
00000000
00000000
02030000
00000000
00000000
03100000
00000000
10000000
,  // measure 46
02000000
00000000
00000000
03100000
00000000
00010000
02000000
00000000
00000000
03100000
00000000
00000000
,  // measure 47
10100000
00000000
00000000
01010000
00000000
00000000
10000000
00010000
10000000
00010000
10000000
00010000
,  // measure 48
00200000
00000000
00000000
00000000
00000000
00301000
00010000
00000000
00000000
00010010
00000000
00000000
,  // measure 49
00001010
00000110
00000102
00001003
,  // measure 50
00000001
00000000
00000010
00000200
00000000
00000000
00001300
00000000
00000010
00000200
00000000
00000000
,  // measure 51
00000301
00000000
00001000
00000001
00000000
00000100
00000010
00000000
00001000
00000100
00000000
00000000
,  // measure 52
10020000
00000000
00000000
00031000
00100000
00001000
00100000
00001000
00100000
00002000
00000000
00000000
,  // measure 53
00023000
00000000
00000000
00030010
00001000
00000010
00001000
00000010
00001000
00000020
00000000
00000000
,  // measure 54
00010030
00011000
00101000
00010010
,  // measure 55
00011000
00000000
00010000
00001000
00000000
00001000
00100000
01000000
00100000
01000000
00000000
00000000
,  // measure 56
20020000
00000000
00000000
00000000
,  // measure 57
00000000
00000000
00000000
00000000
,  // measure 58
30030000
00000000
00000000
00000000
;

//---------------dance-double - ----------------
#NOTEDATA:;
#CHARTNAME:;
#STEPSTYPE:dance-double;
#DESCRIPTION:;
#CHARTSTYLE:;
#DIFFICULTY:Easy;
#METER:6;
#RADARVALUES:0.248266,0.394175,0.155340,0.388350,0.000000,179.000000,163.000000,16.000000,40.000000,0.000000,0.000000,0.000000,0.000000,0.000000,0.248266,0.394175,0.155340,0.388350,0.000000,179.000000,163.000000,16.000000,40.000000,0.000000,0.000000,0.000000,0.000000,0.000000;
#CREDIT:Ben Speirs;
#NOTES:
// measure 0
00000000
00000000
00000000
00000000
,  // measure 1
00000000
00000000
00000000
00000000
,  // measure 2
00000000
00000000
00000000
00000000
,  // measure 3
00010000
00001000
00100000
00010000
,  // measure 4
01000000
01000000
00100000
00000000
,  // measure 5
20000000
30010000
20000000
30010000
,  // measure 6
00100000
00001000
00010000
00010000
,  // measure 7
00000020
00001030
00000020
00001030
,  // measure 8
00001001
00000000
00000000
00000000
,  // measure 9
00000002
00000023
00000030
00000000
,  // measure 10
00000100
00000100
00010000
00000000
,  // measure 11
00002000
02003000
03000000
00000000
,  // measure 12
00010000
00010000
20000000
30000000
,  // measure 13
00100000
00200000
01300000
00000000
,  // measure 14
00010000
00020000
00130000
00000000
,  // measure 15
00200000
00000000
00302000
00000000
,  // measure 16
00013000
00000010
00000100
00000000
,  // measure 17
00001002
00000000
00000000
00000010
,  // measure 18
00000023
00000000
00000000
00001000
,  // measure 19
00002030
00000000
00000000
00010000
,  // measure 20
00023000
00003000
00200000
00330000
,  // measure 21
00011000
00100000
00011000
00000010
,  // measure 22
00011000
01000000
00011000
00000100
,  // measure 23
00022000
00000000
00000000
00033000
,  // measure 24
00001000
00100000
01000000
00000000
,  // measure 25
10010000
10010000
20020000
30030000
,  // measure 26
10000000
00010000
00200000
00300000
,  // measure 27
00001000
00001000
00010000
00010000
,  // measure 28
00000010
00000100
00000001
00000000
,  // measure 29
00001000
00001000
00000100
00000100
,  // measure 30
00010000
00001000
02000000
03000000
,  // measure 31
00010000
00010000
00100000
00100000
,  // measure 32
00001000
00010000
00000010
00000100
,  // measure 33
00001001
00001001
00002002
00003003
,  // measure 34
00001000
00000100
00000020
00000030
,  // measure 35
00000001
00000001
00000100
00000100
,  // measure 36
00000010
00010000
00002000
00003000
,  // measure 37
00100000
00100000
00010000
10000000
,  // measure 38
00100000
00100000
02000000
03000000
,  // measure 39
00010000
10000000
00010000
10000000
,  // measure 40
01000000
00100000
00001000
00000000
,  // measure 41
00010000
00001000
00010000
00001000
,  // measure 42
00000000
00000000
00000000
00000000
,  // measure 43
00000000
00000000
00022000
00033000
,  // measure 44
00010000
00000010
00000100
00000001
,  // measure 45
00000001
00000010
00000010
00000100
,  // measure 46
00020000
00030000
00002000
00003000
,  // measure 47
00100000
00010000
10000000
00000000
,  // measure 48
00020000
00030000
10000000
00100000
,  // measure 49
00100000
01000000
01000000
00010000
,  // measure 50
00200000
00300000
00002000
00003000
,  // measure 51
00010000
00000010
00000100
00000001
,  // measure 52
00002002
00003003
00001000
00000100
,  // measure 53
00010000
00001000
00100000
00010000
,  // measure 54
01000000
01000000
00100000
00100000
,  // measure 55
10000000
01000000
00100000
00001000
,  // measure 56
00022000
00000000
00000000
00000000
,  // measure 57
00000000
00000000
00000000
00000000
,  // measure 58
00033000
00000000
00000000
00000000
;
