#TITLE:🍿Mad POPCORN World!☝️;
#SUBTITLE:;
#ARTIST:Inugami Korone;
#TITLETRANSLIT:;
#SUBTITLETRANSLIT:;
#ARTISTTRANSLIT:;
#GENRE:;
#CREDIT:KyokiShinsa & RatherBe;
#BANNER:Mad POPCORN World-bn.png;
#BACKGROUND:Mad POPCORN World-bg.png;
#LYRICSPATH:;
#CDTITLE:;
#MUSIC:Mad POPCORN World.ogg;
#OFFSET:0.244000;
#SAMPLESTART:54.844002;
#SAMPLELENGTH:12.000000;
#SELECTABLE:YES;
#BPMS:0.000000=171.000000
,229.000000=177.000000
,232.000000=186.000000
,234.000000=182.000000
,235.000000=181.000000
;
#STOPS:
;
#BGCHANGES:0.244=Mad POPCORN World.avi=1.000=0=0=1===FadeCenterHorizontal==,
99999=-nosongbg-=1.000=0=0=0 // don't automatically add -songbackground-
;
#KEYSOUNDS:;
#ATTACKS:;

//---------------dance-single - ----------------
#NOTES:
     dance-single:
     1 XO:
     Beginner:
     3:
     0.232353,0.279985,0.034853,0.011618,0.000000,140.000000,137.000000,3.000000,1.000000,0.000000,0.000000,0.232353,0.279985,0.034853,0.011618,0.000000,140.000000,137.000000,3.000000,1.000000,0.000000,0.000000:
// measure 0
0000
0000
0000
0000
,  // measure 1
0000
0000
0000
0000
,  // measure 2
0000
0000
0000
0000
,  // measure 3
0000
0000
0000
0000
,  // measure 4
0000
0000
0000
0000
,  // measure 5
0000
0000
0000
0000
,  // measure 6
0000
0000
0000
0000
,  // measure 7
0000
1001
0000
0001
,  // measure 8
0000
0100
0001
0100
,  // measure 9
0000
0010
1000
0001
,  // measure 10
0000
0010
0001
1000
,  // measure 11
0000
0100
0100
1000
,  // measure 12
0010
0100
0000
0100
,  // measure 13
0001
1000
0100
0010
,  // measure 14
0000
0001
1000
0010
,  // measure 15
0010
1000
0000
0001
,  // measure 16
0000
0010
0001
1000
,  // measure 17
0000
0010
0100
0010
,  // measure 18
0000
0100
0010
0100
,  // measure 19
0000
0001
1000
0001
,  // measure 20
0000
0010
0001
1000
,  // measure 21
0000
0100
0000
1000
,  // measure 22
0000
0010
0100
0001
,  // measure 23
0100
0010
0000
1000
,  // measure 24
0000
0100
0000
0001
,  // measure 25
0000
0000
0100
0000
,  // measure 26
0000
1000
0000
0000
,  // measure 27
0010
0100
0000
0001
,  // measure 28
0000
0000
1000
0000
0000
0100
0000
0000
,  // measure 29
0010
0001
0000
1000
,  // measure 30
0000
0010
1000
0010
,  // measure 31
1000
0001
0000
0010
,  // measure 32
0000
0100
1000
0100
,  // measure 33
0000
1000
0000
0010
,  // measure 34
0000
0100
0001
0100
,  // measure 35
0000
0010
0000
0110
,  // measure 36
0000
1000
0001
1000
,  // measure 37
0000
0100
0000
0110
,  // measure 38
0000
0010
0001
1000
,  // measure 39
0000
0000
0010
0010
,  // measure 40
0010
0010
0000
1000
,  // measure 41
0000
0001
0010
0100
,  // measure 42
0000
1000
0010
0100
,  // measure 43
0000
0001
0001
0001
,  // measure 44
0000
0020
0000
0030
,  // measure 45
0000
0100
0000
0100
,  // measure 46
0000
1000
1000
1000
,  // measure 47
0000
0010
0000
0100
,  // measure 48
0000
0001
1000
0000
,  // measure 49
0000
0001
0000
0010
,  // measure 50
0000
0100
1000
0100
,  // measure 51
0000
1000
0000
0010
,  // measure 52
0000
0100
0001
0100
,  // measure 53
0001
0100
0000
0010
,  // measure 54
0000
1000
0001
0010
,  // measure 55
0000
0100
0000
0100
,  // measure 56
0000
1000
0001
0000
,  // measure 57
0000
0100
0000
0000
,  // measure 58
0000
0010
0000
0000
0000
0000
1000
0000
,  // measure 59
0000
0001
0000
0010
,  // measure 60
0100
1000
0000
0000
;

//---------------dance-single - ----------------
#NOTES:
     dance-single:
     XO-:
     Easy:
     8:
     0.376743,0.454976,0.023235,0.209118,0.000000,227.000000,225.000000,2.000000,18.000000,4.000000,0.000000,0.376743,0.454976,0.023235,0.209118,0.000000,227.000000,225.000000,2.000000,18.000000,4.000000,0.000000:
0000
0000
0000
0000
,
0000
0000
0000
0000
,
0000
0000
0000
0000
,
0000
0000
0000
0000
,
0000
0000
0000
0000
,
0000
0000
0000
0000
,
0000
0000
0000
0000
,
0000
1000
0000
0100
,
0000
1000
0001
0100
,
0000
0010
0010
1000
,
1000
0100
0010
0001
,
0000
1000
0010
0000
0100
0000
0001
0000
,
1000
0100
2000
0000
3000
0000
0001
0000
,
0010
1000
0000
0010
,
0000
0001
1000
0100
,
0010
0000
0001
0000
1000
0010
1000
0000
,
0001
0010
0001
0000
1000
0000
0100
0000
,
1000
0001
0100
1000
,
0100
0001
1000
1001
,
1010
0000
0002
0003
0020
0030
0200
0300
,
2000
3000
0002
0003
0100
0002
0003
1000
,
0001
0000
1000
0000
0100
0000
0010
0001
,
1000
0000
0100
1000
0001
0000
1000
0000
,
0020
0030
0100
0001
,
0000
1000
0001
0000
1000
0000
0200
0000
,
0300
0000
0000
0010
0002
0000
0003
0000
,
0000
1000
0200
0000
0300
0010
0001
0000
,
1000
0010
0001
0010
,
0000
0000
1000
0000
0000
0001
0000
0000
,
1000
0001
0100
0000
0010
0000
0100
0000
,
0010
0000
1000
0100
0010
0000
0001
0000
,
1000
0100
0010
0100
,
0010
0001
1000
0010
,
0000
0100
0000
0001
1000
0001
1000
0000
,
0100
0000
0020
0030
0002
0003
2000
3000
,
0000
0001
1000
0000
0000
0100
1000
0000
,
0000
0001
0100
0000
0010
0000
1000
0000
,
0000
0001
1000
00M0
00M0
0001
0100
00M0
,
00M0
0001
2000
3000
0001
1000
0002
0000
,
0003
0000
0100
0001
1000
0001
1000
0000
,
0100
0000
1000
0000
0001
0000
0100
0010
,
0100
0010
0100
0000
0001
0000
1000
0000
,
0001
1000
0001
0000
1000
0000
0100
0000
,
0010
0000
0001
1000
0000
0100
1000
0000
,
0001
0010
0100
1000
,
0001
1000
0001
0000
1000
0000
0010
0000
,
1000
0001
0100
0000
0001
0000
1000
0000
,
0001
0000
1000
0100
1000
0000
0001
0000
,
0100
0000
0001
0000
1000
0000
0100
0010
,
0100
0010
0100
0000
1000
0000
0001
0000
,
1000
0001
1000
0000
0001
0000
0100
0000
,
0010
0000
1000
0001
0000
0100
0001
0000
,
1000
0010
0100
0001
,
1000
0100
1000
0000
0001
0000
1000
0000
,
0001
0100
0010
0000
1000
0000
0001
0000
,
1000
0000
0001
0010
0001
0000
1000
0000
,
0100
0000
2000
0000
0000
0000
0000
3000
,
0000
0000
0001
1000
0000
0010
0100
0000
,
0001
0000
2000
0000
0000
3000
0000
0000
0001
0000
0000
0000
1000
0000
0000
0000
,
0100
1000
0010
0100
,
0001
1000
0000
0000
;

//---------------dance-single - ----------------
#NOTES:
     dance-single:
     XO-, FS-:
     Medium:
     12:
     0.514495,0.594968,0.162647,0.534411,0.145221,310.000000,296.000000,14.000000,46.000000,22.000000,0.000000,0.514495,0.594968,0.162647,0.534411,0.145221,310.000000,296.000000,14.000000,46.000000,22.000000,0.000000:
0000
0000
0000
0000
,
0000
0000
0000
0000
,
0000
0000
0000
0000
,
0000
0000
0000
0000
,
0000
0000
0000
0000
,
0000
0000
0000
0000
,
0000
0000
0000
0000
,
0000
0000
0001
0000
0000
1000
0001
0000
,
0000
0010
0100
0000
1000
0000
0001
0000
,
0000
0100
0010
0000
1000
0000
0001
0000
,
0010
1000
0010
0001
,
0000
0100
0010
0000
1000
0000
0001
0000
,
1000
0000
0001
0000
2000
0000
0000
0000
0000
3000
0000
0000
0100
0000
0000
0000
,
0010
0000
0000
0000
0001
0000
0000
0000
1000
0000
0000
0001
1000
0000
0000
0000
,
0100
0000
0010
0001
0010
0001
1000
0000
,
1001
0000
0000
0000
0001
0000
0100
0000
0001
0000
1000
0010
0100
0000
0001
0000
,
1000
0000
0001
0000
0100
00M0
0100
0000
0010
0M00
0010
0000
2000
0000
0000
0000
,
3001
0000
0000
0000
0000
0000
0M00
0000
0000
00M0
0000
0000
0000
0000
0M00
0000
00M0
0000
0M00
0000
00M0
0000
0M00
0000
,
00M0
0M00
00M0
0000
0M00
0000
00M0
0000
,
0M00
0000
2000
3000
0200
0300
0020
0030
,
0002
0003
2000
3000
0001
2000
3000
0001
,
0100
0000
0010
0000
1000
0000
0001
0000
1000
0000
0001
0000
0100
00M0
0100
0000
,
1000
0000
0001
0000
1000
0000
0100
00M0
0100
0000
0001
0000
1000
0000
0001
0000
,
0020
0030
0001
1000
,
0000
0100
1000
0000
0001
0000
0200
0000
,
0300
0000
0000
0010
2000
0000
3000
0000
,
0000
0001
2000
0000
3000
0100
0001
0100
,
1000
0000
0000
0000
0010
0000
0000
0000
0001
0000
0010
0000
1000
0000
0000
0001
,
1000
0000
0001
0000
1000
0000
0000
0100
0000
0000
0010
0000
0000
0001
0000
0000
,
1000
0001
0100
0001
1000
0001
0100
0001
,
1000
0001
1000
0100
0010
0000
0001
0000
,
1000
0000
0100
1000
0001
1000
0100
1000
,
0001
0000
0100
0000
0010
0000
0000
0000
1000
0000
0000
0000
0100
0000
0000
0010
,
0000
0001
0000
1000
0001
1000
0001
0000
,
0100
0000
0000
0001
1000
0100
0010
0001
1000
0010
0100
0001
,
1000
0001
0001
0000
0000
0100
0100
0000
,
0000
0010
1000
0010
1000
0001
0010
0000
,
0000
0001
0001
0M00
0M00
1000
1000
0M00
,
0M00
0000
0001
0000
1000
0000
0001
0000
0100
00M0
0100
0000
2000
0000
0000
0000
,
3000
0000
0000
0000
0001
0000
1000
0000
1000
0000
0001
0000
0001
0000
1000
0100
,
1000
0000
0001
0100
0001
0000
0000
0000
1000
0000
0000
0000
0100
0000
0010
0000
,
0100
1000
0001
1000
0010
0100
0001
1000
,
0001
0010
0001
1000
0010
0100
0001
1000
,
0001
0010
0001
1000
0010
0100
0001
1000
,
0001
0010
0200
0300
2000
3000
0001
1000
,
0001
1000
0001
0020
0030
0100
1000
0001
,
1000
0100
2002
3003
0220
0330
2002
3003
,
1000
0000
0001
0100
0010
1000
0001
0000
,
0010
0000
0000
0000
0001
0000
0000
1000
0000
0000
0001
0000
1000
0000
0001
0000
,
0100
0001
1000
0001
0010
0100
1000
0001
,
1000
0010
1000
0001
0010
0100
1000
0001
,
1000
0010
1000
0001
0010
0100
1000
0001
,
1000
0010
0200
0300
0002
0003
1000
0001
,
1000
0100
1000
0020
0030
0100
0001
1000
,
0001
0100
2002
3003
0220
0330
2002
3003
,
1000
0000
0001
0100
0001
1000
0001
0000
,
0010
0000
0000
0000
0001
0000
0000
2000
0000
0000
0000
0000
3000
0000
0000
0000
,
0000
0000
0001
0010
0000
0100
1000
0000
,
0001
0000
2000
0000
0000
3000
0000
0000
0002
0003
0000
0000
2002
3003
0000
0000
,
0220
0330
0000
0000
2002
3003
0000
0000
2200
3300
0000
0000
0202
0303
0000
0000
,
2002
3003
0000
0000
0110
0000
0000
0000
0000
0000
0000
0000
0000
0000
0000
0000
;

//---------------dance-single - ----------------
#NOTES:
     dance-single:
     SJ, XO:
     Hard:
     13:
     0.637311,0.804957,0.546029,0.743529,0.243970,384.000000,337.000000,47.000000,64.000000,1.000000,0.000000,0.637311,0.804957,0.546029,0.743529,0.243970,384.000000,337.000000,47.000000,64.000000,1.000000,0.000000:
0000
0000
0000
0000
,
0000
0000
0000
0000
,
0000
0000
0000
0000
,
0000
0000
0000
0000
,
0000
0000
0000
00M0
,
0000
0000
0000
0000
,
0000
0000
0000
0000
0000
0000
0002
0000
0000
0000
0000
0000
0000
0000
0000
0000
0000
0000
0000
0000
0000
0000
0000
0000
0000
0000
0000
0000
0000
0000
0000
0000
0000
0000
0000
0000
0003
0000
0000
0000
0000
0000
0000
0200
0000
0000
0000
0000
0000
0000
0000
0000
0000
0000
0000
0000
0000
0000
0000
0000
0000
0000
0000
0000
,
0000
0300
0110
0000
0000
1000
0100
0000
,
0000
0000
0000
0000
0010
0000
0000
0001
0000
0000
0000
0000
0010
0000
0000
0000
0001
0000
0000
0000
0000
0000
0000
0000
1000
0000
0000
0000
0000
0000
0000
0000
,
0010
0100
0101
0000
0001
0000
0020
0000
,
1030
0010
0002
0003
1000
0000
0002
0000
,
0103
0010
1000
1000
1000
0000
0001
0000
,
0010
0100
0020
0000
0000
0000
0031
0000
,
1000
0000
0010
0000
0200
0000
0000
0000
0301
0000
0000
1000
0100
0000
0000
0000
,
0010
0000
0000
0000
0000
0000
0000
0000
0000
0001
0000
0000
0010
0000
0000
0000
0000
0000
0100
0000
0000
0000
0000
0000
1000
0000
0000
0000
0000
0000
0000
0001
0000
0000
0000
0000
0100
0000
0000
0000
0000
0000
0000
0000
0000
0000
0000
0000
,
0110
0000
0000
0000
1000
0000
0100
0000
0010
0000
0100
1000
0100
0000
1000
0000
,
0010
0000
0100
0000
0001
0100
0001
0000
0010
0000
0100
0000
2000
0000
0000
0000
,
3010
0000
0000
0000
0000
0000
0000
0000
0000
0100
0000
0000
0001
0000
0000
0000
0000
0000
1000
0000
0000
0000
0000
0000
0100
0000
0000
0000
0010
0000
0000
0000
0001
0000
0000
0000
0010
0000
0000
0000
0100
0000
0000
0000
1000
0000
0000
0000
,
0001
0000
0100
0000
0010
0000
1000
0001
0010
0000
0001
1000
0010
0000
1000
0001
,
0010
0100
1100
0000
1001
0000
1010
0000
,
0110
0000
0000
0000
0101
0000
0000
0000
0001
0000
1000
0000
0001
0010
0001
0000
,
1000
0000
0010
0100
0001
0000
1000
0000
0100
0000
1000
0000
0010
0000
0100
0000
,
0001
0000
0000
0000
0000
0000
0010
0000
0000
0100
0000
0000
1000
0000
0000
0000
0010
0000
0000
0000
0100
0000
0000
0000
0001
0000
0000
0000
0010
0000
0000
0000
0100
0000
0000
0000
1000
0000
0000
0000
0010
0000
0000
0000
0100
0000
0000
0000
,
0001
0000
1000
0000
0100
0000
0020
0000
0000
0000
0000
0000
1030
0000
0000
0010
0000
0000
0100
0000
0000
2000
0000
0000
,
0000
3010
0001
1000
0100
0001
2000
0000
,
3100
0000
0100
1000
0020
0000
0130
0000
,
0100
0001
0020
0000
0130
1000
0100
0010
,
0002
0000
0003
0000
2000
0000
0000
0000
3010
0000
0100
0000
0010
0000
0000
1000
,
0001
0000
0010
0000
1100
0000
0000
1100
0000
0000
0101
0000
0000
0201
0000
0000
,
0310
1000
0001
0100
0010
0100
0001
0010
,
0100
0010
0001
1000
1001
0000
0110
0000
,
1001
0000
1000
0100
0010
0001
1000
0010
,
0100
0000
0001
0000
0101
0000
0000
0000
1010
0000
0000
0000
0001
0000
0000
1000
,
0000
0100
0010
0001
1000
0001
2000
3000
,
0020
0000
0000
0030
0000
0000
0100
0000
0001
0000
0010
0000
0001
0000
1000
0000
0010
0000
0100
0000
0001
0000
0010
0000
,
0100
1000
1000
0000
0000
0001
0001
0000
,
0000
0100
0100
0010
0010
1000
0100
0000
,
0010
0001
0001
0100
0100
0001
0001
0010
,
0010
0100
2000
0000
3010
0100
0002
0000
,
1003
0000
0000
0000
0100
0000
1000
0000
1000
0000
0010
0000
0010
0000
1000
0100
,
0010
0000
0001
0010
0200
0000
0000
0000
2300
0000
0000
0000
3010
0000
0100
0000
,
0001
0010
0100
1200
0000
1300
0010
0100
,
0001
0010
0100
1200
0000
1300
0010
0000
,
0101
0000
1000
2001
0000
3001
0010
0100
,
1000
0000
0010
0000
2020
3030
0000
0000
0220
0330
0000
0000
0202
0303
1000
0000
,
0100
0010
0001
0012
0000
1003
0010
0000
,
0100
0000
0001
0000
0202
0303
0000
0000
0220
0330
0000
0000
2020
3030
0000
0000
,
2000
3000
0001
0001
0010
0010
0200
0300
,
2000
0000
0000
3000
0000
0000
0010
0000
0000
0000
0002
0000
0000
0000
0000
0000
0000
0000
0003
0000
0000
0010
0000
0000
,
1000
0100
0010
0012
0000
0013
0001
1000
,
0010
0100
0001
0102
0000
1003
0100
0000
,
0110
0000
0001
1002
0000
1003
0010
0000
,
0100
0000
0001
0000
0202
0303
0000
0000
0220
0330
0000
0000
2020
3030
1000
0000
,
0001
0010
0100
2100
0000
3001
0100
0000
,
0010
0000
1000
0000
2020
3030
0000
0000
0220
0330
0000
0000
0202
0303
0000
0000
,
0002
0003
2000
0000
3100
0010
0001
0000
,
0100
0000
0000
0000
0010
0000
0000
2000
0000
0000
0000
0000
0000
0000
3000
0000
,
0000
0000
0001
0200
0000
0301
2000
0000
,
3100
0000
0000
0000
0000
0000
0000
0000
0000
0000
0000
0000
0000
0000
0000
0000
0000
0000
0000
0000
0000
0000
0020
0000
0000
0000
0000
0000
0000
0000
0000
0000
0000
0000
0000
0000
0000
0000
0000
0000
0000
0000
0000
0000
0000
0000
0000
0000
0000
0000
0000
0000
0000
0000
0000
0000
0000
0000
0000
0000
0000
0000
0000
0000
0000
0000
0000
0000
0000
0000
0000
0000
0030
0000
0000
0000
0000
0000
0000
0000
0000
0000
0000
0000
0000
0000
0000
0000
0000
0000
0000
0000
0000
0000
0000
0000
1001
0000
0000
0000
0000
0000
0000
0000
0000
0000
0000
0000
0000
0000
0000
0000
0000
0000
0000
0000
0000
0000
0000
0000
0000
0000
0000
0000
0000
0000
0000
0000
0000
0000
0000
0000
0000
0000
0000
0000
0000
0000
0000
0000
0000
0000
0000
0000
0110
0000
0000
0000
0000
0000
0000
0000
0000
0000
0000
0000
0000
0000
0000
0000
0000
0000
0000
0000
0000
0000
0000
0000
0000
0000
0000
0000
0000
0000
0000
0000
0000
0000
0000
0000
0000
0000
0000
0000
0000
0000
0000
0000
0000
0000
0000
0000
,
0101
1100
0011
0110
,
1100
1001
0000
0000
;
