#VERSION:0.83;
#TITLE:MURDER PLOT;
#SUBTITLE:;
#ARTIST:KORDHELL;
#TITLETRANSLIT:;
#SUBTITLETRANSLIT:;
#ARTISTTRANSLIT:;
#GENRE:;
#CREDIT:LuckJury;
#MUSIC:MURDER PLOT.ogg;
#BANNER:MURDER PLOT-bn.jpg;
#BACKGROUND:MURDER PLOT.mp4;
#CDTITLE:;
#SAMPLESTART:17.164;
#SAMPLELENGTH:13.714;
#SELECTABLE:YES;
#OFFSET:-0.021;
#BPMS:0.000=140.000;
#STOPS:;
#SCROLLS:0.000=1.000,
37.979=5.000,
38.000=0.000,
38.979=5.000,
39.000=0.000,
39.479=5.000,
39.500=1.000
;
#BGCHANGES:;
#FGCHANGES:;

//--------------- dance-single - LuckJury ----------------
#NOTEDATA:;
#STEPSTYPE:dance-single;
#DESCRIPTION:LuckJury;
#DIFFICULTY:Medium;
#METER:12;
#RADARVALUES:0,0,0,0,0;
#NOTES:
0000
0000
0000
0000
,
0000
0000
0000
0000
,
1000
0000
0001
0000
0000
0100
0000
0000
0010
0000
1000
0000
0100
0000
1000
0000
,
0001
0000
0010
0000
0000
0100
0000
0000
1000
0000
1000
0000
0100
0000
1000
0000
,
0001
0000
0100
0000
0000
0010
0000
0000
0100
0000
0001
0000
1000
0000
0100
0000
,
1000
0000
0010
0000
0000
1000
0000
0000
0001
0000
0001
0000
0100
0000
0100
0000
,
0010
0000
1000
0000
0000
0001
0000
0000
1000
0000
0100
0000
0010
0000
0100
0000
,
1000
0000
0001
0000
0000
0010
0000
0000
0001
0000
0001
0000
0100
0000
0001
0000
,
1000
0000
0001
0000
0000
0100
0000
0000
0010
0000
0100
0000
0001
0000
1000
0000
,
1001
0000
0000
0000
0MM0
0000
00M0
0M00
,
0001
0100
1000
0100
0001
0010
1000
0010
,
0001
0100
0001
1000
0001
0001
01M0
0100
,
1000
0010
0001
0010
1000
0100
0001
0100
,
1000
0001
0010
0001
0100
0100
0010
0010
,
1000
0100
0001
0100
1000
0010
0001
0010
,
1000
0001
0100
0001
1000
1000
0M10
0010
,
0001
0100
1000
0100
0001
0010
1000
0010
,
0001
0000
1000
0010
0000
0100
0001
0000
1000
0100
0010
0001
1000
0000
0000
0000
,
0001
0000
0100
0000
1000
0000
0100
0000
0010
0000
1000
0001
1000
0000
0100
0000
,
1000
0001
0100
0001
1000
1000
01M0
0100
,
0001
0000
0010
0000
1000
0000
0010
0000
0100
0000
1000
0001
1000
0000
0010
0000
,
1000
0001
0010
0001
0100
0100
0010
0010
,
1000
0000
0100
0000
0001
0000
0100
0000
0010
0000
0001
1000
0001
0000
0100
0000
,
0001
1000
0001
0100
0001
0001
0M10
0010
,
1000
0010
0001
0010
1000
0100
0001
0100
,
1000
0010
1000
0010
1000
0010
0100
0010
0100
0010
0100
0001
1000
0000
0000
0000
,
0100
0000
1000
0000
0001
0000
0010
0000
0001
0000
01M0
0100
1000
0000
0001
0000
,
0100
0000
0010
0000
1000
0000
0100
0000
1000
0000
01M0
0100
0001
0000
0100
0000
,
0010
0000
0100
0000
0001
0000
1000
0000
0001
0000
01M0
0100
1000
0000
0100
0000
,
1000
0000
0010
0000
1000
0000
0001
0000
1000
0000
0M10
0010
0001
0000
0100
0000
,
0010
0000
1000
0000
0100
0000
1000
0000
0001
0000
01M0
0100
1000
0000
0100
0000
,
1000
0000
0010
0000
0100
0000
0001
0000
1000
0000
0M10
0010
0001
0000
0100
0000
,
0010
0000
1000
0000
0100
0000
0010
0000
0001
0000
0M10
0010
1000
0000
0001
0000
,
1001
0000
0000
0000
0000
0000
1000
0001
1000
0001
1000
0010
0100
0010
0100
0010
,
1000
0000
0010
0000
0001
0000
0010
0000
0100
0000
0001
1000
0001
0000
0010
0000
,
0001
1000
0010
1000
0001
0001
0M10
0010
,
1000
0000
0100
0000
0001
0000
0100
0000
0010
0000
0001
1000
0001
0000
0100
0000
,
0001
1000
0100
1000
0010
0010
0100
0100
,
0001
0000
0010
0000
1000
0000
0010
0000
0100
0000
1000
0001
1000
0000
0010
0000
,
1000
0001
1000
0010
1000
1000
01M0
0100
,
0001
0100
1000
0100
0001
0010
1000
0010
,
0001
0000
0100
0010
0000
1000
0001
0000
0010
0100
1000
0001
1000
0000
0000
0000
,
0001
0000
0100
0000
0010
0000
1000
0001
1000
0000
0001
1000
0001
0000
1000
0000
,
0001
0100
1000
0100
0001
0001
0M10
0010
,
1000
0000
0001
0000
0100
0000
0001
1000
0001
0000
1000
0001
1000
0000
0010
0000
,
1000
0100
0001
0100
1000
1000
0001
0001
,
1000
0000
0100
0000
0010
0000
0001
0010
0001
0000
1000
0100
1000
0000
0100
0000
,
1000
0010
0001
0010
1000
1000
0M10
0010
,
0001
0000
0010
0000
0100
0000
1000
0010
1000
0000
0001
0100
0001
0000
1000
0000
,
0010
0000
0100
0000
0001
0000
1000
0000
0100
0010
0001
1000
0010
0000
0000
0000
,
0100
0000
0001
0000
1000
0000
01M0
0100
0001
0000
01M0
0100
1000
0000
0010
0000
,
0100
0000
0001
0000
0100
0000
0010
0000
1000
0000
01M0
0100
0001
0000
0010
0000
,
0100
0000
1000
0000
0001
0000
01M0
0100
1000
0000
01M0
0100
0001
0000
0100
0000
,
0010
0000
1000
0000
0010
0000
0100
0000
0001
0000
01M0
0100
1000
0000
0100
0000
,
1000
0000
0001
0000
1000
0000
01M0
0100
0001
0000
01M0
0100
1000
0000
0010
0000
,
0100
0000
0001
0000
0100
0000
0010
0000
1000
0000
01M0
0100
0001
0000
0010
0000
,
0100
0000
1000
0000
0001
0000
01M0
0100
1000
0000
01M0
0100
0001
0000
0100
0000
,
0001
0010
0100
1010
0100
1000
0011
0000
,
1000
0000
0001
0000
1000
0000
01M0
0100
0001
0000
0M10
0010
1000
0000
0100
0000
,
1000
0000
0010
0000
1000
0000
0001
0000
1000
0000
01M0
0100
0001
0000
1000
0000
,
0001
0000
0100
0000
0001
0000
0M10
0010
1000
0000
01M0
0100
0001
0000
1000
0000
,
0001
0000
0010
0000
0001
0000
1000
0000
0001
0000
01M0
0100
1000
0000
0010
0000
,
0100
0000
0001
0000
1000
0000
0M10
0010
0001
0000
01M0
0100
1000
0000
0010
0000
,
1000
0000
0100
0000
1000
0000
0001
0000
1000
0000
0M10
0010
0001
0000
1000
0000
,
0001
0000
0010
0000
0001
0000
01M0
0100
1000
0000
0M10
0010
0001
0000
1000
0000
,
0001
0000
0100
0000
0001
0000
1000
0000
0001
0000
0M10
0010
1000
0000
0001
0000
,
2002
0000
0000
0000
,
0000
0000
0000
0000
,
0000
0000
0000
0000
,
0000
0000
0000
0000
,
0000
0000
0000
0000
,
3003
0000
0000
0000
;

//--------------- dance-single - LuckJury ----------------
#NOTEDATA:;
#STEPSTYPE:dance-single;
#DESCRIPTION:LuckJury;
#DIFFICULTY:Hard;
#METER:14;
#RADARVALUES:0,0,0,0,0;
#NOTES:
0000
0000
0000
0000
,
0000
0000
0000
0000
,
1000
0000
0001
0000
0000
0100
0000
0000
0010
0000
1000
0000
0100
0000
1000
0000
,
0001
0000
0010
0000
0000
0100
0000
0000
1000
0000
1000
0000
0100
0000
1000
0000
,
0001
0000
0100
0000
0000
0010
0000
0000
0100
0000
0001
0000
1000
0000
0100
0000
,
1000
0000
0010
0000
0000
1000
0000
0000
0001
0000
0001
0000
0100
0000
0100
0000
,
0010
0000
1000
0000
0000
0001
0000
0000
1000
0000
0100
0000
0010
0000
0100
0000
,
1000
0000
0001
0000
0000
0010
0000
0000
0001
0000
0001
0000
0100
0000
0001
0000
,
1000
0000
0001
0000
0000
0100
0000
0000
0010
0000
0100
0000
0001
0000
1000
0000
,
1001
0000
0000
0000
0MM0
0000
00M0
0M00
,
0001
0100
1000
0100
0001
0010
1000
0010
,
0001
0100
0001
1000
0001
0001
01M0
0100
,
1000
0010
0001
0010
1000
0100
0001
0100
,
1000
0001
0010
0001
0100
0100
0010
0010
,
1000
0100
0001
0100
1000
0010
0001
0010
,
1000
0001
0100
0001
1000
1000
0M10
0010
,
0001
0100
1000
0100
0001
0010
1000
0010
,
0101
0000
1000
0011
0000
0100
0011
0000
1000
0100
0010
0001
1100
0000
0000
0000
,
0001
0000
0100
0000
1000
0000
0100
0000
0020
0000
1000
0001
0000
0000
0130
0000
,
1000
0001
0100
0001
1000
1000
01M0
0100
,
0001
0000
0010
0000
1000
0000
0010
0000
0200
0000
1000
0001
0000
0000
0310
0000
,
1000
0001
0010
0001
0100
0100
0010
0010
,
1000
0000
0100
0000
0001
0000
0100
0000
0020
0000
0001
1000
0000
0000
0130
0000
,
0001
1000
0001
0100
0001
0001
0M10
0010
,
1000
0010
0001
0010
1000
0100
0001
0100
,
1000
0010
0100
0010
1000
0001
0100
0010
1000
0100
0010
0001
1010
0000
0000
0000
,
0100
0000
1000
0000
0001
0000
0010
0000
0001
0000
01M0
0100
1000
0000
0001
0000
,
0100
0000
0010
0000
1000
0000
0100
0000
1000
0000
01M0
0100
0001
0000
0100
0000
,
0010
0000
0100
0000
0001
0000
1000
0000
0001
0000
01M0
0100
1000
0000
0100
0000
,
1000
0000
0010
0000
1000
0000
0001
0000
1000
0000
0M10
0010
0001
0000
0100
0000
,
0010
0000
1000
0000
0100
0000
1000
0000
0001
0000
01M0
0100
1000
0000
0100
0000
,
1000
0000
0010
0000
0100
0000
0001
0000
1000
0000
0M10
0010
0001
0000
0100
0000
,
0010
0000
1000
0000
0100
0000
0010
0000
0001
0000
0M10
0010
1000
0000
0001
0000
,
1001
0000
0000
0000
0000
0000
1000
0001
1000
0001
1000
0010
0100
0010
0100
0010
,
1000
0000
0010
0000
0001
0000
0010
0000
0200
0000
0001
1000
0000
0000
0310
0000
,
0001
1000
0010
1000
0001
0001
0M10
0010
,
1000
0000
0100
0000
0001
0000
0100
0000
0020
0000
0001
1000
0000
0000
0130
0000
,
0001
1000
0100
1000
0010
0010
0100
0100
,
0001
0000
0010
0000
1000
0000
0010
0000
0200
0000
1000
0001
0000
0000
0310
0000
,
1000
0001
1000
0010
1000
1000
01M0
0100
,
0001
0100
1000
0100
0001
0010
1000
0010
,
0001
01M0
0100
1000
01M0
0100
0001
0000
0010
0100
1000
0001
1100
0000
0000
0000
,
0001
0000
0100
0000
0020
0000
1000
0001
0000
0000
0001
1000
0000
0000
1030
0000
,
0001
0100
1000
0100
0001
0001
0M10
0010
,
1000
0000
0001
0000
0200
0000
0001
1000
0000
0000
1000
0001
0000
0000
0310
0000
,
1000
0100
0001
0100
1000
1000
0001
0001
,
1000
0000
0100
0000
0020
0000
0001
1000
0000
0000
1000
0001
0000
0000
0130
0000
,
1000
0010
0001
0010
1000
1000
0M10
0010
,
0001
0000
0010
0000
0200
0000
1000
0001
0000
0000
0001
1000
0000
0000
1300
0000
,
0010
0100
0001
1000
0100
0010
0001
0010
0100
1000
0010
0100
0011
0000
0000
0000
,
0100
0000
0001
0000
1000
0000
01M0
0100
0001
0000
01M0
0100
1000
0000
0010
0000
,
0100
0000
0001
0000
0100
0000
0010
0000
1000
0000
01M0
0100
0001
0000
0010
0000
,
0100
0000
1000
0000
0001
0000
01M0
0100
1000
0000
01M0
0100
0001
0000
0100
0000
,
0010
0000
1000
0000
0010
0000
0100
0000
0001
0000
01M0
0100
1000
0000
0100
0000
,
1000
0000
0001
0000
1000
0000
01M0
0100
0001
0000
01M0
0100
1000
0000
0010
0000
,
0100
0000
0001
0000
0100
0000
0010
0000
1000
0000
01M0
0100
0001
0000
0010
0000
,
0100
0000
1000
0000
0001
0000
01M0
0100
1000
0000
01M0
0100
0001
0000
0100
0000
,
0001
0010
0100
1010
0100
1000
0011
0000
,
1000
0000
0001
0000
1000
0000
01M0
0100
0001
0000
0M10
0010
1000
0000
0100
0000
,
1000
0000
0010
0000
1000
0000
0001
0000
1000
0000
01M0
0100
0001
0000
1000
0000
,
0001
0000
0100
0000
0001
0000
0M10
0010
1000
0000
01M0
0100
0001
0000
1000
0000
,
0001
0000
0010
0000
0001
0000
1000
0000
0001
0000
01M0
0100
1000
0000
0010
0000
,
0100
0000
0001
0000
1000
0000
0M10
0010
0001
0000
01M0
0100
1000
0000
0010
0000
,
1000
0000
0100
0000
1000
0000
0001
0000
1000
0000
0M10
0010
0001
0000
1000
0000
,
0001
0000
0010
0000
0001
0000
01M0
0100
1000
0000
0M10
0010
0001
0000
1000
0000
,
0001
0000
0100
0000
0001
0000
1000
0000
0001
0000
0M10
0010
1000
0000
0001
0000
,
2002
0000
0000
0000
,
0000
0000
0000
0000
,
0000
0000
0000
0000
,
0000
0000
0000
0000
,
0000
0000
0000
0000
,
3003
0000
0000
0000
;

//--------------- dance-single - LuckJury ----------------
#NOTEDATA:;
#STEPSTYPE:dance-single;
#DESCRIPTION:LuckJury;
#DIFFICULTY:Challenge;
#METER:17;
#RADARVALUES:0,0,0,0,0;
#NOTES:
0000
0000
0000
0000
,
0000
0000
0000
0000
,
1000
0000
0001
0000
0000
0100
0000
0000
0010
0000
1000
0000
0100
0000
1000
0000
,
0001
0000
0010
0000
0000
0100
0000
0000
1000
0000
1000
0000
0100
0000
1000
0000
,
0001
0000
0100
0000
0000
0010
0000
0000
0100
0000
0001
0000
1000
0000
0100
0000
,
1000
0000
0010
0000
0000
1000
0000
0000
0001
0000
0001
0000
0100
0000
0100
0000
,
0010
0000
1000
0000
0000
0001
0000
0000
1000
0000
0100
0000
0010
0000
0100
0000
,
1000
0000
0001
0000
0000
0010
0000
0000
0001
0000
0001
0000
0100
0000
0001
0000
,
1000
0000
0001
0000
0000
0100
0000
0000
0010
0000
0100
0000
0001
0000
1000
0000
,
1001
0000
0000
0000
0MM0
0000
00M0
0M00
,
0001
0100
1000
0100
0001
0010
1000
0010
,
0001
0100
0001
1000
0001
0001
01M0
0100
,
1000
0010
0001
0010
1000
0100
0001
0100
,
1000
0001
0010
0001
0100
0100
0010
0010
,
1000
0100
0001
0100
1000
0010
0001
0010
,
1000
0001
0100
0001
1000
1000
0M10
0010
,
0001
0100
1000
0100
0001
0010
1000
0010
,
0101
0000
1000
0011
0000
0100
0011
0000
1000
0100
0010
0001
1100
0000
0000
0000
,
0001
0000
0100
0000
1000
0000
0100
0000
0020
0000
1000
0001
0000
0000
0130
0000
,
1000
0001
0100
0001
1000
1000
01M0
0100
,
0001
0000
0010
0000
1000
0000
0010
0000
0200
0000
1000
0001
0000
0000
0310
0000
,
1000
0001
0010
0001
0100
0100
0010
0010
,
1000
0000
0100
0000
0001
0000
0100
0000
0020
0000
0001
1000
0000
0000
0130
0000
,
0001
1000
0001
0100
0001
0001
0M10
0010
,
1000
0010
0001
0010
1000
0100
0001
0100
,
1000
0010
0100
0010
1000
0001
0100
0010
1000
0100
0010
0001
1010
0000
0000
0000
,
0001
0100
0010
0100
0001
1000
01M0
0100
0001
01M0
0100
1000
0010
0100
0001
0100
,
0010
1000
0001
1000
0100
0010
0100
1000
0001
1000
0001
1000
0010
0100
0001
0100
,
0010
1000
0100
0010
0001
1000
01M0
0100
0001
01M0
0100
1000
0010
0100
0001
0100
,
0010
1000
0001
0100
0001
1000
0100
0010
0001
0010
0001
0010
0100
1000
0010
0100
,
0010
1000
0100
0010
0001
1000
0M10
0010
0001
0M10
0010
1000
0010
0100
0001
0100
,
0010
1000
0100
0010
0001
0010
0100
1000
0001
1000
0001
1000
0010
0100
0001
1000
,
0100
0010
0001
0100
0010
1000
01M0
0100
0001
01M0
0100
1000
0100
0010
0001
1000
,
0100
0000
0000
0000
0000
0000
1000
0001
1000
0001
1000
0010
0100
0010
0100
0010
,
1000
0000
0010
0000
0001
0000
0010
0000
0200
0000
0001
1000
0000
0000
0310
0000
,
0001
1000
0010
1000
0001
0001
0M10
0010
,
1000
0000
0100
0000
0001
0000
0100
0000
0020
0000
0001
1000
0000
0000
0130
0000
,
0001
1000
0100
1000
0010
0010
0100
0100
,
0001
0000
0010
0000
1000
0000
0010
0000
0200
0000
1000
0001
0000
0000
0310
0000
,
1000
0001
1000
0010
1000
1000
01M0
0100
,
0001
0100
1000
0100
0001
0010
1000
0010
,
0001
01M0
0100
1000
01M0
0100
0001
0000
0010
0100
1000
0001
1100
0000
0000
0000
,
0001
0000
0100
0000
0020
0000
1000
0001
0000
0000
0001
1000
0000
0000
1030
0000
,
0001
0100
1000
0100
0001
0001
0M10
0010
,
1000
0000
0001
0000
0200
0000
0001
1000
0000
0000
1000
0001
0000
0000
0310
0000
,
1000
0100
0001
0100
1000
1000
0001
0001
,
1000
0000
0100
0000
0020
0000
0001
1000
0000
0000
1000
0001
0000
0000
0130
0000
,
1000
0010
0001
0010
1000
1000
0M10
0010
,
0001
0000
0010
0000
0200
0000
1000
0001
0000
0000
0001
1000
0000
0000
1300
0000
,
0010
0100
0001
1000
0100
0010
0001
0010
0100
1000
0010
0100
0011
0000
0000
0000
,
1000
0100
0010
0100
1000
0001
01M0
0100
1000
01M0
0100
0001
0010
0100
1000
0100
,
0010
0001
1000
0001
0100
0010
1000
01M0
0100
0100
0100
0100
1000
0100
1000
0001
,
0010
0001
0100
0010
1000
0001
01M0
0100
1000
01M0
0100
0001
0010
0100
1000
0100
,
0010
0001
1000
0100
1000
0001
0010
010M
0100
0100
0100
0100
1000
0001
0010
0100
,
0010
0001
0100
0010
1000
0001
0M10
0010
1000
0M10
0010
0001
0010
0100
1000
0100
,
0010
0001
0100
0010
1000
0010
1000
01M0
0100
0100
0100
0100
0010
0100
1000
0001
,
0100
0010
1000
0100
0010
0001
01M0
0100
1000
01M0
0100
0001
0100
0010
1000
0001
,
0100
0001
1000
0100
0010
0001
1100
0010
1000
0100
0010
0001
1010
0000
0000
0000
,
0001
0010
0100
0010
0001
1000
0M10
0010
0001
0M10
0010
1000
0100
0010
0001
0010
,
0100
1000
0001
1000
0010
0100
0001
0M10
0010
0010
0010
0010
0001
0010
0001
1000
,
0100
1000
0010
0100
0001
1000
0M10
0010
0001
0M10
0010
1000
0100
0010
0001
0010
,
0100
1000
0001
0010
0001
1000
0100
M010
0010
0010
0010
0010
0001
1000
0100
0010
,
0100
1000
0010
0100
0001
1000
01M0
0100
0001
01M0
0100
1000
0100
0010
0001
0010
,
0100
1000
0010
0100
0001
0100
0001
0M10
0010
0010
0010
0010
0100
0010
0001
1000
,
0010
0100
0001
0010
0100
1000
0M10
0010
0001
0M10
0010
1000
0010
0100
0001
1000
,
0010
1000
0001
0010
0100
0010
0001
0100
0010
1000
0001
1000
01M0
0100
0100
0100
,
0022
0000
0000
0000
,
0000
0000
0000
0000
,
0000
0000
0000
0000
,
0000
0000
0000
0000
,
0033
0000
0000
0000
;
