#VERSION:0.83;
#TITLE:M@GICAL☆CURE! LOVE♥SHOT!;
#SUBTITLE:♥ ☆ MIKU ☆ MIKU ☆ SPIIIIIIN!!! ☆ ♥;
#ARTIST:SAWTOWNE feat. Hatsune Miku;
#TITLETRANSLIT:;
#SUBTITLETRANSLIT:;
#ARTISTTRANSLIT:;
#GENRE:;
#ORIGIN:;
#CREDIT:SPACE GOBLIN!!!;
#BANNER:magicalcureloveshot.mp4;
#BACKGROUND:bg.jpg;
#PREVIEWVID:;
#JACKET:;
#CDIMAGE:;
#DISCIMAGE:;
#LYRICSPATH:;
#CDTITLE:cover.jpg;
#MUSIC:MAGICAL CURE LOVE SHOT 230 EDIT.mp3;
#OFFSET:-0.030000;
#SAMPLESTART:85.029999;
#SAMPLELENGTH:18.750000;
#SELECTABLE:YES;
#BPMS:0.000=192.000;
#STOPS:;
#DELAYS:;
#WARPS:;
#TIMESIGNATURES:0.000=4=4;
#TICKCOUNTS:87.000=0;
#COMBOS:0.000=1;
#SPEEDS:0.000=1.000=0.000=0;
#SCROLLS:28.000=1.000,
28.500=0.000,
29.000=1.000,
29.500=0.000,
30.000=1.000,
30.500=0.000,
31.000=1.000,
31.500=0.000,
32.000=1.000,
86.500=2.000,
87.500=0.000,
88.000=1.000,
128.000=0.750,
130.000=1.000,
132.000=0.750,
135.000=1.000,
136.000=0.750,
138.500=1.000,
140.000=0.750,
143.000=1.000,
172.000=0.000,
172.750=1.000,
173.000=0.000,
173.750=1.000,
174.000=0.000,
174.750=1.000,
175.000=0.000,
175.500=1.000,
190.000=2.000,
191.000=0.000,
191.500=1.000,
238.000=2.000,
239.000=0.000,
239.500=1.000,
252.000=0.000,
252.250=1.000,
252.500=0.000,
252.750=1.000,
254.000=0.000,
254.250=1.000,
254.500=0.000,
254.750=1.000,
288.000=0.000,
288.500=1.000,
292.000=0.000,
292.500=1.000,
296.000=0.000,
296.500=1.000,
300.500=0.000,
301.000=1.000,
336.000=0.500,
337.500=0.750,
339.000=1.000,
340.000=0.500,
343.000=1.000,
344.000=0.500,
347.000=0.750,
348.000=0.500,
349.750=0.750,
351.000=1.000,
380.000=0.000,
380.500=1.000,
381.000=0.000,
381.500=1.000,
382.000=0.000,
382.500=1.000,
383.000=0.000,
383.500=1.000,
398.250=1.500,
399.000=0.500,
399.500=1.000,
412.000=0.000,
412.500=1.000,
413.000=0.000,
413.500=1.000,
414.000=0.000,
414.500=1.000,
415.000=0.000,
415.500=1.000;
#FAKES:;
#LABELS:0.000=Song Start;
#BGCHANGES:0.000=magicalcureloveshot.mp4=1.000=0=0=0=StretchNoLoop====,
99999=-nosongbg-=1.000=0=0=0 // don't automatically add -songbackground-
;
#KEYSOUNDS:;
#ATTACKS:
;

//---------------dance-single - SPACE GOBLIN!!!----------------
#NOTEDATA:;
#CHARTNAME:;
#STEPSTYPE:dance-single;
#DESCRIPTION:SPACE GOBLIN!!!;
#CHARTSTYLE:;
#DIFFICULTY:Hard;
#METER:13;
#RADARVALUES:0.606582,0.679905,0.266629,1.573113,0.023330,637.000000,597.000000,40.000000,236.000000,24.000000,0.000000,3.000000,0.000000,0.000000,0.606582,0.679905,0.266629,1.573113,0.023330,637.000000,597.000000,40.000000,236.000000,24.000000,0.000000,3.000000,0.000000,0.000000;
#CREDIT:;
#NOTES:
// measure 0
0000
0000
0000
0000
,  // measure 1
0000
0000
0000
0000
,  // measure 2
0000
0000
0000
0000
,  // measure 3
0000
0000
0000
0000
,  // measure 4
0000
0000
0000
0000
,  // measure 5
0000
0000
0000
0000
,  // measure 6
0000
0000
0000
0000
,  // measure 7
2000
3000
0020
0030
0000
0000
2002
3003
0000
0000
0200
0300
0000
0000
0002
0003
,  // measure 8
1000
0000
0010
0000
0400
0000
0000
0300
0001
0000
1000
0000
0100
0000
0000
0000
,  // measure 9
2001
0000
0010
0000
3001
0100
0001
0000
,  // measure 10
2002
0000
3003
0000
0020
0000
0000
0030
1000
0000
0010
0000
0100
0000
0000
0000
,  // measure 11
0001
0100
0000
0002
1000
0000
0010
0000
,  // measure 12
1000
0000
0103
0000
0001
0010
0100
0000
,  // measure 13
2001
0010
3001
0110
,  // measure 14
0001
1000
0100
0010
0001
1000
0001
0200
,  // measure 15
0010
0000
0301
00M0
0200
0000
0010
0000
1000
0000
0310
0000
0100
0000
1000
0000
,  // measure 16
0001
1000
0100
0010
0002
0000
0013
0001
,  // measure 17
1000
0010
0100
0010
2000
0000
3001
0000
,  // measure 18
1000
0100
0010
0001
1000
0010
0100
0001
,  // measure 19
0100
0010
0100
0001
2000
0000
3001
0000
,  // measure 20
1000
0100
0010
0001
0002
0000
1003
0010
,  // measure 21
0100
0000
0001
0000
1000
0000
2002
0000
3003
0000
M00M
0000
0000
MMMM
M00M
M00M
,  // measure 22
0MM0
0001
0010
0100
1000
0001
0100
0001
,  // measure 23
1000
0100
0010
0001
2002
3003
0100
0000
,  // measure 24
1000
0001
0100
0001
2002
3003
1000
0001
,  // measure 25
0010
0100
1000
0001
1000
0100
0020
0000
,  // measure 26
0030
0100
1000
0001
0100
0010
1000
0001
,  // measure 27
0100
0001
1000
0100
0020
0000
0031
1000
,  // measure 28
0200
0000
0010
0300
10M0
0000
0200
0000
0010
0300
1000
0000
0001
0000
0200
0000
,  // measure 29
0010
0000
0301
00M0
0200
0000
0010
0000
1000
0000
0300
0000
0001
0000
0100
0000
,  // measure 30
0200
0000
0301
1000
0100
0010
0001
1000
,  // measure 31
0002
0000
1000
0003
2002
3003
0020
0030
,  // measure 32
0004
0000
0003
0000
1000
0010
0000
2000
,  // measure 33
0001
0000
0010
3000
0002
0000
0013
0001
,  // measure 34
2000
0000
0000
3000
0100
0000
0010
0000
0002
0000
0003
0000
1000
0000
2000
0000
,  // measure 35
0010
3001
0200
0310
,  // measure 36
1001
0000
0000
1000
0100
0010
0000
2002
,  // measure 37
3003
1000
0000
0010
0000
0200
0300
0001
,  // measure 38
1002
0203
2300
3020
,  // measure 39
0032
2003
0001
3000
,  // measure 40
1000
0000
0010
0000
1000
0000
0001
0000
0020
0000
0000
0030
0100
0000
2000
0000
,  // measure 41
3000
0000
0002
0003
0100
0000
0020
0000
0030
0000
2000
0000
3002
0000
0023
0000
,  // measure 42
0030
0001
1000
0200
0300
0010
0100
0010
,  // measure 43
2002
3003
0220
0330
2002
3003
2002
3003
,  // measure 44
1000
0010
0100
0001
1000
0100
0010
0001
,  // measure 45
1000
0010
0100
0002
0000
1003
0010
0100
,  // measure 46
0001
1000
0100
0010
0001
0010
0100
1000
,  // measure 47
0001
1000
0010
0100
0001
0000
1001
0000
,  // measure 48
1000
0100
0010
0100
2000
3000
0001
0200
,  // measure 49
0300
0010
0100
0002
0000
1003
0100
0020
,  // measure 50
0030
0100
1000
0002
0003
0010
0100
1000
,  // measure 51
2002
3003
2002
3003
2002
3003
0002
0003
,  // measure 52
1000
0001
1000
0010
0200
0300
0001
2000
,  // measure 53
3000
0100
0010
0002
0000
0003
1000
0000
,  // measure 54
0002
0203
2300
3020
,  // measure 55
0032
0000
2003
0000
3001
0000
1000
0100
,  // measure 56
0010
0000
0100
0000
0020
0000
0000
0030
0001
0000
1000
0000
0001
0000
0000
0000
,  // measure 57
0100
0010
1000
0001
0020
0030
0200
0300
,  // measure 58
0020
0030
0002
0003
2000
3000
0002
0003
,  // measure 59
1000
0000
0010
0000
0100
0000
0010
0000
1001
0000
0000
0MM0
0MM0
0MM0
0000
0000
,  // measure 60
1000
0100
0002
0003
0100
1000
0001
0000
,  // measure 61
2002
0000
0000
0000
3003
0010
1001
0000
,  // measure 62
2000
3000
0002
0003
0100
0010
0100
0000
,  // measure 63
0002
1000
0003
0000
2002
0000
3003
0000
,  // measure 64
0001
0000
0100
0000
2000
0000
0000
3000
0100
0000
0001
0000
1000
0000
0000
0000
,  // measure 65
0002
0000
0000
0000
0003
1000
0100
0000
,  // measure 66
1000
0100
0010
0001
1000
0002
0003
0000
,  // measure 67
0200
0300
0200
0300
2002
0000
3003
0000
,  // measure 68
0002
0003
0200
0300
0020
0030
2000
3000
0002
0003
0020
0030
0200
0300
2000
3000
,  // measure 69
0002
0003
0200
0300
0002
0003
2000
3000
0200
0300
2000
3000
0002
0003
2000
3000
,  // measure 70
0020
0030
0200
0300
0020
0030
2000
3000
0002
0003
0020
0030
0200
0300
2000
3000
,  // measure 71
0002
0003
0200
0300
0020
0030
2000
3000
0002
0003
2000
3000
0002
0003
2000
3000
,  // measure 72
0020
0000
0000
0000
0100
0000
0000
0000
0100
0000
0000
0000
0100
0000
0000
0030
,  // measure 73
0002
0000
0000
0000
1000
0000
0000
0000
1000
0000
0000
0000
1000
0000
0000
0003
,  // measure 74
0200
1000
0010
1300
,  // measure 75
0000
0000
0000
0000
1000
0010
0100
0001
,  // measure 76
2000
0000
0000
0000
0000
0000
0000
3000
0020
0000
0000
0000
0000
0000
0000
0030
,  // measure 77
0002
0000
0000
0000
0000
0000
0000
0000
0203
0000
0000
0000
0000
0000
0000
0300
,  // measure 78
2000
0000
3002
0000
,  // measure 79
0000
0000
0003
0000
,  // measure 80
0002
0000
0000
0000
0000
0000
0000
0003
0200
0000
0000
0000
0000
0000
0000
0300
,  // measure 81
2000
0000
0000
0000
0000
0000
0000
3000
0020
0000
0000
0000
0000
0000
0000
0030
,  // measure 82
0002
0000
0000
0000
0000
0000
0000
0003
2000
0000
0000
0000
0000
0000
0000
3000
,  // measure 83
0000
0000
1000
0001
,  // measure 84
1002
0000
0000
0000
1003
0010
0000
2000
,  // measure 85
0000
3000
0020
0030
0200
0300
0002
0003
,  // measure 86
2000
3000
0000
0000
0200
2300
3000
0002
,  // measure 87
0000
0000
0000
0003
0100
0000
0000
0000
0002
0000
0000
0003
2000
0000
0000
3000
,  // measure 88
0001
0000
0000
0000
1000
0000
0010
0000
0100
0000
0002
0000
0000
0003
2000
0000
,  // measure 89
3000
0000
0200
0000
0300
0000
2000
0000
3000
0000
0001
0000
2000
0000
0000
3000
,  // measure 90
0002
0203
2300
3020
,  // measure 91
0032
2003
0000
3001
,  // measure 92
1000
0000
0010
0000
1000
0000
0001
0000
0020
0000
0000
0030
0001
0000
2000
0000
,  // measure 93
3000
0000
0020
0030
0100
0000
0020
0000
0030
0000
2000
0000
3002
0000
0023
0000
,  // measure 94
0030
0001
1000
0200
0300
0010
0100
0010
,  // measure 95
2002
3003
0220
0330
2002
3003
2002
3003
,  // measure 96
1000
0010
0100
0001
1000
0100
0010
0001
,  // measure 97
1000
0010
0100
0002
0000
1003
0010
0100
,  // measure 98
0001
1000
0100
0010
0001
0010
0100
1000
,  // measure 99
0001
1000
0010
0100
0001
0000
2002
3003
,  // measure 100
1000
0100
0010
0100
2000
3000
0001
0200
,  // measure 101
0300
0010
0100
0002
0000
1003
0100
0020
,  // measure 102
0030
0100
1000
0002
0003
0010
0100
1000
,  // measure 103
2002
3003
2002
3003
2002
3003
0002
0003
,  // measure 104
1000
0001
1000
0010
0200
0300
0001
2000
,  // measure 105
3000
0100
0010
0002
0000
0003
1000
0000
,  // measure 106
0002
0203
2300
3020
,  // measure 107
0032
0000
2003
0000
3001
0000
1000
0100
,  // measure 108
0010
0000
0100
0000
0020
0000
0000
0030
0001
0000
1000
0000
0001
0000
0000
0000
,  // measure 109
0100
0010
1000
0001
0020
0030
0200
0300
,  // measure 110
0020
0030
0002
0003
2000
3000
0002
0003
,  // measure 111
1000
0010
0100
0010
1001
0000
1MM1
0000
,  // measure 112
1000
0000
0010
0000
0400
0000
0000
0300
0001
0000
1000
0000
0100
0000
0000
0000
,  // measure 113
2100
0000
0001
0000
3001
0100
0010
0000
,  // measure 114
2002
0000
3003
0000
0020
0000
0000
0030
1000
0000
0010
0000
0100
0000
0000
0000
,  // measure 115
0001
0100
0000
0002
1000
0000
0010
0000
,  // measure 116
1000
0000
0103
0000
0001
0010
0100
0000
,  // measure 117
2001
0010
3001
0110
,  // measure 118
1000
0010
0100
0001
1000
0200
0300
0200
,  // measure 119
0010
0000
0301
00M0
0200
0000
0010
0000
1300
0000
0010
0000
0100
0000
0002
0000
,  // measure 120
0003
0000
0000
0000
;

//---------------dance-single - SPACE GOBLIN!!!----------------
#NOTEDATA:;
#CHARTNAME:;
#STEPSTYPE:dance-single;
#DESCRIPTION:SPACE GOBLIN!!!;
#CHARTSTYLE:;
#DIFFICULTY:Challenge;
#METER:17;
#RADARVALUES:0.872259,1.319815,0.366615,1.266489,0.463268,916.000000,853.000000,55.000000,190.000000,26.000000,13.000000,38.000000,0.000000,0.000000,0.872259,1.319815,0.366615,1.266489,0.463268,916.000000,853.000000,55.000000,190.000000,26.000000,13.000000,38.000000,0.000000,0.000000;
#CREDIT:;
#NOTES:
0000
0000
0000
0000
,
0000
0000
0000
0000
,
0000
0000
0000
0000
,
0000
0000
0000
0000
,
0000
0000
0000
0000
,
0000
0000
0000
0000
,
0000
0000
0000
0000
,
2000
3000
0020
0030
0000
0000
2002
3003
0000
0000
0200
0300
0000
0000
0002
0003
,
1000
0000
0010
0000
0400
0000
0000
0300
0001
0000
1000
0000
0100
0000
0000
0000
,
4001
0000
0010
0000
3001
1000
0010
0000
,
2002
0000
3003
0000
0020
0000
0000
0030
1000
0000
0010
0000
0100
0000
0001
1000
,
0001
0100
0000
0004
1000
0000
0010
0000
,
1000
0000
0103
0000
0001
1000
0100
0000
,
4001
0000
0010
0000
3001
1000
0110
0000
,
0001
1000
0100
0010
0001
1000
0001
0200
,
0010
0000
0301
00M0
0200
0000
0010
0000
1000
0000
0310
0000
0100
0000
1000
0000
,
0001
1000
0100
0010
0004
0000
0013
0001
,
1000
0000
0010
0100
0010
0000
0010
0000
4000
0000
0000
0000
3001
0000
0000
0000
,
1000
0000
0010
0100
0010
0000
0100
0000
0001
0000
1000
0000
0100
0000
1000
0000
,
0001
0010
0100
0010
0004
0000
1003
0000
,
1000
0010
0100
0001
0004
0000
1003
0010
,
0100
0000
0001
0100
0001
0000
2002
0000
3003
0000
M00M
0000
0000
MMMM
M00M
M00M
,
0MM0
0001
0010
0100
1000
0001
0100
0001
,
1000
0001
0100
0001
0100
0000
0010
0000
4002
0000
0000
0000
3103
0000
0000
0000
,
1000
0000
0001
0100
0001
0000
1000
0000
2004
0000
0000
0000
3103
0000
0001
0000
,
1000
0000
0100
1000
0100
0000
0010
0000
0001
0000
1000
0000
0040
0000
0000
0000
,
0030
0000
0100
0000
0001
0000
0100
0000
0010
0000
1000
0000
0001
0000
0100
0001
,
1000
0100
1000
0100
0040
0000
0031
1000
,
0200
0000
0010
0300
10M0
0000
0200
0000
0010
0300
0001
0000
0001
0000
0200
0000
,
0010
0000
0301
00M0
0200
0000
0010
0000
1000
0000
1300
0000
0001
0000
0100
0010
,
0200
0000
0000
0000
0301
0000
1000
0000
0100
0000
1000
0100
1000
0000
0001
0000
,
0002
0000
1000
0003
2002
3003
0020
0030
,
4004
0000
3003
0000
1000
0010
0000
4000
,
0001
0000
3010
0000
0002
0000
0013
0001
,
4000
0000
3100
0010
0002
1003
0010
2000
,
0010
0000
3001
1000
0200
0000
0310
0000
,
1001
0000
0000
1000
0100
0010
0000
4004
,
3003
1000
0000
0010
0000
0200
0300
0001
,
1002
0203
2300
3020
,
0032
2003
0001
3001
,
1000
0000
0010
0100
0001
0000
1000
0000
0200
0300
1000
0001
0100
0000
0001
1000
,
0100
0000
0010
0000
0001
0000
1000
0000
0001
0000
0010
0001
0010
0000
0100
1000
,
0200
0300
1000
0000
0001
0000
0100
0000
0010
0000
1000
0001
0100
0000
0001
0000
,
2002
3003
0222
0333
2202
3303
0220
0330
,
1000
0000
0100
0010
0001
0000
1000
0000
0100
0000
1000
0001
0100
0000
0001
1000
,
0100
0000
1000
0000
0001
0000
0100
0000
0001
0000
1000
0100
1000
0000
0100
0010
,
0100
0000
1000
0000
0001
0000
0100
0000
0001
0000
0100
0000
0010
0000
1000
0001
,
0010
0001
1000
0010
0100
0000
1111
0000
,
1000
0010
0100
0001
0010
0100
1000
0001
0200
0000
0301
0000
1000
0000
0001
1000
,
0001
0100
0010
4000
0001
0000
3001
0400
,
0010
0000
0000
0000
0310
0000
1000
0000
0001
0000
0100
0010
0100
0000
0001
0000
,
1000
0000
0100
0000
1000
0000
0001
0100
0002
0000
0000
0000
1003
0000
0001
0000
,
1000
0000
0010
0100
0001
0000
1000
0000
0200
0300
1000
0001
0100
0000
0001
1000
,
0100
0000
1000
0000
0100
0000
0010
0000
0001
0000
0010
0001
0010
0000
0100
1000
,
0200
0300
1000
0000
0001
0000
0100
0000
0010
0000
1000
0001
0100
0000
0001
1000
,
0001
0000
1000
0001
1000
0000
0010
0100
0010
0000
1000
0000
1001
0000
0010
0000
,
1001
0000
0100
0000
2002
0000
3003
0000
1000
0000
0010
0000
0220
0000
0000
0330
,
1000
0000
0010
0100
0001
0000
1000
0000
0001
0000
0000
0000
2002
0000
3003
0000
,
0220
0330
2002
3003
0220
0330
0002
2003
,
3000
0000
0100
0000
0010
0000
0001
0000
M22M
0000
0000
0330
M00M
M00M
MMMM
0000
,
1000
0000
0001
0010
0100
0000
1000
0000
0001
0000
0100
0010
1000
0000
0001
0000
,
1000
0001
0100
0010
1000
0001
0010
0100
1000
0000
0001
0000
0100
0000
0001
0000
,
1000
0000
0001
0010
0001
0000
1000
0001
1000
0000
0010
1000
0010
0000
0100
0000
,
1002
1000
0000
0000
0100
0103
0000
0000
,
1000
0000
0001
0000
0400
0000
0000
0300
0001
0000
1000
0000
0100
0000
0000
0000
,
4001
0010
0001
0010
3001
1000
0010
0000
,
2004
0000
0000
3003
4002
0000
3003
0000
1000
0000
0100
0000
0010
0000
0001
1000
,
0002
0000
0000
0000
1000
0000
0003
0000
2002
0000
0000
0000
0000
0000
0000
3003
,
0002
0003
0200
0300
0020
0030
2000
3000
0002
0003
0020
0030
0200
0300
2000
3000
,
0002
0003
0200
0300
0002
0003
2000
3000
0200
0300
2000
3000
0002
0003
2000
3000
,
0020
0030
0200
0300
0020
0030
2000
3000
0002
0003
0020
0030
0200
0300
2000
3000
,
0002
0003
0200
0300
0020
0030
2000
3000
0002
0003
2000
3000
0002
0003
0100
0010
,
4000
0000
0010
0000
0001
0000
0100
3000
,
0004
0100
1000
0013
,
0400
0001
1000
0301
,
1000
0001
0000
0000
1000
0001
0100
0010
,
4000
0010
0000
0100
0000
3010
1000
0010
,
1000
0100
0010
0001
1000
0010
0100
0001
1000
0001
0010
0001
1000
0010
1000
0010
,
1000
0010
0100
0001
1000
0100
0010
0001
1000
0010
0100
0001
0100
0010
1000
0001
,
0010
0100
2000
0000
3000
0000
0010
0000
0010
0000
0010
0000
0000
0000
1000
0000
,
0010
0100
0010
0100
0010
0100
0001
1000
0010
0100
0001
1000
0100
0010
0001
1000
,
0010
0100
0001
1000
0001
0100
0010
1000
0001
0000
1000
0000
0100
0000
0100
0000
,
2000
3200
0302
0023
,
2030
0000
0000
0000
0010
0000
0000
0000
3001
0000
1000
0100
0010
0000
0001
0000
,
1004
0000
0100
0000
1003
0001
0100
0010
,
4001
0000
3100
0000
0004
0000
0103
0010
,
2000
3000
0010
4000
0001
0000
3100
1000
,
0200
0000
0000
0000
0310
0000
0000
0000
0002
0000
0000
0003
2000
0000
0000
3000
,
0001
0000
0001
0100
0001
0002
0003
2000
,
3000
0000
0020
0000
0030
0000
2000
0000
3000
0000
0001
0000
2000
0000
0000
3000
,
0002
0203
2300
3020
,
0032
0000
2003
0000
0002
0003
3001
0000
,
1000
0100
0010
0001
0010
0100
1000
0100
1000
0001
0100
0010
0100
0001
1000
0001
,
0100
0010
1000
0001
0020
0030
0200
0300
2000
3000
0200
0300
0020
0030
0004
0000
,
1003
0000
0020
0030
0400
0000
0002
0300
0003
0000
1000
0000
0010
0000
0100
0000
,
2002
0000
3003
0000
2202
0000
3303
0000
2022
0000
3033
0000
2002
3003
0000
0000
,
1000
0001
0100
0010
1000
0001
0010
0100
1002
0000
1000
0000
1003
0000
0001
0000
,
0010
0100
0100
4000
0000
3001
0000
0001
,
2000
3000
0001
1000
0001
0000
1000
0001
1000
0000
0001
1000
0001
0000
0010
0000
,
0100
0000
1000
0000
0100
0000
0010
0000
0002
0003
0000
0000
0220
0000
0330
0000
,
1000
0001
0100
0010
0100
0001
1000
0100
1000
0100
0010
0001
0010
0100
1000
0100
,
1000
0100
0010
0000
0002
0003
2000
3000
0000
0000
0020
0030
0002
0003
0040
0000
,
0030
0000
2000
3000
0200
0300
0002
0003
0200
0300
1000
0000
0010
0000
0100
0000
,
0220
0330
2202
3303
2022
3033
1002
1003
,
0001
1000
0010
0100
0001
1000
0100
0010
0001
1000
0010
0100
0001
1000
0100
0010
,
0001
0010
0100
2002
0000
3003
4000
0000
,
3101
0000
0000
0000
4000
0000
0000
0000
3011
0000
0000
0000
2002
0000
0000
0003
,
3001
0000
0010
0100
0010
0000
0001
1000
0001
0000
0001
0000
1000
0000
0010
0000
,
0100
0001
0110
0000
1000
0010
1001
0000
,
1000
0000
0100
0000
0010
0000
0100
0010
0100
0000
0000
0000
2000
0000
3000
0000
,
0110
0000
0002
0003
0220
0330
1000
0001
,
0000
0100
0001
1000
0002
0003
1001
0000
,
1000
0000
0010
0100
0001
0000
1000
0000
0100
0000
0010
0100
0010
0000
0001
0000
,
1000
0001
0100
0010
1000
0001
0010
0100
1000
0000
0001
0000
0110
0000
0010
0000
,
2000
3000
0001
0100
0010
0000
2000
3000
0001
0000
0010
0100
2000
3000
0001
0000
,
0100
0000
0001
1000
0010
0000
2002
0000
0100
0000
0000
0000
3013
0000
0010
0000
,
1000
0000
0001
1000
0001
0000
0100
0000
0010
0000
1000
0001
1000
0000
0100
0000
,
1000
0100
0010
0001
0010
0100
1000
0001
0100
0000
0002
0003
2000
3000
0000
0000
,
2000
3020
0032
0203
2300
3002
0003
0200
,
0010
0000
0301
00M0
0200
0000
0010
0000
1000
0000
0310
0000
0100
0000
0002
0000
,
0003
0000
0000
0000
;
