#VERSION:0.83;
#TITLE:Lyrith -迷宮リリス-;
#SUBTITLE:;
#ARTIST:ユメミド;
#TITLETRANSLIT:Lyrith -meikyuu ririsu-;
#SUBTITLETRANSLIT:;
#ARTISTTRANSLIT:Yumemido;
#GENRE:IRON MAIDEN;
#ORIGIN:BOFU2017 - LEGENDA EST A MYTH - (Team "孤高クローバー");
#TAGS:;
#CREDIT:;
#BANNER:Lyrith -meikyuu ririsu-.png;
#BACKGROUND:Lyrith -meikyuu ririsu--bg.png;
#PREVIEWVID:;
#JACKET:Lyrith -meikyuu ririsu--jacket.png;
#CDIMAGE:;
#DISCIMAGE:;
#LYRICSPATH:;
#CDTITLE:;
#MUSIC:Lyrith -meikyuu ririsu-.ogg;
#OFFSET:-0.053000;
#SAMPLESTART:90.560997;
#SAMPLELENGTH:23.051001;
#SELECTABLE:YES;
#DISPLAYBPM:177.000000;
#BPMS:0.000000=177.000000
,220.500000=354.000000
,221.000000=177.000000
,224.000000=354.000000
,224.250000=177.000000
,224.375000=88.500000
,224.625000=177.000000
,224.750000=354.000000
,225.250000=177.000000
,225.375000=88.500000
,225.625000=177.000000
,225.750000=354.000000
,226.000000=177.000000
,400.000000=354.000000
,400.250000=177.000000
,400.375000=88.500000
,400.625000=177.000000
,400.750000=354.000000
,401.250000=177.000000
,401.375000=88.500000
,401.625000=177.000000
,401.750000=354.000000
,402.000000=177.000000
;
#STOPS:220.500000=0.085000
;
#DELAYS:;
#WARPS:9.833333=16.000000
,25.875000=16.000000
,42.000000=16.000000
,58.250000=16.000000
;
#TIMESIGNATURES:0.000000=2=4
,2.000000=4=4
,234.000000=7=4
,290.000000=8=4
,298.000000=4=4
;
#TICKCOUNTS:0.000000=4
;
#COMBOS:0.000000=1
;
#SPEEDS:0.000000=0.500000=0.000000=0
,101.000000=1.000000=1.000000=0
,136.750000=0.833000=0.000000=0
,137.500000=0.663000=0.000000=0
,138.000000=0.500000=0.000000=0
,168.000000=0.600000=0.000000=0
,168.250000=0.700000=0.000000=0
,168.500000=0.800000=0.000000=0
,168.750000=0.900000=0.000000=0
,169.000000=1.000000=0.000000=0
,331.000000=1.250000=0.500000=0
,332.000000=1.500000=0.500000=0
,333.000000=1.750000=0.500000=0
,334.000000=2.000000=0.500000=0
,438.000000=1.800000=0.500000=0
,439.000000=1.600000=0.500000=0
,440.000000=1.400000=0.500000=0
,441.000000=1.200000=0.500000=0
,442.000000=1.000000=0.500000=0
;
#SCROLLS:0.000000=1.000000
,98.000000=0.000000
,101.000000=1.000000
,298.000000=0.500000
,448.000000=0.000000
,448.250000=1.000000
,472.000000=0.500000
;
#FAKES:9.833333=16.000000
,25.875000=16.000000
,58.250000=16.000000
;
#LABELS:226.000000=54.968
;
#BGCHANGES:0.000=Lyrith -meikyuu ririsu-.avi=1.000=0=0=0=StretchNoLoop====,
99999=-nosongbg-=1.000=0=0=0 // don't automatically add -songbackground-
;
#KEYSOUNDS:;
#ATTACKS: TIME=3.400458:LEN=0.127118:MODS=*1000000 50% Stealth: TIME=3.527576:LEN=1.000000:MODS=*1000000 No Stealth;

//---------------dance-single - ----------------
#NOTEDATA:;
#CHARTNAME:;
#CHARTHASH:1350305228;
#STEPSTYPE:dance-single;
#BANNER:;
#DESCRIPTION:;
#CHARTSTYLE:;
#DIFFICULTY:Medium;
#METER:12;
#METERF:0.000000;
#LASTSECONDHINT:144.460052;
#RADARVALUES:0.494752,0.623896,0.264838,0.264838,0.098465,510.000000,471.000000,39.000000,39.000000,0.000000,0.000000,0.000000,0.000000,56.000000,0.494752,0.623896,0.264838,0.264838,0.098465,510.000000,471.000000,39.000000,39.000000,0.000000,0.000000,0.000000,0.000000,56.000000;
#CREDIT:-YOSEFU-;
#ATTACKS: TIME=3.400458: END=3.527576: MODS=*1000000 50% Stealth: TIME=3.527576: LEN=1.000000: MODS=*1000000 No Stealth:
;
#DISPLAYBPM:177.000000;
#NOTES:
0000
0000
0000
0000
,
0000
0000
0000
0000
,
0000
0000
0000
0000
,
0000
0000
0000
0000
,
0000
0000
2000
0000
,
0100
0000
3001
0000
,
0000
0000
0000
0000
0000
0000
0001
1000
,
0001
0000
1000
0000
0001
0000
1000
0000
0001
0000
1000
0000
0001
1000
0001
1000
,
0001
1000
0001
1000
0001
1000
0001
1000
0001
1000
0001
1000
0002
0000
0000
0000
,
0000
0000
0000
0000
0000
0000
0000
0003
0000
0000
0000
0000
0000
0000
0000
0000
,
0000
0000
0000
0000
,
0000
0000
0000
0000
,
0000
0000
0000
0000
,
0000
0000
0000
0000
,
0000
0000
0000
0000
0000
0000
0001
1000
,
0001
0000
1000
0000
0001
0000
1000
0000
0001
0000
1000
0000
0001
1000
0001
1000
,
0001
1000
0001
1000
0001
1000
0001
1000
0001
1000
0001
1000
0002
0000
0000
0000
,
0000
0000
0000
0000
0000
0000
0000
0003
0000
0000
0000
0000
0000
0000
0000
0000
,
0000
0000
0000
0000
,
0000
0000
0000
0000
,
0000
0000
2000
0000
,
0100
0000
3002
0000
,
0100
0000
1003
0000
,
1001
0000
0011
0001
,
1000
0010
0100
0000
,
0000
0000
0000
0000
0101
0000
0001
1000
,
0100
0000
0010
0000
0001
0000
1000
0010
,
0100
0000
0110
0000
0010
0000
1000
0001
,
0010
0000
0000
0000
0100
0000
1000
0000
0000
0000
0001
0000
0000
0100
0000
0000
,
0010
1000
0000
0000
0100
0010
0001
0000
,
0100
0010
1000
0000
0001
0010
0100
0000
,
1000
0010
0100
0000
0001
0010
0100
0000
,
1000
0000
0001
0000
0100
0000
0000
0000
0000
0000
0010
0000
1000
0000
0000
0001
,
0000
1000
0000
0000
0200
0000
0000
0000
,
0000
0000
0000
0310
0000
0000
0001
0000
1000
0000
0000
0000
0000
0000
0010
0000
,
1000
0000
0000
0001
0001
0000
0000
1000
,
1000
0000
0000
0100
0100
0000
0000
0010
,
0001
0000
0000
1000
1000
0000
0000
0010
,
0010
0000
0000
0100
0100
0000
0000
0001
,
1000
0000
0000
0100
0100
0000
0000
0010
,
0010
0000
0000
0001
0001
0000
1000
0000
,
1001
0001
0101
1010
,
1100
0000
1000
0001
0100
0000
0010
1000
,
0001
0000
1000
0100
0010
1000
0010
0001
,
1000
0000
0010
0100
0001
0000
0010
0100
,
1000
0000
0001
0100
0010
0001
0010
0100
,
0001
0000
1000
0100
0010
0000
0001
0100
,
0010
0000
1000
0001
0010
0100
1000
0010
,
0100
0000
0001
1000
0100
0000
0010
0001
,
1000
0000
0010
0100
0001
0010
0100
1000
,
0001
0000
0100
0010
2000
0000
0100
0000
,
0001
0000
3010
1000
0001
0000
0010
0100
,
1000
0000
0001
0100
0020
0000
0001
0000
,
1000
0000
0130
0001
1000
0000
0100
0010
,
0001
0000
0100
0010
2000
0000
3000
0000
,
1001
0000
1001
0000
0002
2003
3200
2300
,
3020
0000
0230
0000
0301
0000
1000
0100
,
0010
0000
0001
0100
0010
0000
1010
0000
,
0101
0000
0000
0000
0011
0000
0000
0101
,
0000
0000
1001
0000
0000
1100
0000
0000
,
1000
0000
1010
0000
0000
1001
0000
0000
,
0011
0000
0000
0110
0000
0000
0100
0000
,
1100
0000
0000
1010
0000
0000
0101
0000
,
0000
0011
0000
0000
0100
0000
1001
0000
,
0000
0101
0000
0000
1010
0000
0000
1001
,
0000
0000
1000
0000
1100
0000
0100
0010
,
0000
0001
1000
0000
0010
0000
0100
0001
,
1000
0100
0010
0100
1000
0000
0001
0000
,
0100
0010
1000
0000
0001
1000
0100
0000
,
0010
0000
0001
0100
0000
0010
1000
0000
,
0001
0000
1000
0100
0001
0100
1000
0001
,
0100
0000
0010
0000
1000
0100
0010
0000
,
0100
0010
0001
1000
0010
0000
0100
0000
,
0001
0000
1000
0100
0100
0000
0010
0000
,
0001
1000
0000
0000
2010
0000
0000
0000
,
0000
0000
3200
0000
,
0320
0000
0032
0000
,
0000
0000
0203
0000
,
0320
2030
3002
0000
,
0000
0023
0230
0000
,
2300
0001
3001
0000
,
0200
0001
0301
0000
,
0010
0100
1000
1001
,
0101
1010
2002
3003
,
2200
0000
3300
0000
1000
0000
0001
0100
,
0010
0000
1000
0100
0010
0000
0001
0100
,
0010
0000
1000
0001
0010
0000
0100
0010
,
0001
0000
1000
0010
0001
0000
0010
0100
,
0001
0000
1000
0100
0010
0000
0100
1000
,
0001
0000
0100
0010
1000
0010
0100
0001
,
2000
3200
0320
0032
,
0023
0000
0230
0000
1300
0001
0100
0010
,
1000
0000
0100
0010
0001
0000
0100
0010
,
1000
0000
0001
0010
0100
0000
1000
0001
,
0100
1000
0100
0001
1000
0000
0100
0010
,
0001
0000
1000
0010
0001
0000
0010
1000
,
0001
0010
1000
0001
0100
0000
1000
0000
,
0010
0000
0100
0000
0001
1000
0100
0010
,
0100
0000
1000
0000
0001
0000
0100
0000
0010
0000
1000
0000
0001
0000
0000
1000
,
0000
0000
0100
0000
0000
0010
0000
0000
0001
0000
0100
0000
0010
0000
1000
0000
,
0002
0000
2003
0000
3100
0000
0010
0001
,
1000
0000
0010
0100
0001
0000
1000
0100
,
0010
0000
0001
0100
0010
1000
0001
0000
,
1000
0000
0000
0100
0000
0000
0010
0000
0000
0000
0001
0000
1000
0000
0000
0000
,
0010
0000
0000
0100
0000
0000
0001
0000
0000
0000
1000
0000
0100
0000
0000
0000
,
0010
0000
0000
0001
0000
0000
1000
0000
0000
0010
0000
0000
0100
0000
0000
0001
,
0000
0000
1000
0000
0000
0100
0000
0000
0010
0000
0100
0000
1000
0000
0000
0000
,
0001
0100
0010
0000
1000
0100
0010
0001
,
0100
0010
1000
0001
0010
0000
0100
0000
,
1100
0000
1000
0000
1010
0000
0010
0100
,
0001
0101
2002
0000
,
0000
0000
0000
3003
,
0000
1000
0001
0100
0010
0000
1000
0010
,
0100
0000
0001
0010
0100
0000
1000
0001
,
0100
0010
1000
0001
0100
0000
0010
1000
,
0001
0000
1000
0100
0010
0000
0001
1000
,
0010
0000
0100
0001
1000
0000
0100
0010
,
0001
0000
0100
1000
0100
0001
0010
0100
,
2000
0000
0000
0000
,
0000
0000
0000
0000
,
0000
0000
0000
0000
,
0000
0000
0000
0000
,
0000
0000
3001
0100
1000
0000
0000
0000
;

//---------------dance-single - ----------------
#NOTEDATA:;
#CHARTNAME:;
#CHARTHASH:1976778096;
#STEPSTYPE:dance-single;
#BANNER:;
#DESCRIPTION:;
#CHARTSTYLE:;
#DIFFICULTY:Hard;
#METER:14;
#METERF:0.000000;
#LASTSECONDHINT:144.460052;
#RADARVALUES:0.618925,0.831862,0.264838,0.264838,0.353117,638.000000,599.000000,39.000000,39.000000,0.000000,0.000000,0.000000,0.000000,72.000000,0.618925,0.831862,0.264838,0.264838,0.353117,638.000000,599.000000,39.000000,39.000000,0.000000,0.000000,0.000000,0.000000,72.000000;
#CREDIT:-YOSEFU-;
#ATTACKS: TIME=3.400458: END=3.527576: MODS=*1000000 50% Stealth: TIME=3.527576: LEN=1.000000: MODS=*1000000 No Stealth:
;
#DISPLAYBPM:177.000000;
#NOTES:
0000
0000
0000
0000
,
0000
0000
0000
0000
,
0000
0000
0000
0000
,
0000
0000
0000
0000
,
0000
0000
1000
0010
,
0100
0000
0001
0000
,
0000
0000
0000
0000
0000
0000
0000
0000
0000
0000
0000
0000
1000
0100
1000
0100
,
0001
0100
0001
0100
1000
0100
1000
0100
1000
0010
1000
0010
0001
0010
0001
0010
,
1000
0010
1000
0100
1000
0100
1000
0010
0100
0001
1000
0100
0020
0000
0000
0000
,
0000
0000
0000
0000
0000
0000
0000
0030
0000
0000
0000
0000
0000
0000
0000
0000
,
0000
0000
0000
0000
,
0000
0000
0000
0000
,
0000
0000
0000
0000
,
0000
0000
0000
0000
,
0000
0000
0000
0000
0000
0000
0000
0000
0000
0000
0000
0000
1000
0100
1000
0100
,
0001
0100
0001
0100
1000
0100
1000
0100
1000
0010
1000
0010
0001
0010
0001
0010
,
1000
0010
1000
0100
1000
0100
1000
0010
0100
0001
1000
0100
0020
0000
0000
0000
,
0000
0000
0000
0000
0000
0000
0000
0030
0000
0000
0000
0000
0000
0000
0000
0000
,
0000
0000
0000
0000
,
0000
0000
0000
0000
,
0000
0000
1000
0001
,
0100
0000
0010
1000
,
0001
0000
1100
1000
,
1001
0000
0101
0100
,
0010
1000
0001
0000
,
0000
0000
0000
0000
1000
0000
0100
0001
,
0100
0000
0000
0000
1000
0001
1000
0000
0010
0000
0000
0000
0100
0000
0001
0000
,
1000
0000
0100
1000
0020
0000
0000
0000
0130
0000
0001
0000
0100
0000
1000
0000
,
0100
0000
0001
0000
0100
0000
0010
0000
0000
0000
1000
0000
0001
0010
0000
0001
,
0010
0100
0000
1000
0001
0100
0010
0100
,
0001
0000
1000
0000
0100
0000
1000
0000
0010
0000
0100
0001
0100
0000
0001
0000
,
1000
0100
0010
0001
0100
0010
1000
0010
,
0100
0000
0001
0000
0010
0000
0001
0000
0000
0000
1000
0000
0001
0100
0000
0001
,
0100
0020
0000
0000
2030
0000
0000
0000
,
0000
0000
0000
3001
0000
0000
0010
0000
0100
0000
0000
0000
1000
0000
0001
0000
,
0100
0000
0010
1000
1000
0000
0001
1000
,
1000
0000
0100
0010
0010
0000
0001
1000
,
0010
0000
0100
0001
0001
0000
1000
0001
,
0001
0000
0010
0100
0100
0000
1000
0001
,
0100
0000
0010
1000
1000
0000
0001
1000
,
1000
0000
0100
0010
0010
0000
0001
1000
,
0010
0000
0100
0001
0101
0000
1010
0000
,
1100
0000
0100
0010
0001
0100
0010
0100
,
0001
1000
0100
1000
0010
0001
0010
0100
,
0001
0000
1000
0100
1000
0000
0001
0000
0100
0000
0010
0000
0100
0000
0001
0000
,
1000
0100
1000
0001
0010
1000
0010
0001
,
1000
0000
0010
0100
0010
0000
1000
0000
0001
0000
0010
0000
0100
0000
1000
0000
,
0010
0001
0010
0100
0001
1000
0100
0010
,
0001
0000
1000
0010
1000
0000
0001
0000
0010
0000
0100
0000
1000
0000
0001
0000
,
0100
0000
0010
0000
1000
0000
0100
0000
0010
0000
0001
1000
0001
0000
0100
0000
,
0010
0000
0000
1000
0001
0000
0010
0000
0200
0000
0000
0000
1000
0000
0000
0000
,
0010
0000
0000
0000
0301
0000
0100
0000
1000
0000
0001
0100
0001
0000
1000
0000
,
0100
0000
0010
0001
0010
0000
0001
0000
0200
0000
0000
0000
0001
0000
0000
0000
,
0310
0000
1000
0010
1000
0000
0001
0000
0010
0000
0100
1000
0100
0000
0010
0000
,
0002
0000
1003
0010
0220
0000
0330
0000
,
1001
0000
1001
0000
0002
0023
0230
0320
,
0032
0000
0000
0000
2003
0000
0000
0000
3010
0000
0000
0010
1000
0000
0100
0000
,
0010
0001
0100
0010
1010
0000
0011
0000
,
2200
0000
3300
0000
1010
0000
0000
0101
,
0000
0000
0011
0000
0000
1100
0000
0000
,
1000
0010
0110
0000
0000
0101
0000
0000
,
1001
0000
0000
1100
0000
0000
0100
0010
,
0011
0000
0000
0101
0000
0000
1010
0000
,
0000
1100
0000
0000
0100
0010
0011
0000
,
0000
1010
0000
0000
1100
0000
0000
0101
,
0000
0000
0001
1000
0100
0000
0010
0001
,
0000
0000
0100
0000
0010
0000
1000
0001
1000
0000
0000
0000
0001
0000
0100
0000
,
1000
0000
0100
0010
0100
0000
0001
0000
1000
0000
0000
0000
0100
0000
0010
0000
,
0001
0000
0010
0100
0010
0000
0000
0000
0001
0000
0100
0000
0010
0000
1000
0001
,
1000
0000
0000
0000
0100
0000
0010
0000
0000
0000
0001
0000
0100
0000
0010
1000
,
0010
0000
0000
0000
1000
0000
0100
0000
0001
0000
0100
0010
0001
0000
1000
0000
,
0010
0000
0000
0000
0100
0000
0001
0000
1000
0000
0100
1000
0100
0000
0000
0000
,
0010
0001
1000
0010
0100
0001
0100
0001
,
1000
0100
1000
0100
0010
0001
0010
0001
,
1000
1010
0000
0000
2001
0000
0000
0000
,
0000
0000
3020
0000
,
0230
0000
0302
0000
,
0000
0000
0023
0000
,
0230
2300
3020
0000
,
0000
0230
0302
0000
,
2003
0100
3100
2000
,
3002
0100
0103
0002
,
2003
3200
0310
0110
,
1100
0000
1010
0000
0101
0001
0100
0010
,
1000
0000
0000
0000
0001
0000
0000
0000
1000
0000
0000
0010
1000
0000
0000
0001
,
1000
0000
0000
0010
1000
0000
0000
0001
0010
0000
0000
0100
1000
0000
0001
0000
,
0100
0000
0000
0010
1000
0000
0100
0000
0010
0000
0000
0001
1000
0000
0000
0001
,
0100
0000
0000
0001
1000
0000
0010
0000
0001
0000
0000
0010
0100
0000
0001
0000
,
1000
0000
0000
0000
0100
0000
0010
0000
0001
0000
0000
1000
0010
0000
0000
1000
,
0001
0000
0000
0010
0001
0000
0000
1000
0010
0000
0100
0000
0001
0000
0010
0000
,
0100
0000
0000
1000
0010
0000
0100
0000
0002
0000
0000
0000
0103
0000
0010
0000
,
2000
0000
0000
0000
3200
0000
0000
0000
0310
0001
0010
0001
0010
0000
0000
0000
,
0110
0000
0000
0000
1000
0001
1000
0001
1000
0000
0000
0001
0100
0000
0000
0010
,
1000
0000
0000
0001
0010
0000
0000
0100
1000
0000
0000
0010
0100
0000
0001
0000
,
0010
0000
1000
0000
0010
0000
0001
0000
1000
0000
0000
0010
0100
0000
0000
0001
,
0010
0000
0000
0100
1000
0000
0010
0000
0100
0000
0000
0000
1000
0000
0100
0000
,
0001
0010
1000
0001
0100
0000
2000
0000
,
0100
0000
0000
0000
0010
0000
0000
0000
3001
0100
0001
0000
1000
0000
0100
0000
,
0010
0001
0010
0000
0100
0000
0000
0000
1000
0000
0001
0000
1000
0000
0000
0010
,
0000
0000
0100
0000
0000
0001
0000
0000
0100
0001
0100
0001
0100
0000
0000
0000
,
0020
0000
0230
0000
0301
0000
1000
0100
,
0010
0000
0001
0100
0010
0000
1000
0001
,
0010
0000
0000
0000
0100
1000
0100
1000
0100
0000
1000
0000
0001
0000
0100
0000
,
0010
0000
0000
1000
0000
0000
0100
0000
0010
0000
0001
0000
0100
0000
0010
0000
,
1000
0000
0000
0001
0000
0000
0010
0000
0100
0000
1000
0000
0001
0000
0000
0000
,
0100
0000
0000
0010
0000
0000
1000
0000
0000
0100
0000
0000
0010
0000
0000
0001
,
0000
0000
0100
0000
0000
0010
0000
0000
1000
0000
0001
0000
0010
0000
0100
0000
,
1000
0000
0001
0000
0100
0000
0010
0000
1000
0010
1000
0010
1000
0000
0001
0000
,
1000
0100
0010
0001
0100
0000
0001
0000
,
1001
0000
1000
0000
1100
0000
0100
0010
,
0001
0011
1001
0000
,
0001
0000
0000
0000
1000
0000
0001
1000
,
0010
0100
0001
1000
0100
0000
0010
0001
,
1000
0000
0010
0100
0001
0000
1000
0100
,
0010
0100
1000
0001
0100
0000
0010
1000
,
0001
0000
0010
0100
1000
0100
0001
0100
,
1000
0000
0010
0100
0001
0000
1000
0100
,
0010
0000
1000
0010
0001
0100
1000
0001
,
0020
0000
0000
0000
,
0000
0000
0000
0000
,
0000
0000
0000
0000
,
0000
0000
0000
0000
,
0000
0000
0000
0000
0130
0001
0010
0100
1000
0000
0000
0000
0000
0000
0000
0000
;

//---------------dance-single - ----------------
#NOTEDATA:;
#CHARTNAME:;
#CHARTHASH:935257429;
#STEPSTYPE:dance-single;
#BANNER:;
#DESCRIPTION:;
#CHARTSTYLE:;
#DIFFICULTY:Challenge;
#METER:17;
#METERF:0.000000;
#LASTSECONDHINT:144.460052;
#RADARVALUES:0.795483,1.372572,0.468559,0.271628,0.651908,820.000000,751.000000,69.000000,40.000000,0.000000,0.000000,0.000000,0.000000,75.000000,0.795483,1.372572,0.468559,0.271628,0.651908,820.000000,751.000000,69.000000,40.000000,0.000000,0.000000,0.000000,0.000000,75.000000;
#CREDIT:Yosefu ~迷宮マネージャー~;
#DISPLAYBPM:177.000000;
#NOTES:
// measure 0
0000
0000
0000
0000
,  // measure 1
0000
0000
0000
0000
,  // measure 2
0000
0000
0000
0000
,  // measure 3
0000
0000
0000
0000
,  // measure 4
0000
0000
0002
0010
,  // measure 5
0100
0000
1003
0000
,  // measure 6
0000
0000
0000
0000
0000
0000
0000
0000
0000
0000
0000
0000
0001
0100
0010
1000
,  // measure 7
0100
0010
0001
0100
1000
0100
0001
0010
1000
0010
0001
0100
1000
0100
0001
0010
,  // measure 8
1000
0001
0100
1100
0010
1000
0100
0001
0100
1000
0010
0001
0020
0000
0000
0000
,  // measure 9
0000
0000
0000
0000
0000
0000
0000
0030
0000
0000
0000
0000
0000
0000
0000
0000
,  // measure 10
0000
0000
0000
0000
,  // measure 11
0000
0000
0000
0000
,  // measure 12
0000
0000
0000
0000
,  // measure 13
0000
0000
0000
0000
,  // measure 14
0000
0000
0000
0000
0000
0000
0000
0000
0000
0000
0000
0000
0001
0100
0010
1000
,  // measure 15
0100
0010
0001
0100
1000
0100
0001
0010
1000
0010
0001
0100
1000
0100
0001
0010
,  // measure 16
1000
0001
0100
1100
0010
1000
0100
0001
0100
1000
0010
0001
0020
0000
0000
0000
,  // measure 17
0000
0000
0000
0000
0000
0000
0000
0030
0000
0000
0000
0000
0000
0000
0000
0000
,  // measure 18
0000
0000
0000
0000
,  // measure 19
0000
0000
0000
0000
,  // measure 20
0000
0000
0002
0010
,  // measure 21
0100
0000
2003
0010
,  // measure 22
0100
0000
3001
0100
,  // measure 23
0010
0100
0001
1000
,  // measure 24
0100
0010
0001
0000
,  // measure 25
0000
0000
0000
0000
2001
0000
3010
0001
,  // measure 26
0010
0000
0000
1000
0010
1000
0010
0000
0100
0000
0000
0000
0001
1000
0100
1000
,  // measure 27
0001
1000
0100
1000
0020
0000
0000
0000
1030
0000
0001
0000
0100
0000
0001
0000
,  // measure 28
1001
0000
0100
0000
0010
0000
0100
0000
0000
0000
1001
0000
0001
0100
0000
0001
,  // measure 29
0100
0000
1001
0000
0000
0000
0001
0000
1000
0000
0000
0100
1000
0000
0000
0001
,  // measure 30
1000
0000
0000
0100
1000
0000
0000
0001
1000
0000
0001
0100
0001
0000
1000
0100
,  // measure 31
1000
0000
0001
0100
0001
0000
1000
0000
0100
0000
0000
0010
0001
0000
0000
1000
,  // measure 32
0001
0000
0000
0010
0001
0000
1000
0000
0000
0000
1100
0000
1000
0100
0000
1000
,  // measure 33
0100
2002
0000
0000
3003
0000
0000
0000
,  // measure 34
0000
0000
0000
0101
0000
0000
0100
0000
1001
0000
0000
0000
1000
0000
0100
0000
,  // measure 35
0010
0000
1000
0100
0010
0100
1000
0010
,  // measure 36
0100
0001
1000
0001
0010
0000
1000
0001
,  // measure 37
0010
0000
1000
0001
0010
0100
0010
0001
,  // measure 38
0100
0010
1000
0001
0100
0000
1000
0001
,  // measure 39
0100
0000
1000
0001
0100
0010
1000
0001
,  // measure 40
0010
0100
1000
0001
0101
0000
1000
0001
,  // measure 41
0101
0000
1000
0100
1100
0000
0011
0000
,  // measure 42
0001
1000
0001
1000
0001
0000
1000
0000
0010
0000
1000
0010
1000
0000
0001
0010
,  // measure 43
0001
0000
1000
0100
1000
0000
0001
0100
0001
0000
0100
0000
1000
0000
0100
0000
,  // measure 44
0001
0000
1000
0100
1000
0000
0001
0000
0100
0000
0001
1000
0001
0000
0100
0010
,  // measure 45
0100
0000
0001
1000
0001
0000
0010
0100
0010
0000
1000
0000
0010
0000
0001
0000
,  // measure 46
1000
0000
0010
0100
0010
0000
1000
0000
0001
0000
1000
0100
1000
0000
0001
0010
,  // measure 47
0001
0000
1000
0010
1000
0000
0001
0100
0001
0000
0010
0000
0100
0000
1000
0000
,  // measure 48
0001
0000
1000
0010
1000
0000
0001
0000
1000
0000
0100
0010
0100
0000
1000
0001
,  // measure 49
1000
0000
0010
0100
0010
0000
1000
0001
1000
0000
0100
0010
0001
0000
0010
0000
,  // measure 50
0100
0000
1000
0001
0100
0000
0001
0000
1001
0000
1000
0010
0100
0000
0001
0100
,  // measure 51
0010
0000
1000
0001
0010
0000
0100
0000
1000
0000
0001
0100
0010
0000
1000
0000
,  // measure 52
0001
0000
0100
0010
1000
0000
0001
0000
0010
0000
0100
1000
0001
0000
1000
0100
,  // measure 53
0010
0000
0001
0100
0010
0000
1000
0000
0001
0000
0010
0100
1000
0000
0001
0000
,  // measure 54
0100
0000
0010
1000
0001
0000
1000
0000
2100
0000
0000
0000
3001
0100
0001
0100
,  // measure 55
0002
0000
2003
0000
3200
0320
0230
2300
,  // measure 56
3020
0000
0000
0000
0230
0000
0000
0000
0301
0000
0000
1000
0100
0000
0010
0000
,  // measure 57
0100
1000
0010
0100
0101
0000
1010
0000
,  // measure 58
2200
0000
3300
0000
1001
0000
0001
0101
,  // measure 59
0000
0000
1000
0000
1100
0000
0100
1000
0001
0000
0101
0000
0000
0000
0100
0000
,  // measure 60
0010
1000
0100
0010
0001
0000
0000
0000
1000
0000
1010
0000
0000
0000
0001
0000
,  // measure 61
0011
0000
0010
0001
1000
0000
1010
0000
0000
0000
0001
0000
1000
0100
0010
0001
,  // measure 62
1000
0000
0000
0000
0001
0000
0101
0000
0000
0000
1000
0000
1100
0000
0100
1000
,  // measure 63
0001
0000
0011
0000
0000
0000
1000
0000
0010
1000
0100
0010
0001
0000
0000
0000
,  // measure 64
0100
0000
0101
0000
0000
0000
1000
0000
1010
0000
0010
1000
0001
0000
0011
0000
,  // measure 65
0000
0000
1000
0000
0100
1000
0001
0100
0010
0000
0000
0000
0100
0000
0001
0000
,  // measure 66
1000
0000
0100
0000
0010
0000
0001
0100
0010
0000
1000
0000
0001
0000
1000
0000
,  // measure 67
0100
1000
0001
0100
0010
0000
1000
0000
0100
0000
0010
0000
0100
0000
1000
0000
,  // measure 68
0010
0000
0100
0001
1000
0000
0100
0000
0010
0000
0100
0000
1000
0001
0100
0010
,  // measure 69
1000
0000
0000
0000
0100
0000
0010
0000
0001
0000
0100
0000
0010
0000
1000
0001
,  // measure 70
0010
0000
0100
0000
0010
0000
0001
0000
0100
1000
0100
0001
1000
0000
0100
0000
,  // measure 71
0010
0000
0001
0000
0100
0000
0010
0000
1000
0000
0001
0010
0100
0000
0010
0000
,  // measure 72
0001
0000
1000
0000
0001
0100
0001
0100
0001
0000
0100
0000
0010
0000
0100
0000
,  // measure 73
0001
1000
0100
0010
0001
0100
0010
1000
,  // measure 74
0001
0011
0000
0000
2100
0000
0000
0000
,  // measure 75
0000
0000
3002
0000
,  // measure 76
0203
0000
0320
0000
,  // measure 77
0000
0000
2030
3000
,  // measure 78
2000
3200
0320
0000
,  // measure 79
0000
2030
3020
0000
,  // measure 80
0032
0103
0202
0303
,  // measure 81
0001
1000
2200
3300
,  // measure 82
0100
0010
0001
0011
,  // measure 83
1010
0000
1100
0000
0101
0001
1000
0100
,  // measure 84
0010
0000
0000
0000
0001
0000
0000
0000
1001
0000
1000
0001
0100
0000
0001
1000
,  // measure 85
0100
0000
0010
0001
1000
0000
0010
1000
0001
0000
0000
1000
0100
0000
0010
0000
,  // measure 86
0002
0000
0000
0000
0103
0000
0010
0000
1000
0000
0100
1000
0001
0000
0100
0001
,  // measure 87
1000
0000
0010
1000
0001
0000
0010
0000
0100
0000
0000
0001
0100
0000
1000
0000
,  // measure 88
0001
0000
0000
0000
0100
0000
0010
0000
1000
0000
0001
0010
0100
0000
1000
0001
,  // measure 89
0100
0000
0001
0010
0100
0000
1000
0001
0100
0000
0010
0000
1000
0000
0100
0000
,  // measure 90
0010
0000
0000
0001
1000
0000
0010
0000
0100
0000
0000
0001
1000
0000
0100
0000
,  // measure 91
0010
0000
0000
0001
2000
0000
0000
0000
3010
1000
0010
1000
0010
0000
0100
0000
,  // measure 92
0102
0000
0000
0000
0103
0010
0001
0010
0100
0000
0001
0100
0010
0000
1000
0100
,  // measure 93
0010
0000
0001
0100
0010
0000
1000
0100
0010
0000
0000
0100
1000
0000
0001
0000
,  // measure 94
0100
0000
0001
0010
1000
0000
1000
0010
0001
0000
1000
0010
0100
0000
0001
0010
,  // measure 95
0100
0000
1000
0010
0100
0000
0001
0010
0100
0000
0000
1000
0001
0000
0100
0000
,  // measure 96
0001
0010
1000
0000
0010
0000
0001
0000
1000
0000
0000
0000
0010
0000
0100
0000
,  // measure 97
0001
0000
1000
0000
0100
0000
0010
0000
0001
0010
0100
0010
0001
0000
1000
0000
,  // measure 98
0001
0100
0010
0100
0001
0000
1000
0000
0100
0000
0010
0000
0001
0100
0000
0010
,  // measure 99
1000
0000
0001
0010
0000
0100
1000
0000
0001
0100
0001
0100
0001
0000
0010
0000
,  // measure 100
0020
0000
0230
0000
1300
0000
0001
0100
,  // measure 101
0110
0000
0010
1000
2001
0000
3100
0010
,  // measure 102
0011
0000
0000
0001
1000
0100
0010
0100
1000
0000
0001
0000
0101
0000
0000
0000
,  // measure 103
1001
0000
0000
1100
0000
0000
1001
0000
0000
0000
0001
0000
0101
0000
0000
0000
,  // measure 104
0100
0001
0000
1000
0010
0000
0100
0001
1000
0000
0100
0000
1100
0000
0000
0000
,  // measure 105
1000
0100
0000
0010
0001
0000
1000
0010
0000
0100
0001
0000
0010
0100
0000
1000
,  // measure 106
0001
0000
1000
0010
0000
0100
0001
0000
1000
0100
1000
0100
1000
0001
1000
0001
,  // measure 107
0100
0001
0100
0001
0010
0100
0010
0100
1000
0001
1000
0001
1000
0010
0100
0001
,  // measure 108
1000
0100
1000
0100
0010
0001
0100
0001
1000
0000
0000
0000
0010
0000
0000
0000
,  // measure 109
0101
0010
1100
1001
,  // measure 110
0101
0000
1001
0000
0021
0000
0000
0100
,  // measure 111
0100
0000
0000
0000
0000
0000
0100
0000
0100
0000
0000
0031
1000
0000
0010
0000
,  // measure 112
0100
0001
0010
0100
1000
0000
0001
0100
,  // measure 113
0101
0000
0001
1000
1100
0000
0100
0010
,  // measure 114
0011
0001
0100
0010
1010
0000
1000
0100
,  // measure 115
0011
0000
0001
0100
1010
0001
1000
0100
,  // measure 116
0011
0000
0011
0001
1001
0000
1010
0010
,  // measure 117
1001
0000
1100
0100
1001
0100
0010
0100
,  // measure 118
2001
0000
0000
0000
,  // measure 119
0000
0000
0000
0000
,  // measure 120
0000
0000
0000
0000
,  // measure 121
0000
0000
0000
0000
,  // measure 122
0000
0000
0000
0000
3010
0001
0010
1000
0100
0000
0000
0000
0000
0000
0000
0000
;
