#TITLE:Lights Out;
#SUBTITLE:;
#ARTIST:Bludnypmh;
#TITLETRANSLIT:;
#SUBTITLETRANSLIT:;
#ARTISTTRANSLIT:;
#GENRE:;
#CREDIT:;
#BANNER:banner.jpg;
#BACKGROUND:bg.jpg;
#LYRICSPATH:;
#CDTITLE:;
#MUSIC:Lights Out.ogg;
#OFFSET:-0.620000;
#SAMPLESTART:51.528999;
#SAMPLELENGTH:14.545000;
#SELECTABLE:YES;
#BPMS:0.000000=132.000000
;
#STOPS:
;
#BGCHANGES:78.000=bg2.jpg=1.000=0=0=1=====,
79.000=bg.jpg=1.000=0=0=1=====,
142.000=bg2.jpg=1.000=0=0=1=====,
143.000=bg.jpg=1.000=0=0=1=====,
206.000=bg2.jpg=1.000=0=0=1=====,
207.000=bg.jpg=1.000=0=0=1=====,
270.000=bg2.jpg=1.000=0=0=1=====,
271.000=bg.jpg=1.000=0=0=1=====,
302.000=bg2.jpg=1.000=0=0=1=====,
304.000=bg3.jpg=1.000=0=0=1====#FFFFFF=#FFFFFF,
99999=-nosongbg-=1.000=0=0=0 // don't automatically add -songbackground-
;
#KEYSOUNDS:;
#ATTACKS:TIME=35.619999:LEN=0.900000:MODS=*10000 dark:TIME=36.529999:LEN=5.000000:MODS=*10000 0% dark,*10000 0% stealth:TIME=36.080002:LEN=0.500000:MODS=*10000 90% stealth:TIME=64.709999:LEN=0.900000:MODS=*10000 dark:TIME=65.169998:LEN=0.500000:MODS=*10000 90% stealth:TIME=65.620003:LEN=5.000000:MODS=*10000 0% dark 0% stealth,*10000 0% dark:TIME=70.620003:LEN=0.500000:MODS=*10000 dark4:TIME=71.080002:LEN=1.000000:MODS=*10000 0% dark4:TIME=93.800003:LEN=0.900000:MODS=*10000 dark:TIME=94.260002:LEN=0.800000:MODS=*10000 90% stealth:TIME=94.709999:LEN=1.000000:MODS=*10000 0% stealth,*10000 0% dark:TIME=122.889999:LEN=0.900000:MODS=*10000 dark:TIME=123.349998:LEN=0.500000:MODS=*10000 90% stealth:TIME=123.800003:LEN=5.000000:MODS=*10000 0% dark,*10000 0% stealth:TIME=137.889999:LEN=5.000000:MODS=*10000 dark:TIME=138.350006:LEN=5.000000:MODS=*10000 10% stealth:TIME=138.800003:LEN=5.000000:MODS=*10000 stealth:TIME=137.439178:LEN=5.000000:MODS=*10000 dark:TIME=137.893723:LEN=5.000000:MODS=*10000 10% stealth:TIME=138.348267:LEN=5.000000:MODS=*10000 50% stealth:TIME=138.802811:LEN=0.500000:MODS=*10000 100% stealth;

//---------------dance-single - Highflyer + SPACE GOBLIN!!!----------------
#NOTES:
     dance-single:
     :
     Challenge:
     15:
     0.682226,0.664486,0.069717,0.508931,1.401302,685.000000,675.000000,10.000000,73.000000,20.000000,0.000000,0.682226,0.664486,0.069717,0.508931,1.401302,685.000000,675.000000,10.000000,73.000000,20.000000,0.000000:
// measure 0
0000
0000
0000
0000
,  // measure 1
0000
0000
0000
0000
,  // measure 2
0000
0000
0000
0000
,  // measure 3
0000
0000
0000
0000
,  // measure 4
0000
0000
1000
0100
0100
0001
0010
0100
1000
0010
0100
1000
,  // measure 5
0000
0000
0100
0010
0010
0001
0100
0010
0100
0001
0010
1000
,  // measure 6
0000
0000
0010
0001
0100
0001
0010
0100
0010
0010
0100
1000
,  // measure 7
0000
0000
0100
0001
1000
0100
0010
0001
0010
0100
0100
0001
,  // measure 8
0000
0000
1000
0010
0010
0001
0100
0100
1000
0010
0100
0001
,  // measure 9
0100
0010
0010
0001
0000
1000
0100
0000
1000
0010
0100
0001
,  // measure 10
0020
0000
0000
0130
1000
0010
0001
0010
0100
0001
0010
0200
,  // measure 11
0300
0000
0000
0000
1000
0000
0100
0000
0010
0000
0001
0000
0100
0000
0000
0000
0010
0000
2002
0000
0000
3003
0000
0000
,  // measure 12
1001
0000
0000
0000
0000
0000
1000
0000
0100
0000
0001
0000
0200
0000
0000
0300
0000
0000
1000
0000
0001
0000
0100
0000
,  // measure 13
2000
0000
0000
3000
0000
0000
0100
0000
0002
0000
1003
0000
0100
0000
0010
0000
0100
0000
2000
0000
0000
3000
0000
0000
,  // measure 14
1001
0000
0000
0001
0100
1000
0200
0300
0000
0001
1000
0100
,  // measure 15
0002
0003
0000
0100
0010
0100
1000
0001
1000
0020
0000
0000
,  // measure 16
0230
0000
0300
0001
0010
1000
0020
0030
0000
0001
1000
0010
,  // measure 17
0002
0000
0003
0010
1000
0001
0010
0100
1000
0001
0000
0000
,  // measure 18
1000
0000
0000
0001
0000
0010
0100
0000
0000
1000
0000
0010
,  // measure 19
0100
0000
0001
2000
0000
0000
3001
0000
0000
MMMM
0000
0000
,  // measure 20
0002
0000
0000
1003
0000
0100
0010
0000
0001
0100
0000
0001
,  // measure 21
0010
0M00
0010
1000
0000
0000
1002
0000
0000
0203
0000
0000
,  // measure 22
0310
0000
1000
0100
0000
0010
0001
0000
1000
0100
00M0
0100
,  // measure 23
0001
0000
1000
0100
0000
0000
0020
0000
0130
0001
0000
0100
,  // measure 24
2000
0000
3001
0100
0000
0010
0100
0000
0010
1000
0100
0010
,  // measure 25
0001
0000
1000
0010
0000
1000
0100
0000
0010
0001
0000
1000
,  // measure 26
0020
0000
0130
0001
0000
0010
0100
0000
0010
0001
0100
0010
,  // measure 27
1000
0000
0100
0002
0000
0103
2000
0000
3010
0100
0001
0010
,  // measure 28
0100
1000
0001
0100
0010
1000
0100
0010
0001
0100
0010
0100
,  // measure 29
0001
0010
0100
1000
0010
0100
0002
0010
1003
0002
0010
1003
,  // measure 30
0001
0100
0010
1000
0100
0010
0100
1000
0001
0100
0010
0100
,  // measure 31
0001
1000
0001
2000
0000
3001
0020
0000
0031
0200
0000
0310
,  // measure 32
1000
0001
0010
0001
1000
0010
0100
0001
0010
0100
1000
0010
,  // measure 33
0100
0001
0010
0100
0000
0010
0001
0000
1000
0010
0000
0100
,  // measure 34
0002
0010
1003
0100
0010
0001
1000
0010
0100
0010
1000
0001
,  // measure 35
0010
0100
1000
0010
0100
0001
0020
0100
0031
MMM0
000M
0000
,  // measure 36
1001
0000
0000
1000
0010
0100
0001
0100
0100
1000
0010
0100
,  // measure 37
0002
0003
1000
0100
0100
0001
1000
0010
1000
0100
0010
1000
,  // measure 38
0010
0000
0001
0100
0100
1000
0010
0M00
0010
0001
1000
0010
,  // measure 39
0100
00M0
0100
1000
0010
0010
0001
0000
1000
0001
0010
0001
,  // measure 40
0100
0000
0001
0100
0100
1000
0001
0010
0010
1000
0100
0001
,  // measure 41
0200
0300
0010
0100
0100
0001
1000
0010
0001
0010
0100
1000
,  // measure 42
0100
0000
0010
0100
0100
1000
0100
0010
0001
0100
0100
1000
,  // measure 43
0010
0000
1000
0002
0000
0000
0000
0000
0000
0013
0100
1000
,  // measure 44
0020
0000
0000
1030
0010
0100
2000
0000
3100
0001
0010
0100
,  // measure 45
0002
0000
0003
0100
1000
0001
0200
0010
0301
0020
0100
0031
,  // measure 46
2000
0000
0000
3001
0010
0100
0002
0000
0103
1000
0010
0100
,  // measure 47
2000
0000
3100
0001
1000
0100
0020
0100
0031
2000
0010
3001
,  // measure 48
0200
0000
0000
0301
0100
0010
0002
0000
0013
1000
0100
0010
,  // measure 49
2000
0000
3010
0100
1000
0001
0100
0100
1000
0001
0000
0100
,  // measure 50
0020
1030
1002
0013
,  // measure 51
0110
0000
1002
0000
2000
3003
MMMM
0000
,  // measure 52
1000
0001
1000
0100
0010
0001
0100
0010
1000
0100
0010
0100
,  // measure 53
1000
0010
0100
0001
0010
0100
2000
0010
3001
2000
0010
3001
,  // measure 54
1000
0100
0010
0001
0100
0010
0100
0001
1000
0100
0010
0100
,  // measure 55
1000
0010
0100
0001
1000
0001
0020
0100
0031
0200
0010
0301
,  // measure 56
2000
0001
3010
0100
0001
0010
0001
1000
0010
1000
0001
0010
,  // measure 57
0100
1000
0010
0100
0001
0010
0100
1000
0001
0010
0001
0100
,  // measure 58
0020
0100
1030
0001
0010
0001
1000
0010
0100
0001
1000
0100
,  // measure 59
0010
0100
1000
0001
0000
1000
0002
0000
0013
0100
0100
0100
,  // measure 60
1000
0001
1000
0100
0010
0001
0100
0010
1000
0100
0010
0100
,  // measure 61
1000
0010
0100
0001
0010
0100
2000
0100
3001
2000
0010
3001
,  // measure 62
2000
0100
3001
1000
0010
0100
0010
1000
0001
0010
0100
0010
,  // measure 63
0001
1000
0001
2000
0000
3001
0200
0000
0301
0020
0000
0130
,  // measure 64
1000
0001
0100
0001
1000
0100
0010
0001
0100
0010
1000
0100
,  // measure 65
0010
0001
0100
0010
0000
0100
0001
0000
1000
0100
0000
0010
,  // measure 66
0002
0100
1003
0010
0100
0001
1000
0100
0010
0100
1000
0001
,  // measure 67
0100
0000
0010
2000
0000
0000
3001
0010
0100
MMMM
0000
0000
,  // measure 68
1002
0000
0000
4003
0010
0000
3040
0100
0000
0130
0001
0010
,  // measure 69
0400
1000
0000
4300
0001
0000
3002
0000
0000
0103
0100
0100
,  // measure 70
0002
0000
0000
0043
0100
0000
0034
0100
0000
0103
0010
0100
,  // measure 71
0040
1000
0000
4030
0100
0000
3002
0000
0013
0100
0100
0100
,  // measure 72
1000
0000
0001
4000
0100
0000
3040
0100
0000
1030
0001
0010
,  // measure 73
0400
1000
0000
4300
0010
0000
3001
0000
0010
0100
0000
1000
,  // measure 74
0020
0000
0130
0004
0010
0000
0043
0001
0000
0031
0100
0010
,  // measure 75
4000
0100
0000
3400
0010
0000
2300
0000
0000
3001
0010
0100
,  // measure 76
2002
3003
0000
0000
;

//---------------dance-single - Highflyer + SPACE GOBLIN!!!----------------
#NOTES:
     dance-single:
     :
     Medium:
     9:
     0.372485,0.398038,0.174291,0.494987,0.278866,374.000000,349.000000,25.000000,71.000000,0.000000,0.000000,0.372485,0.398038,0.174291,0.494987,0.278866,374.000000,349.000000,25.000000,71.000000,0.000000,0.000000:
0000
0000
0000
0000
,
0000
0000
0000
0000
,
0000
0000
0000
0000
,
0000
0000
0000
0000
,
1001
0000
0000
1000
0000
0000
0100
0000
0000
0010
0000
0001
,
0000
0000
0000
1000
0000
0000
0001
0000
0000
0100
0000
0010
,
0000
0000
0000
1000
0000
0000
0100
0000
0000
0010
0000
0001
,
1000
0000
0000
0001
0000
0000
2000
0000
0000
0001
0000
3001
,
0000
0000
0010
0100
0000
0000
1000
0000
0000
0001
0000
0100
,
0000
0000
0010
1000
0000
1000
0001
0000
0000
0010
0000
0100
,
0000
0000
0000
1000
0000
0000
0001
0000
0000
0100
0000
0010
,
0000
0000
1000
0001
0000
0010
0100
0000
0000
2000
0000
0000
,
3001
0000
0000
1000
0000
0001
1000
0000
0000
0010
0000
0100
,
0010
1000
0100
0010
,
0001
0000
0000
1000
0000
0001
1000
0000
0000
0100
0000
0010
,
0100
0000
0000
1000
0000
1000
0002
0000
0000
0103
0000
0000
,
1001
0000
0000
1000
0000
0001
1000
0000
0000
0010
0000
0100
,
0010
0100
0002
1003
,
0001
0000
0000
1000
0000
0001
1000
0000
0000
0100
0000
0010
,
0100
2000
3001
1001
,
1000
0000
0000
1000
0000
0000
1000
0000
0000
0001
0000
0100
,
0010
0000
0100
0001
0000
0000
2000
0000
0000
3200
0000
0000
,
0320
0000
0000
0031
0000
0000
1000
0000
0000
1000
0000
0010
,
0100
0000
0010
0100
0000
0000
1000
0000
0001
0010
0000
0100
,
0001
0000
0000
2000
0000
0000
0000
0000
0000
3001
0000
1000
,
0001
0000
0000
0010
0000
0000
0100
0000
0000
1000
0000
0001
,
2000
0200
0000
3000
,
0000
0000
0000
0300
0000
0000
1000
0000
0000
0000
0010
0000
0100
0000
0000
0000
0000
0000
0001
0000
1000
0000
0001
0000
,
1000
0000
0000
0001
0000
0000
1001
0000
0000
1000
0000
0010
,
0100
0000
0001
0010
0000
0000
0100
0000
0000
1001
0000
0000
,
1000
0000
0000
0010
0000
0000
0100
0000
0000
0010
0000
0100
,
0010
1000
0002
1003
,
0002
0000
0000
1003
0000
0100
0010
0000
0000
0001
0000
0000
,
0100
0000
0000
0000
0000
0000
0010
0000
0000
0000
0100
0000
0002
0000
0000
0000
0000
0003
2000
0000
0000
0000
3000
0000
,
0002
0000
0000
0000
0000
0000
1000
0000
0000
0000
0000
0000
1000
0000
0000
0000
0000
0003
1000
0000
0000
0000
0100
0000
,
0010
0002
1003
1001
,
0002
0003
1000
0001
,
0001
0000
2000
3000
0001
0000
1001
0000
,
0110
0000
0000
0001
0000
0100
0010
0000
0000
2000
0000
0000
,
3001
0000
0000
1000
0000
0100
0010
0000
0000
0001
1000
0002
,
0000
0000
0000
1003
0000
0001
0100
0000
0000
0010
0000
1000
,
0000
0000
0001
0010
0000
0000
0100
0000
0000
1000
0000
0001
,
0000
0000
0000
1000
0000
0010
0100
0000
0000
0001
0000
1000
,
0000
0000
0000
0001
0000
0000
1000
0000
0000
0001
0100
0010
,
1000
0000
0000
0001
0000
0010
0100
0000
0000
1000
0000
0001
,
2000
0000
0000
3001
0000
0100
0020
0000
0030
0110
0000
0000
,
1001
0000
0000
1000
0000
0001
0020
0000
0000
0031
0000
1000
,
0020
0000
0000
0130
0000
0000
0201
0000
0300
2002
0000
0000
,
3003
0000
0000
0002
0000
0000
1003
0000
0000
2000
0000
3010
,
2000
3001
2000
3001
,
1000
0000
0000
2000
0000
0000
0001
0000
0000
3001
0000
1000
,
0001
0000
0100
0020
0000
0000
0130
0000
0000
1001
0000
0000
,
0001
0000
0000
0001
0000
0000
0001
0000
0000
1000
0000
0100
,
0010
0000
0001
1000
0000
0000
1001
0000
0000
0110
0000
0000
,
1001
0000
0000
1000
0000
0000
0001
0000
0000
0020
0000
0130
,
2000
3000
0001
0100
0000
0000
0020
0000
0000
0100
0000
0000
,
0130
0000
0000
0001
0000
1000
0002
0000
0000
1003
0000
0100
,
0010
0000
0000
0001
0000
0000
0100
0000
0000
0002
0003
0100
,
0020
0000
1030
2000
,
3001
0000
0000
0010
0000
0100
0020
0000
0000
0031
0000
1000
,
0100
0000
0000
1001
0000
0000
0100
0000
0000
0100
0000
0010
,
0100
0000
0010
0100
0000
0000
2002
0000
3003
0220
0000
0330
,
2002
0000
3003
1000
0000
0000
0001
0000
0000
0100
0000
0010
,
0200
0000
0000
0000
0000
0000
0301
0000
0000
0000
0000
0000
2000
3000
0000
0000
0001
0000
1000
0000
0000
0000
0000
0000
,
2002
0000
0000
0000
0000
0000
0000
0000
0003
3001
0000
1000
,
0001
0000
0000
1000
0000
0100
0010
0000
0000
0001
0000
0000
,
2000
0000
0000
0001
0000
0000
0100
0000
0000
0001
0000
3000
,
1000
0000
0001
0020
0000
0000
0031
0000
0000
1001
0000
0000
,
2000
3000
1001
2000
,
3001
0000
0000
0002
0000
0000
1003
0000
0000
0010
0100
0010
,
0100
0002
2003
3100
,
0020
0000
0000
0000
0000
0000
0031
0000
0000
0000
0000
0000
0002
0000
0000
0003
0000
0000
0100
0000
0010
0000
0100
0000
,
0020
0030
0000
2000
0000
0000
3002
0000
0000
1000
0000
0000
,
2003
0000
0000
3001
0000
0000
0200
0000
0000
0310
0000
1000
,
0001
2000
3100
2000
,
3001
0000
1000
0002
0000
0000
0103
0000
0000
1010
0000
0000
,
0220
0330
0000
0000
0000
0000
0000
0000
;

//---------------dance-single - Highflyer + SPACE GOBLIN!!!----------------
#NOTES:
     dance-single:
     :
     Hard:
     12:
     0.507935,0.531008,0.062745,0.648364,0.801740,510.000000,501.000000,9.000000,93.000000,20.000000,0.000000,0.507935,0.531008,0.062745,0.648364,0.801740,510.000000,501.000000,9.000000,93.000000,20.000000,0.000000:
0000
0000
0000
0000
,
0000
0000
0000
0000
,
0000
0000
0000
0000
,
0000
0000
0110
1001
,
0001
0000
1000
0100
0000
0010
0001
0000
0100
0010
0000
1000
,
0000
0000
0010
0100
0000
0001
0010
0000
0100
1000
0000
0001
,
0000
0000
0010
0100
0000
1000
0010
0000
1000
0100
0000
0010
,
0000
0000
0001
1000
0000
0010
0100
0000
0010
1000
0000
0001
,
0000
0000
0010
0100
0000
0010
0001
1000
0010
0100
0000
0001
,
0000
1000
0100
1000
0000
0001
1000
0000
0010
2000
0000
0002
,
0000
0000
3000
0013
0100
0010
0100
1000
0001
1000
0000
0101
,
0000
0000
0001
0100
0001
1000
0001
0000
0000
0110
0000
0000
,
1001
0000
0000
1000
0100
1000
0200
0000
0300
0010
0001
0010
,
0002
0000
0003
1000
0000
0010
0100
0010
0100
0002
0000
0003
,
2000
0000
3000
0001
0100
0001
0200
0000
0300
0010
1000
0010
,
2000
0000
3000
0001
0010
0001
0010
0100
1000
0020
0000
0030
,
0200
0000
0300
0001
1000
0001
2000
0000
3000
0100
0010
0100
,
0020
0000
0030
0001
0100
0001
1000
0001
0010
0200
0000
0300
,
2000
0000
3000
0002
0000
0103
0020
0000
0030
1000
0000
0100
,
0020
0000
0031
0200
0000
0000
0020
0330
0000
MMMM
0000
0000
,
1000
0000
0000
0100
0000
0000
0010
0000
0000
0001
0000
1000
,
0010
0000
0100
0001
0000
0010
0200
0000
1300
0020
0000
0130
,
0002
0000
0003
2000
0000
3001
0020
0000
0030
0100
0000
1000
,
0010
0000
1000
0200
0000
0300
0010
0000
0001
1000
0000
0001
,
2000
0000
0000
3001
0000
0010
0001
0000
0000
1000
0010
0100
,
0001
0000
0000
1000
0000
0010
1000
0000
0100
0010
0000
0100
,
2000
0000
3000
0010
0000
0100
0001
0000
0000
0010
0100
1000
,
0001
0000
0000
1000
0000
0010
0200
0000
0300
0001
0010
0100
,
1000
0000
0000
0010
0000
0100
0001
0000
0000
0010
0000
0100
,
1000
0000
0001
1000
0000
0010
2000
0000
3000
0002
0000
0013
,
0200
0000
0300
1000
0000
0000
0010
0000
0000
0100
0000
0010
,
0100
0000
0010
0100
0000
0000
0010
0000
1000
0100
0000
0010
,
0100
1000
0001
0100
0000
0010
1000
0000
0001
0010
0001
1000
,
0020
0000
0000
1030
0000
0100
1000
0000
0001
1000
0000
0010
,
0100
0001
1000
0100
0000
0010
0100
0000
0010
0002
0000
0000
,
1003
0000
0010
2000
0000
0000
0002
0000
3003
MMMM
0000
0000
,
0001
0000
0000
1000
0010
1000
0010
0000
1000
0100
0010
0001
,
0000
0000
0000
1000
0100
1000
0100
0010
0001
1000
0010
0100
,
0000
0000
0000
0010
1000
0010
0100
0000
0010
1000
0100
0010
,
0000
0000
0100
1000
0001
1000
0010
0000
0100
0001
1000
0100
,
0000
0000
0000
0010
0100
0010
0100
1000
0001
0100
0000
0010
,
0000
0000
1000
0001
1000
0010
1000
0100
1000
0001
0010
0100
,
0000
0000
0000
1000
0001
1000
0001
0100
0010
0100
0001
1000
,
0000
0000
0000
0010
0000
0000
0000
0000
0000
1000
0100
0010
,
0002
0000
0003
1000
0100
1000
0200
0000
0300
0010
0001
0010
,
0002
0000
0003
1000
0000
0010
0100
0010
0100
0002
0000
0003
,
2000
0000
3000
0001
0100
0001
0200
0000
0300
0010
1000
0010
,
2000
0000
3000
0001
0010
0001
0010
0100
1000
0020
0000
0030
,
0200
0000
0300
0001
1000
0001
2000
0000
3000
0100
0010
0100
,
0020
0000
0030
0001
0100
0001
1000
0001
0010
0200
0000
0300
,
2000
0000
3000
0002
0000
0103
0020
0000
0030
1000
0000
0100
,
0020
0000
0031
0200
0000
0000
0020
0330
0000
MMMM
0000
0000
,
1000
0000
0000
0100
0000
0000
0010
0000
0000
0001
0000
1000
,
0010
0000
0100
0001
0000
0010
0200
0000
1300
0020
0000
0130
,
0002
0000
0003
2000
0000
3001
0020
0000
0030
0100
0000
1000
,
0010
0000
1000
0200
0000
0300
0010
0000
0001
1000
0000
0001
,
2000
0000
0000
3001
0000
0010
0001
0000
0000
1000
0010
0100
,
0001
0000
0000
1000
0000
0010
1000
0000
0100
0010
0000
0100
,
2000
0000
3000
0010
0000
0100
0001
0000
0000
0010
0100
1000
,
0001
0000
0000
1000
0000
0010
0200
0000
0300
0001
0010
0100
,
1000
0000
0000
0010
0000
0100
0001
0000
0000
0010
0000
0100
,
1000
0000
0001
1000
0000
0010
2000
0000
3000
0002
0000
0013
,
0200
0000
0300
1000
0000
0000
0010
0000
0000
0100
0000
0010
,
0100
0000
0010
0100
0000
0000
0010
0000
1000
0100
0000
0010
,
0100
1000
0001
0100
0000
0010
1000
0000
0001
0010
0001
1000
,
0020
0000
0000
1030
0000
0100
1000
0000
0001
1000
0000
0010
,
0100
0001
1000
0100
0000
0010
0100
0000
0010
0002
0000
0000
,
1003
0000
0010
2000
0000
0000
0002
0000
3003
MMMM
0000
0000
,
1001
0000
0000
2000
0000
0000
3001
0000
0000
0010
0100
0010
,
0200
0000
0000
2300
0000
0000
3020
0000
0030
0100
0001
0010
,
0200
0000
0300
2000
0000
0000
3002
0000
0000
0103
0000
0010
,
2000
0000
0000
3200
0000
0000
0320
0000
0030
0100
1000
0010
,
0200
0000
0300
0002
0000
0000
0023
0000
0000
0130
1000
0100
,
2000
0000
0000
3002
0000
0000
2003
0000
3000
0110
0000
0000
,
2002
0000
3003
0002
0000
0000
0023
0000
0000
0031
1000
0001
,
1000
0000
0010
0200
0000
0000
0020
0000
0330
MMMM
0000
0000
,
2002
0000
3003
0000
0000
0000
0000
0000
0000
0000
0000
0000
;
