#TITLE:LEAD Gravity;
#SUBTITLE:;
#ARTIST:Des-ROW;
#TITLETRANSLIT:;
#SUBTITLETRANSLIT:;
#ARTISTTRANSLIT:;
#GENRE:;
#CREDIT:;
#MUSIC:LEAD Gravity.ogg;
#BANNER:LEAD Gravity.png;
#BACKGROUND:LEAD Gravity-bg.png;
#CDTITLE:;
#SAMPLESTART:76.752;
#SAMPLELENGTH:15.000;
#SELECTABLE:YES;
#OFFSET:1.107;
#BPMS:0.000=188.000;
#STOPS:;
#BGCHANGES:;
#FGCHANGES:;

//--------------- dance-single - Princess Pamela ----------------
#NOTES:
     dance-single:
     Princess Pamela:
     Medium:
     10:
     0,0,0,0,0:
0000
0000
0000
0000
,
0000
0000
0000
0000
,
0000
0000
0000
0000
,
0000
0000
0000
0000
,
0000
0000
0000
0000
,
0000
0000
0000
0000
,
0000
0000
0000
0000
,
0000
0000
0000
0000
,
0000
0000
0000
0000
,
1001
0000
0000
0000
,
1000
0000
0010
0000
,
0100
0001
0000
0000
,
0010
0000
0100
0000
,
1000
0000
1000
0000
0001
1000
0000
0001
,
0000
0001
0000
1000
0000
0001
1000
0000
,
0010
0100
0010
0000
0100
0001
0100
0000
,
0020
1000
2000
3030
,
0001
1000
0001
0000
0000
0100
0000
0000
,
0010
1000
0010
0000
0000
0000
0000
0000
,
1000
0001
1000
0000
0000
0100
0000
0000
,
0010
0001
0010
0000
0000
0000
0000
0000
,
0001
1000
0001
0000
0000
0100
0000
0000
,
0010
0100
0010
0000
0000
1000
0000
0000
,
0100
1000
0100
0000
0000
0010
0000
0000
,
0001
1000
0010
0100
,
0001
0010
0001
0000
0000
1000
0000
0000
,
0100
1000
0100
0000
0000
0000
0000
0000
,
1000
0010
1000
0000
0000
0001
0000
0000
,
0100
0001
0100
0000
0000
0000
0000
0000
,
0010
1000
0010
0000
0000
0100
0000
0000
,
0001
1000
0001
0000
0000
0010
0000
0000
,
0100
1000
0100
0000
0000
0010
0000
0000
,
0001
1000
0010
0100
,
0001
0000
0000
0001
0000
0000
0001
0000
0000
0000
0001
0000
0000
0000
0010
0000
,
0001
0000
0000
0001
0000
0000
0001
0000
0000
0000
0000
0000
0000
0000
0000
0000
,
1000
0000
0000
1000
0000
0000
1000
0000
0000
0000
1000
0000
0000
0000
0010
0000
,
1000
0000
0000
1000
0000
0000
1000
0000
0000
0000
0000
0000
0100
0000
0000
0000
,
0010
0000
0000
0010
0000
0000
0010
0000
0000
0000
0010
0000
0000
0000
0001
0000
,
0100
0000
0000
0100
0000
0000
0100
0000
0000
0000
0100
0000
0000
0000
0010
0000
,
1000
0000
0000
1000
0000
0000
1000
0000
0000
0000
1000
0000
0000
0000
0100
0000
,
0010
0000
0000
0010
0000
0000
0010
0000
0000
0000
0010
0000
0000
0000
0001
0000
,
1000
0000
0010
1000
0010
0000
0100
0001
,
0100
0000
0010
1000
0001
0000
0010
0000
,
0100
0000
1000
0001
0100
0000
0001
0000
,
0010
0001
0010
0000
0100
0000
1000
0001
,
2000
0000
0000
0000
,
0000
0000
0000
3000
,
0020
0000
0000
0000
,
0000
0000
0000
0030
,
0200
0000
0000
0300
,
0002
0000
0000
0003
,
2002
3003
1000
0001
,
0100
0001
0100
0000
0010
1000
0010
0000
,
1000
1000
0100
0100
,
0010
0010
0001
0001
,
0010
0010
0100
0100
,
1000
1000
0001
0001
,
0100
0100
0010
0010
,
1000
1000
0001
0001
,
0010
0001
0010
0000
0001
0100
0001
0000
,
2000
0010
0020
3030
,
1001
0000
0001
0010
0100
0010
0001
0000
,
1000
0010
0001
0010
,
1000
0100
0001
0100
,
1000
0010
0100
0001
,
1000
0000
0100
0010
0100
1000
0100
0000
,
0010
0001
1000
0010
,
0100
1000
0100
0001
,
0010
1000
0010
0001
,
1001
0000
1000
0010
0100
0001
0010
0000
,
0100
1000
0010
0001
,
0010
1000
0100
0001
,
0100
1000
0010
0100
,
0001
0010
0001
0000
1000
0010
1000
0000
,
0100
0010
0001
0000
0100
0010
1000
0000
,
1001
0001
0011
0100
,
0110
1000
1010
0001
,
1001
0000
1000
0100
0010
0001
0100
0000
,
1010
1000
1100
0001
,
0101
0010
1010
0100
,
0110
0001
1001
0100
,
1010
0000
0001
0010
0100
1000
0010
0000
,
0110
0001
0011
1000
,
0010
1000
0010
0000
0100
0001
0100
0000
,
0010
1000
0100
0010
0002
0000
0103
0010
,
1001
0000
0000
0000
;

//--------------- dance-single - Princess Pamela ----------------
#NOTES:
     dance-single:
     Princess Pamela:
     Hard:
     13:
     0,0,0,0,0:
0000
0000
0000
0000
,
0000
0000
0000
0000
,
0000
0000
0000
0000
,
0000
0000
0000
0000
,
0000
0000
0000
0000
,
0000
0000
0000
0000
,
0000
0000
0000
0000
,
0000
0000
0000
0000
,
0000
0000
0000
0000
,
1001
0000
0001
0010
0000
0010
0000
0000
,
0200
0000
2300
0000
,
3010
0000
0010
0100
0000
0000
0000
0000
,
0002
0000
0023
0030
,
1001
0000
1000
0000
0001
0100
0000
0100
,
0000
0001
0000
0010
0000
0100
1000
0000
,
0001
0100
0001
0100
0010
1000
0010
1000
,
0200
0000
0000
0000
0320
0000
0000
0000
0031
1000
0001
1000
0001
0000
0000
0000
,
1000
0100
0001
0000
0000
0101
0000
0100
,
1000
0001
0010
0000
0000
0000
0000
0000
,
0001
0100
1000
0000
0000
1100
0000
0100
,
0001
1000
0010
0000
0100
0000
0000
0000
,
0001
0010
1000
0000
0000
1010
0000
0010
,
0001
1000
0010
0000
0000
1010
0000
1000
,
0100
0001
0100
0000
0000
1100
0000
1000
,
0010
0000
0110
0000
0100
0001
0010
0100
,
1000
0010
0001
0000
0000
0011
0000
0010
,
1000
0001
0200
0000
0320
0000
0030
0000
,
1000
0100
0001
0000
0000
0101
0000
0100
,
1000
0001
0020
0000
0230
0000
0300
0000
,
0010
0001
0100
0000
0000
0110
0000
0010
,
1000
0100
0001
0000
0000
0110
0000
1000
,
0001
0010
0100
0000
0000
1100
0000
1000
,
0010
0000
0100
0001
0000
0010
0100
0010
,
0001
0000
0000
0001
0100
0000
0001
0000
0000
0000
0101
0000
0000
0000
1000
0000
,
0010
0000
0000
0010
0100
0000
0010
0000
0000
0000
1000
0000
0001
0000
0000
0000
,
1000
0000
0000
1000
0100
0000
1000
0000
0000
0000
1100
0000
0000
0000
1000
0000
,
0010
0000
0000
0010
0100
0000
0010
0000
0000
0000
1000
0000
0001
0000
0000
0000
,
1000
0000
0000
1000
0100
0000
0010
0000
0000
0000
0011
0000
0000
0000
1000
0000
,
0001
0000
0000
0001
0100
0000
0010
0000
0000
0000
1010
0000
0000
0000
0001
0000
,
0010
0000
0000
0010
0100
0000
1000
0000
0000
0000
0011
0000
0000
0000
1000
0000
,
0010
0000
0000
0010
0100
0000
0001
0000
0000
0000
1010
0000
0000
0000
0010
0000
,
1000
0100
1000
0100
0001
0100
1000
0100
,
0001
0100
1000
0010
0001
0010
1000
0001
,
0100
0010
0100
0010
0001
0010
1000
0010
,
0100
0000
0100
0000
0100
0000
0001
0000
0020
0000
0000
0000
0130
0000
0010
0100
,
2000
0000
3000
0001
,
1000
0001
0010
0100
,
1000
0010
1000
0100
,
0010
0000
0001
0000
0100
0000
0001
1000
,
0000
0000
0010
0100
0001
1000
0010
0000
,
0100
0001
0010
0100
,
0110
0000
1000
0000
0010
0010
0010
0100
,
0001
0000
1000
0001
1000
0000
0010
0000
0100
0000
0001
0000
0010
0000
0100
0000
,
2000
3000
0020
0030
2000
3000
0020
0030
,
0200
0300
0002
0003
0200
0300
0002
0003
,
0020
0030
0200
0300
0020
0030
0200
0300
,
2000
3000
0002
0003
2000
3000
0002
0003
,
0100
0010
0100
0010
1000
0001
1000
0001
,
0010
0100
1000
0100
0001
0100
1000
0100
,
0010
0001
0100
0001
0010
0100
1000
0010
,
0100
0000
0100
0000
0001
0000
0100
0000
0020
0000
0000
0000
1030
0000
0001
1000
,
0001
0010
0001
0010
0100
1000
0010
0000
,
0100
0001
0000
0000
0001
0010
0000
0000
0010
0100
0000
0000
0100
1000
0000
0000
,
0010
0100
0000
0000
0001
0100
0000
0000
0010
1000
0000
0000
0001
1000
0000
0000
,
0100
0010
0000
0000
0001
0100
0000
0000
0010
1000
0000
0000
0001
0000
0010
0000
,
0100
1000
0100
1000
0010
0100
0001
0000
,
1000
0100
0000
0000
0100
0010
0000
0000
0010
0001
0000
0000
0001
1000
0000
0000
,
1000
0010
0000
0000
0100
0010
0000
0000
1000
0001
0000
0000
0100
0001
0000
0000
,
0010
0100
0000
0000
1000
0010
0000
0000
0100
0001
0000
0000
0010
0001
0000
0000
,
1000
0010
0100
0010
0001
0010
1000
0000
,
0001
0100
0010
0100
1000
0100
0001
0000
,
0010
0001
0100
0001
1000
0001
0010
0000
,
0100
0100
0100
1000
0010
0010
0010
0000
,
1000
0100
1000
0100
1000
0000
0000
0000
0001
0100
0001
0100
0001
0000
0000
0000
,
0010
0100
0010
0100
0010
0000
0000
0000
0001
1000
0001
1000
0002
0000
0000
0000
,
1003
0010
0100
0010
0001
0010
1000
0010
,
0100
0001
0010
0100
1000
0010
0100
0001
,
0010
0000
0100
1000
0001
0100
1000
0000
,
0100
0001
0000
0000
0001
0010
0000
0000
0010
0100
0000
0000
0100
1000
0000
0000
,
0010
0100
0000
0000
0001
0100
0000
0000
0010
1000
0000
0000
0001
0010
0000
0000
,
0100
1000
0000
0000
0010
0100
0000
0000
0001
0010
0000
0000
0001
1000
0000
0000
,
0001
0100
0010
1000
0100
0001
0100
0000
,
1000
0010
0000
0000
0010
0100
0000
0000
0100
0001
0000
0000
0001
0010
0000
0000
,
0100
1000
0000
0000
0010
0100
0000
0000
0001
0010
0000
0000
0100
1000
0000
0000
,
0001
0000
0100
0000
0010
0000
1000
0000
0100
0010
0100
0010
0100
0000
0000
0000
,
1001
0000
0000
0000
;
