#VERSION:0.83;
#TITLE:きゅんっ!ヴァンパイアガール;
#SUBTITLE:;
#ARTIST:如月千早;
#TITLETRANSLIT:Kyun! Vampire Girl;
#SUBTITLETRANSLIT:;
#ARTISTTRANSLIT:Kisaragi Chihaya ;
#GENRE:;
#ORIGIN:;
#CREDIT:;
#BANNER:Kyun! Vampire Girl.png;
#BACKGROUND:Kyun! Vampire Girl-bg.png;
#PREVIEWVID:;
#JACKET:Kyun! Vampire Girl-jacket.png;
#CDIMAGE:;
#DISCIMAGE:;
#LYRICSPATH:;
#CDTITLE:;
#MUSIC:Kyun! Vampire Girl.ogg;
#OFFSET:-0.211000;
#SAMPLESTART:70.558998;
#SAMPLELENGTH:12.000000;
#SELECTABLE:YES;
#BPMS:0.000=145.000;
#STOPS:;
#DELAYS:;
#WARPS:;
#TIMESIGNATURES:0.000=4=4;
#TICKCOUNTS:0.000=4;
#COMBOS:0.000=1;
#SPEEDS:0.000=1.000=0.000=0;
#SCROLLS:0.000=1.000;
#FAKES:;
#LABELS:0.000=Song Start;
#BGCHANGES:-0.800=Kyun! Vampire Girl.mp4=1.000=0=0=0=StretchNoLoop====,
99999=-nosongbg-=1.000=0=0=0 // don't automatically add -songbackground-
;
#KEYSOUNDS:;
#ATTACKS:
;

//---------------dance-single - ----------------
#NOTEDATA:;
#CHARTNAME:;
#STEPSTYPE:dance-single;
#DESCRIPTION:;
#CHARTSTYLE:;
#DIFFICULTY:Hard;
#METER:14;
#RADARVALUES:0.649979,0.682582,0.479803,0.496348,0.301945,550.000000,492.000000,58.000000,60.000000,0.000000,0.000000,0.000000,0.000000,0.000000,0.649979,0.682582,0.479803,0.496348,0.301945,550.000000,492.000000,58.000000,60.000000,0.000000,0.000000,0.000000,0.000000,0.000000;
#CREDIT:;
#NOTES:
// measure 0
0000
0000
0000
0000
,  // measure 1
0000
0000
0000
0000
,  // measure 2
0000
0000
0000
0000
,  // measure 3
0000
0000
0000
0000
,  // measure 4
0000
0000
1001
0000
1000
0010
1000
0010
,  // measure 5
1000
0100
0010
0002
0000
1000
1003
0000
,  // measure 6
0000
0001
0100
0010
1000
0000
1001
0000
,  // measure 7
1000
0100
1000
0000
0001
0000
0000
0000
1000
0001
1000
0000
0001
0100
0001
0000
,  // measure 8
1000
0100
0010
0000
0001
0100
0010
0000
1000
0000
0100
0000
0010
0000
0001
0000
,  // measure 9
0100
0010
0100
0010
1000
0000
0001
0000
0200
0000
0000
0000
0310
0000
0000
0000
,  // measure 10
1000
0001
1000
0000
0010
0000
0000
0010
0100
0000
0001
0000
0100
0000
1000
0000
,  // measure 11
0100
0001
1000
2100
0000
3001
0200
1300
,  // measure 12
0100
0020
1030
0001
0010
1000
0010
0001
,  // measure 13
1000
0010
0100
0202
0000
0300
1003
0000
,  // measure 14
0001
0010
0100
1000
0010
0010
0100
0100
,  // measure 15
0001
0010
0100
1000
0001
0001
1000
1000
,  // measure 16
0000
0101
0000
1000
0200
0000
1300
0010
,  // measure 17
0001
0000
0010
0000
1000
0000
1200
0000
0000
0000
1300
0010
1000
0000
0001
0010
,  // measure 18
0000
0010
0100
0000
1000
0000
0000
0000
1020
0000
1030
0000
0100
0000
0020
0000
,  // measure 19
1030
0000
0020
0000
0031
0000
1000
0000
0001
0100
0010
0000
2000
0000
0000
0000
,  // measure 20
3010
1002
0000
0013
0021
0031
0100
0020
,  // measure 21
0031
0000
0020
0000
1030
0000
0001
0000
1000
0100
0010
0000
0001
0000
0100
0000
,  // measure 22
1000
0100
0001
0010
0100
1000
0100
1000
,  // measure 23
0001
0100
0001
0100
0010
0020
0000
1030
,  // measure 24
0001
1000
0100
0010
0002
0103
1000
0200
,  // measure 25
0310
0000
0200
0000
0301
0000
0101
0000
1000
0100
0000
0100
0010
0000
0001
0100
,  // measure 26
0000
0100
0010
0000
1000
0000
0000
0000
1001
0000
0001
0000
0010
0000
0100
0000
,  // measure 27
1000
0010
0100
0001
1000
0100
0001
0100
,  // measure 28
1000
0000
0010
0000
0100
0000
0001
1000
0001
0000
0000
0000
1000
0100
0000
1000
,  // measure 29
0001
1000
0001
0000
0000
0000
0102
0000
0000
0000
1003
0000
0100
0000
0010
0000
,  // measure 30
0100
0000
0001
0000
0100
0000
1000
0001
1000
0000
0000
0000
0001
0010
0000
0001
,  // measure 31
1000
0001
1000
0000
0000
0000
2010
0000
0000
0000
3001
0000
0010
0000
0100
0000
,  // measure 32
1000
0000
0001
0100
0010
0000
1000
0001
2000
0000
0000
0000
3010
0000
0000
0000
,  // measure 33
1000
0100
0000
0100
0010
0000
0002
0000
0000
0000
1003
0000
0001
0100
0000
0100
,  // measure 34
0020
0000
1030
0000
1010
0001
0001
0000
,  // measure 35
0011
1000
1000
0100
0010
0110
0100
1002
,  // measure 36
0000
0000
0000
0000
0103
0000
0000
0000
1010
0000
0000
0000
0101
0000
0000
1000
,  // measure 37
0001
1000
0000
0001
0000
0000
0200
0000
0000
0000
0310
0000
1000
0100
0000
0100
,  // measure 38
0010
0000
0001
0000
0001
0000
1000
0000
1010
0000
0000
0010
0100
0000
1000
0000
,  // measure 39
0100
0000
0010
0100
0010
0000
0000
0000
1010
0000
0000
0010
0100
0000
0001
0000
,  // measure 40
0011
0000
0000
0010
0100
0000
1000
0000
2002
0000
3003
0000
0001
0100
0001
0000
,  // measure 41
1000
0100
1000
0000
0001
1000
0001
1000
0000
0000
1010
0000
0000
0000
0110
0000
,  // measure 42
0000
0000
0202
0000
0000
0000
0303
0000
1001
0000
1000
0000
0100
0000
0010
0100
,  // measure 43
0010
0001
1000
0020
0031
0020
1030
0100
,  // measure 44
0010
0001
0100
0100
0001
0010
0001
0010
,  // measure 45
1000
0010
0001
0101
0000
0110
0000
1010
,  // measure 46
0000
0000
0001
0000
1001
0000
0000
0000
0011
0000
0001
0000
0010
0000
0100
0010
,  // measure 47
0100
1000
0001
0200
1300
0200
0301
0010
,  // measure 48
0100
0000
1000
0001
1000
0001
1000
0001
0010
0000
0022
0000
0000
0000
0033
0000
,  // measure 49
1000
0100
1000
0000
0001
0100
0000
0010
1000
0000
2200
0000
0000
0000
3300
0000
,  // measure 50
0001
0010
0001
0000
1000
0010
0000
0100
0001
0000
1000
0000
0010
0000
0001
0000
,  // measure 51
0010
0100
0001
0100
0110
0000
2002
0000
,  // measure 52
0000
0000
0000
3003
,  // measure 53
0001
0000
0000
1000
0001
0000
0100
0000
0010
0000
0020
0000
0000
0000
0031
0000
,  // measure 54
0010
1000
0100
0200
0000
0001
0000
0010
,  // measure 55
0000
1300
0001
0200
0000
1300
0000
0100
,  // measure 56
0001
1000
0100
0010
0001
0011
0000
0000
,  // measure 57
1000
0000
1010
0000
0000
0000
0000
0000
1001
0000
0000
0000
1000
0010
1000
0000
,  // measure 58
0001
0010
0001
0000
1000
0001
1000
0001
0000
0000
0101
0000
0000
0000
0110
0000
,  // measure 59
0000
0000
2020
0000
0000
0000
3030
0000
1001
0000
0001
0000
0010
0000
0100
1000
,  // measure 60
0100
1000
0010
0200
1300
0200
0301
0200
,  // measure 61
0310
1000
0100
0010
0001
0100
1000
0100
,  // measure 62
0001
0010
0100
1000
1010
0010
0100
0102
,  // measure 63
0000
0000
0100
0000
0103
0000
0000
0000
0010
0000
0000
0000
2001
0000
0000
3001
,  // measure 64
0100
1000
0100
0001
1000
1000
0100
0010
,  // measure 65
0010
0000
0001
1000
0001
1000
0001
1000
0100
0000
2200
0000
0000
0000
3300
0000
,  // measure 66
0001
0010
0001
0000
1000
0010
0000
0100
0001
0000
0022
0000
0000
0000
0033
0000
,  // measure 67
1000
0100
1000
0000
0001
0100
0000
0010
1000
0000
0100
0000
0100
0000
0001
0000
,  // measure 68
0100
0100
1000
0010
0110
0000
2002
0000
,  // measure 69
0000
0000
0000
3003
,  // measure 70
1000
0000
0000
0001
0100
0000
0010
0000
1010
0000
1010
0000
0110
0000
0101
0000
,  // measure 71
0000
0011
0011
0110
2200
0000
3300
0000
;

//---------------dance-single - ----------------
#NOTEDATA:;
#CHARTNAME:;
#STEPSTYPE:dance-single;
#DESCRIPTION:;
#CHARTSTYLE:;
#DIFFICULTY:Medium;
#METER:10;
#RADARVALUES:0.433713,0.474839,0.363988,0.421896,0.000000,367.000000,323.000000,44.000000,51.000000,0.000000,0.000000,0.000000,0.000000,0.000000,0.433713,0.474839,0.363988,0.421896,0.000000,367.000000,323.000000,44.000000,51.000000,0.000000,0.000000,0.000000,0.000000,0.000000;
#CREDIT:;
#NOTES:
// measure 0
0000
0000
0000
0000
,  // measure 1
0000
0000
0000
0000
,  // measure 2
0000
0000
0000
0000
,  // measure 3
0000
0000
0000
0000
,  // measure 4
0000
0000
1001
0000
0001
0100
0000
0100
,  // measure 5
0000
0001
0010
0200
0000
0000
1000
0000
,  // measure 6
0010
0000
1300
0000
0001
0100
0001
0100
,  // measure 7
0010
1000
0010
1000
0002
0000
0023
0000
,  // measure 8
0230
0000
2300
0000
3010
0100
0010
0100
,  // measure 9
0001
1000
0001
1000
0200
0000
0000
0000
,  // measure 10
0300
0110
1002
0103
,  // measure 11
0001
0100
0001
2000
0000
0000
3010
0000
,  // measure 12
0000
1001
0000
0000
1000
0010
1000
0002
,  // measure 13
0000
0013
0000
0022
0000
0000
0033
0000
,  // measure 14
1000
0001
0100
0000
0001
0100
0001
0100
,  // measure 15
0010
1000
0010
0000
1000
0100
0010
0002
,  // measure 16
0000
0203
0000
0310
0010
0000
0000
1010
,  // measure 17
0000
1001
0000
0202
0000
0000
0303
0000
,  // measure 18
1000
0100
0010
0000
0001
1000
0001
0100
,  // measure 19
0000
0100
0000
0020
0000
0000
0130
0000
,  // measure 20
0001
0010
0100
0000
1000
0001
1000
0100
,  // measure 21
0000
0100
0000
0020
0000
0000
0130
0000
,  // measure 22
0010
0001
1000
0000
0001
0100
0001
0000
,  // measure 23
1000
0010
1000
0000
0001
0010
0100
0000
,  // measure 24
1000
0000
0001
0100
0010
0000
0000
1010
,  // measure 25
0000
0110
0000
2002
0000
0000
3003
0000
,  // measure 26
1000
0001
0010
0000
0001
0100
0000
0100
,  // measure 27
0020
0000
1030
0000
1000
0100
0000
0100
,  // measure 28
0020
0000
0031
0000
1000
0000
0001
0100
,  // measure 29
1000
0100
0001
0020
0000
0000
0130
0000
,  // measure 30
1000
0000
1100
0000
0011
0000
1000
0010
,  // measure 31
0001
0010
1000
0200
0000
0000
0310
0000
,  // measure 32
0011
1001
2000
0010
,  // measure 33
0001
0100
3002
0100
,  // measure 34
1000
0000
0013
0000
0001
1000
0001
1000
,  // measure 35
0010
0100
0010
0100
0001
0010
0100
2000
,  // measure 36
0000
0000
3001
0101
,  // measure 37
1000
0100
0010
0000
0001
0100
0010
0000
,  // measure 38
0220
0000
0330
0000
1000
1000
0001
0001
,  // measure 39
0000
0000
0000
0000
1200
0000
0310
0001
,  // measure 40
0020
0000
0031
0100
0002
0000
2003
0000
,  // measure 41
3020
0000
0230
0000
0300
0101
0000
0110
,  // measure 42
0000
2020
0000
3030
1001
0000
1001
0000
,  // measure 43
1000
0100
0010
0000
0001
1000
0001
0000
,  // measure 44
1000
0010
0100
0000
0001
0100
0001
0100
,  // measure 45
0010
1000
0010
1000
0100
0010
0001
1000
,  // measure 46
0002
0013
1001
1001
,  // measure 47
0001
0010
0100
0000
1000
0001
1000
0000
,  // measure 48
0001
0100
0010
0000
1010
1010
0000
0000
,  // measure 49
0000
0000
1000
0000
0011
0011
0000
0000
,  // measure 50
0000
0000
0001
0000
1000
0100
1000
0001
,  // measure 51
0100
0001
1000
0100
0010
0000
2002
0000
,  // measure 52
0000
0000
0000
3003
,  // measure 53
0001
0000
1000
0000
0001
0010
0000
0010
,  // measure 54
0000
0001
0100
0020
0000
0000
0000
0000
,  // measure 55
0000
1030
0001
2000
0000
3100
0000
1000
,  // measure 56
0000
0001
1000
0100
0010
0110
0000
0000
,  // measure 57
0010
0110
0000
0000
0002
0000
2003
0000
,  // measure 58
3020
0000
0230
0000
0301
0010
0000
0011
,  // measure 59
0000
2002
0000
3003
1010
0000
1010
0000
,  // measure 60
0001
0100
0010
0000
1000
0100
0010
0001
,  // measure 61
1000
0000
0000
0000
0001
0010
0001
0010
,  // measure 62
0100
1000
0100
1000
0001
0100
0010
1000
,  // measure 63
0001
0000
0101
0101
,  // measure 64
1000
0010
0100
0000
0001
0010
0100
1000
,  // measure 65
0001
0000
0000
0000
1010
1010
0000
0000
,  // measure 66
0000
0000
1000
0000
0011
0011
0000
0000
,  // measure 67
0000
0000
0001
0000
1000
0100
0100
0010
,  // measure 68
0001
0001
1000
0010
0100
0000
2002
0000
,  // measure 69
0000
0000
0000
3003
,  // measure 70
0001
0000
1000
0000
0001
0001
0100
0100
,  // measure 71
0000
0010
0010
0010
2002
0000
3003
0000
;

//---------------dance-single - ----------------
#NOTEDATA:;
#CHARTNAME:;
#STEPSTYPE:dance-single;
#DESCRIPTION:;
#CHARTSTYLE:;
#DIFFICULTY:Beginner;
#METER:3;
#RADARVALUES:0.147723,0.236592,0.066180,0.173722,0.000000,125.000000,117.000000,8.000000,21.000000,0.000000,0.000000,0.000000,0.000000,0.000000,0.147723,0.236592,0.066180,0.173722,0.000000,125.000000,117.000000,8.000000,21.000000,0.000000,0.000000,0.000000,0.000000,0.000000;
#CREDIT:;
#NOTES:
// measure 0
0000
0000
0000
0000
,  // measure 1
0000
0000
0000
0000
,  // measure 2
0000
0000
0000
0000
,  // measure 3
0000
0000
0000
0000
,  // measure 4
0000
0000
1000
0000
,  // measure 5
1000
0000
1000
0000
,  // measure 6
0001
0000
0001
0000
,  // measure 7
0001
0000
0010
0000
,  // measure 8
0001
0000
1000
0000
,  // measure 9
0010
0000
2000
0000
,  // measure 10
0000
3000
0001
0000
,  // measure 11
0100
0000
0010
0000
,  // measure 12
1000
0000
1000
0000
,  // measure 13
0001
0000
0020
0000
,  // measure 14
0030
0000
0010
0000
,  // measure 15
0010
0000
0100
0000
,  // measure 16
0010
0000
0001
0000
,  // measure 17
1000
0000
2002
0000
,  // measure 18
3003
0000
0001
0000
,  // measure 19
0010
0000
0100
0000
,  // measure 20
1000
0000
1000
0000
,  // measure 21
0001
0000
0200
0000
,  // measure 22
0300
0000
0100
0000
,  // measure 23
0100
0000
0010
0000
,  // measure 24
0100
0000
0001
0001
,  // measure 25
0000
0000
2002
0000
,  // measure 26
3003
0000
1000
0000
,  // measure 27
0010
0000
0100
0000
,  // measure 28
0001
0000
0000
0100
,  // measure 29
0000
0110
0000
0000
,  // measure 30
0000
0001
0000
0100
,  // measure 31
0000
0100
0000
0001
,  // measure 32
0000
1000
2000
0000
,  // measure 33
3003
0000
0020
0000
,  // measure 34
0030
0000
0100
0000
,  // measure 35
1001
0000
0001
0001
,  // measure 36
0001
0000
1001
0000
,  // measure 37
0001
0000
0100
0100
,  // measure 38
0100
0000
0001
0001
,  // measure 39
0000
0000
1000
0000
,  // measure 40
0100
0000
2002
0000
,  // measure 41
0000
0000
0000
3003
0000
0000
0000
0000
,  // measure 42
0000
0000
0001
0001
,  // measure 43
0000
0100
0100
0000
,  // measure 44
0000
0000
0010
0010
,  // measure 45
0010
0000
1000
0000
,  // measure 46
0100
0000
1001
0000
,  // measure 47
1000
0000
0100
0100
,  // measure 48
0100
0000
0020
0030
,  // measure 49
0000
0000
0002
0003
,  // measure 50
0000
0000
1000
0000
,  // measure 51
0010
0000
0100
0200
,  // measure 52
0000
0000
0000
0000
,  // measure 53
3330
0000
0001
0000
,  // measure 54
0010
0000
0100
0000
,  // measure 55
1000
0000
0001
0000
,  // measure 56
0100
0000
0010
0000
,  // measure 57
1000
0000
0002
0000
,  // measure 58
0000
0003
0000
0000
,  // measure 59
0000
0000
1000
1000
,  // measure 60
0000
0001
0001
0000
,  // measure 61
0000
0000
0100
0100
,  // measure 62
0100
0000
0020
0000
,  // measure 63
0000
0030
0000
2002
,  // measure 64
0000
3003
1000
0000
,  // measure 65
0010
0000
0200
0300
,  // measure 66
0000
0000
0002
0003
,  // measure 67
0000
0000
1000
0000
,  // measure 68
0100
0000
0010
0020
,  // measure 69
0000
0000
0000
0000
,  // measure 70
0033
0000
0001
0001
,  // measure 71
0000
1000
1000
0000
;

//---------------dance-single - ----------------
#NOTEDATA:;
#CHARTNAME:;
#STEPSTYPE:dance-single;
#DESCRIPTION:;
#CHARTSTYLE:;
#DIFFICULTY:Easy;
#METER:7;
#RADARVALUES:0.245810,0.296775,0.082725,0.206812,0.000000,208.000000,198.000000,10.000000,25.000000,0.000000,0.000000,0.000000,0.000000,0.000000,0.245810,0.296775,0.082725,0.206812,0.000000,208.000000,198.000000,10.000000,25.000000,0.000000,0.000000,0.000000,0.000000,0.000000;
#CREDIT:;
#NOTES:
// measure 0
0000
0000
0000
0000
,  // measure 1
0000
0000
0000
0000
,  // measure 2
0000
0000
0000
0000
,  // measure 3
0000
0000
0000
0000
,  // measure 4
0000
0001
1000
0000
,  // measure 5
0010
0100
0010
0000
,  // measure 6
1000
0001
1000
0000
,  // measure 7
0001
0000
0010
0000
,  // measure 8
0001
0000
1000
0010
,  // measure 9
0100
0010
2000
3000
,  // measure 10
0100
0010
0001
0000
,  // measure 11
1000
0000
0010
0010
,  // measure 12
0100
0000
0001
1000
,  // measure 13
0001
0010
0200
0000
,  // measure 14
1300
0000
0001
0100
,  // measure 15
0001
0100
1000
0100
,  // measure 16
0001
1000
0020
0030
,  // measure 17
0100
0000
0001
2000
0000
0000
0000
0000
,  // measure 18
0000
3000
0001
0000
,  // measure 19
1000
1000
0100
0010
,  // measure 20
0000
0010
0001
1000
,  // measure 21
0001
0000
0100
0010
,  // measure 22
0100
0010
1000
0100
,  // measure 23
0001
0100
1000
0100
,  // measure 24
0001
1000
0020
0030
,  // measure 25
0010
0000
1000
0200
0000
0000
0310
0000
,  // measure 26
0001
1000
1001
0001
,  // measure 27
0010
0000
0100
0000
2000
0000
3000
0020
,  // measure 28
0000
0030
0100
0000
0001
0000
0010
0000
,  // measure 29
0010
0000
0100
2000
0000
0000
0000
0000
,  // measure 30
3000
0001
1000
0010
,  // measure 31
0010
0000
0100
0002
0000
0000
0000
0000
,  // measure 32
1003
1000
0002
0000
,  // measure 33
0013
0000
0020
0000
,  // measure 34
0031
0000
1000
0000
,  // measure 35
1001
0000
0001
1000
,  // measure 36
0100
0000
1000
1000
,  // measure 37
0001
0001
0100
0010
,  // measure 38
1000
0000
0001
0010
,  // measure 39
0001
0000
1001
0000
,  // measure 40
0110
0000
2002
0000
,  // measure 41
0000
0000
0000
3003
0000
1000
0000
0010
,  // measure 42
0000
2002
0000
3003
0001
0000
0010
0000
,  // measure 43
0010
0001
1000
0100
,  // measure 44
0010
0001
1000
0001
,  // measure 45
1000
0000
0001
0100
,  // measure 46
0001
1000
0001
0000
,  // measure 47
1000
0000
0100
0010
,  // measure 48
0001
0000
0000
0000
1000
0001
0000
0000
,  // measure 49
0000
0000
1000
0000
0001
0100
0000
0000
,  // measure 50
0001
1000
0001
0000
,  // measure 51
0010
0100
0010
2002
,  // measure 52
0000
0000
0000
0030
,  // measure 53
3303
0000
0001
0000
,  // measure 54
0100
0000
0010
0000
,  // measure 55
1000
0000
0100
0000
,  // measure 56
0010
0000
0000
0000
0001
0001
0000
0000
,  // measure 57
1000
1000
0000
0000
0002
0000
0000
0000
,  // measure 58
0000
0000
0003
0000
0000
1000
0000
0100
,  // measure 59
0000
2002
0000
3003
0001
0000
0100
0000
,  // measure 60
0100
0001
1000
0010
,  // measure 61
0100
0001
1000
0001
,  // measure 62
1000
0000
0001
0010
,  // measure 63
0001
1000
0001
0000
,  // measure 64
1000
0000
0010
0100
,  // measure 65
0001
0000
0000
0000
1000
0001
0000
0000
,  // measure 66
0000
0000
1000
0000
0001
0010
0000
0000
,  // measure 67
0001
1000
0010
0100
,  // measure 68
0100
0010
0100
2002
,  // measure 69
0000
0000
0000
0000
,  // measure 70
3033
0000
0000
0000
1000
0000
0100
0100
,  // measure 71
0000
0010
2002
3003
;
