#VERSION:0.83;
#TITLE:Knell;
#SUBTITLE:;
#ARTIST:Project B-;
#TITLETRANSLIT:;
#SUBTITLETRANSLIT:;
#ARTISTTRANSLIT:;
#GENRE:;
#CREDIT:;
#MUSIC:Knell.ogg;
#BANNER:Knell.png;
#BACKGROUND:Knell-bg.png;
#CDTITLE:;
#SAMPLESTART:77.268;
#SAMPLELENGTH:15.000;
#SELECTABLE:YES;
#OFFSET:0.000;
#BPMS:0.000=205.000;
#STOPS:;
#TIMESIGNATURES:0.000=3=4,
129.000=5=4,
139.000=3=4
;
#BGCHANGES:;
#FGCHANGES:;

//--------------- dance-single - Extraordiberry ----------------
#NOTEDATA:;
#STEPSTYPE:dance-single;
#DESCRIPTION:Extraordiberry;
#DIFFICULTY:Beginner;
#METER:4;
#RADARVALUES:0,0,0,0,0;
#CREDIT:Extraordiberry;
#NOTES:
0000
0000
0000
0000
,
0000
0000
0000
0000
,
0000
1001
0000
0000
,
0000
0000
0000
0000
,
0000
0000
0000
0000
,
0000
1001
0000
0000
,
0000
0000
0000
0000
,
0000
0000
0000
0000
,
0000
2000
0000
0000
,
0000
0000
0000
0000
,
0000
0000
3000
0000
,
0000
0001
0000
0000
,
0000
0000
0000
1000
,
0000
0000
0000
0000
,
0000
0010
0000
0000
,
0000
0000
0000
0100
,
0000
0000
0000
0000
,
0000
0001
0000
0000
,
0000
1000
0000
0001
,
0000
0000
0000
0010
,
0000
0001
0000
0000
,
0000
1000
0000
0010
,
0000
0000
0100
0000
,
0000
0001
0000
0000
,
1000
0000
0000
0001
,
0000
0000
0010
0000
,
0000
0001
0000
0000
,
0000
0100
0000
0010
,
0000
0000
0000
1000
,
0000
0100
0000
0000
,
0000
0010
0000
0001
,
0000
0000
0100
0000
,
0000
0010
0000
0000
,
1000
0000
0001
0000
,
0000
0010
0000
0100
,
0000
0000
1000
0000
,
0000
0001
0000
0000
,
0100
0000
0000
0001
,
0000
0000
0000
0000
,
0000
0000
0000
0000
,
0000
0000
0000
1000
,
0000
0000
0000
0000
,
0000
0000
0000
0000
,
0000
0000
0000
0100
,
0000
0000
0000
0010
,
0000
0001
0000
0000
,
0000
0000
0000
1000
,
0000
0000
0000
0010
,
0000
0100
0000
0000
,
0001
0000
0000
1000
,
0000
0000
0100
0000
,
0000
0010
0000
0001
,
0001
0000
1000
1000
,
0000
0010
0010
0000
,
0000
0000
0000
0000
,
0000
0000
0000
0000
,
0000
0000
0000
0000
,
0000
0000
0000
0000
,
0000
0000
0000
0000
,
0000
0000
0000
0000
,
0000
1000
0000
0000
,
1000
0000
0000
0001
,
0000
0000
0001
0000
,
0000
1000
0000
0000
,
0010
0000
0000
0100
,
0000
0000
0001
0000
,
0000
1000
0000
0100
,
0100
0000
0000
1000
,
0000
0001
0001
0000
,
0000
0100
0000
0010
,
0010
0000
0000
1000
,
0000
0000
0001
0000
,
0000
0001
0000
1000
,
1000
0000
0000
0010
,
0000
0100
0100
0000
,
0000
0001
0000
0000
,
1000
0000
0000
0100
,
0000
0000
0010
0000
,
0000
0002
0000
0000
,
0003
0000
0000
1000
,
0000
0000
0000
0000
,
0000
0001
0000
0000
,
0000
0100
0000
0010
,
0000
0000
1000
0000
,
0000
0100
0000
0000
,
0010
0000
0000
0001
,
0000
0001
0000
0000
0000
0000
0000
0000
;

//--------------- dance-single - Extraordiberry ----------------
#NOTEDATA:;
#STEPSTYPE:dance-single;
#DESCRIPTION:Extraordiberry;
#DIFFICULTY:Easy;
#METER:8;
#RADARVALUES:0,0,0,0,0;
#CREDIT:Extraordiberry;
#NOTES:
0000
0000
0000
0000
,
0000
0000
0000
0000
,
0000
0000
1001
0000
0000
1000
0000
0000
,
0000
0000
0000
0000
,
0000
0000
0000
0000
,
0000
0000
1001
0000
0000
0001
0000
0000
,
0000
0000
0000
0000
,
0000
0000
0000
0000
,
0000
2000
0000
0000
,
0000
0000
3000
0002
,
0000
0000
0000
0000
,
0003
1000
0100
0010
,
0100
1000
0000
0001
,
0100
0010
0100
0001
,
0001
1000
0100
0010
,
0001
1000
1000
0001
,
0100
0010
1000
0100
,
0100
0000
1000
0000
0000
0001
0000
0000
,
0000
0000
1000
0001
,
0000
1000
0000
0000
0000
0000
0000
0000
,
0001
0000
0100
0000
0000
0010
0000
0000
,
0000
0000
0100
0110
,
0000
0001
0000
0000
1001
0000
0000
1000
,
0000
0001
0100
0010
,
0100
0001
0001
1000
,
0100
0010
0100
1000
,
1000
0000
0001
0000
0000
0100
0000
0000
,
0000
0000
0001
1000
,
0000
0100
0000
0000
0000
0000
0000
0000
,
0100
0000
0010
0000
0000
0100
0000
0000
,
0000
0000
1000
1001
,
0000
0001
0000
0000
0110
0000
0000
0010
,
0000
0000
1001
0000
0000
1001
0000
0000
,
1001
0000
0000
0000
0110
0000
0000
0110
,
0000
0110
0000
1000
,
1000
0100
0010
0010
,
0100
1000
1000
0001
,
0100
0010
1000
1001
,
0000
1000
0000
0000
0000
0000
0000
0000
,
0000
0000
0000
0000
,
0000
0000
0000
1001
,
0000
0001
0000
0000
0000
0000
0000
0000
,
0000
0000
0000
0000
,
0000
0000
0000
1000
,
0000
0100
0000
0000
1000
0000
0100
0000
,
0010
0000
0001
0000
0000
1000
0000
0000
,
0001
0000
0000
1000
0000
0000
0001
0000
,
0000
0100
0000
0000
0001
0000
0100
0000
,
0010
0000
1000
0000
0000
0100
0000
0000
,
0010
0000
0000
0100
0000
0000
1000
0000
,
0000
0001
0000
0000
0100
0000
0000
0010
,
0000
1000
0100
0010
,
0001
0100
0010
1000
,
0100
0010
1001
0000
,
0000
0000
0000
0000
,
0000
0000
0000
0000
,
0000
0000
0000
0000
,
0000
0000
0000
0000
,
0000
0000
0000
0000
,
0000
0000
0000
0000
,
0000
1000
0000
0000
,
0100
0100
0000
0010
,
0000
0000
0001
0001
,
0000
1000
0000
0000
,
0010
0000
0000
0100
,
0001
1000
1001
0000
,
0000
1000
0100
0010
,
0001
0001
1000
0001
,
0100
0010
1000
1000
,
0001
1000
0100
0010
,
0001
0001
0100
0010
,
1000
0001
2000
0000
,
3000
0001
0100
0010
,
1000
1000
0001
1000
,
0100
0010
0001
0001
,
1000
0010
0010
0000
,
0100
0100
0000
0001
,
0001
0000
1000
0001
,
1000
2002
0000
0000
,
0000
3003
0000
0001
,
0100
0010
0100
0001
,
0001
1000
0100
0010
,
0100
1000
1000
0001
,
0100
0010
1000
0100
,
0100
1000
0010
0100
,
0001
0010
0010
0110
,
0000
1001
0000
0000
0000
0000
0000
0000
;

//--------------- dance-single - Extraordiberry ----------------
#NOTEDATA:;
#STEPSTYPE:dance-single;
#DESCRIPTION:Extraordiberry;
#DIFFICULTY:Medium;
#METER:13;
#RADARVALUES:0,0,0,0,0;
#CREDIT:Extraordiberry;
#NOTES:
0000
0000
0000
0000
,
0000
0000
0000
0000
,
0000
0000
1001
0000
0000
1001
0000
0000
,
0000
0000
0000
0000
,
0000
0000
0000
0000
,
0000
0000
1001
0000
0000
1001
0000
0000
,
0000
0000
0000
0000
,
0000
0000
0000
0000
,
0000
2002
0000
0000
,
0000
0000
0000
0000
,
0000
0000
3003
0000
,
0000
0000
1100
0000
0100
0010
0000
0100
,
0001
0000
0100
1000
0001
0000
0101
0000
,
0100
0010
0000
0100
1000
0000
0100
0001
,
1000
1000
0001
0010
0100
0010
0001
1000
,
0001
0100
0010
0000
0010
0000
1000
0100
,
0010
0100
1000
0001
0100
0010
1000
0000
,
0001
1000
1100
0000
0000
1100
0000
0100
,
0010
0000
0001
1000
0001
0000
0101
0000
,
0000
0101
0000
0100
0010
0000
1000
0000
,
0001
0000
1100
0000
0000
1100
0000
0100
,
0010
0000
0001
1000
0001
0000
0101
0000
,
0000
0110
0000
0000
1010
0000
0000
1001
,
0000
0000
1000
0100
0010
0100
0001
0100
,
0010
0100
1000
0001
1000
0000
0001
0100
,
0010
0100
1000
0100
0010
0100
0001
1000
,
0001
0000
0011
0000
0000
1100
0000
1000
,
0001
0000
0100
0010
1000
0000
1010
0000
,
0000
0101
0000
0001
0100
0000
0001
0000
,
1000
0000
1100
0000
0000
0011
0000
0001
,
1000
0000
0010
0100
0001
0000
0101
0000
,
0000
0110
0000
0000
1010
0000
0000
1001
,
0000
0000
1000
0100
0010
0001
1000
0010
,
1010
0000
1000
0000
0001
0010
0100
1000
,
0001
0100
0101
0000
0001
0000
1000
0100
,
0010
0100
0001
1000
0010
0100
0010
0001
,
1000
0001
0100
0000
0100
0010
0100
0000
,
0001
1001
0110
1001
,
0000
1001
0000
0000
0000
0000
0000
0000
,
0000
0000
1000
0000
0100
0010
0000
0100
,
0001
0000
0100
1000
0001
0000
0110
0000
,
0000
0110
0000
0000
0001
0000
1000
0010
,
0100
0000
0001
0000
0100
0010
0000
0100
,
1000
0100
0001
0001
1000
0000
1100
0000
,
0000
0011
0000
1000
0001
0000
1000
0010
,
0100
0000
0001
0010
0100
0010
1000
0010
,
0100
0010
0001
1000
0001
0000
0101
0000
,
0000
1010
0000
0001
1000
0000
0001
0010
,
0100
0000
1100
0000
0000
0110
0000
0000
,
0011
0000
0000
1001
0000
0000
0101
0000
,
0100
0110
0000
0000
1010
0000
1000
1001
,
0000
0000
0012
0000
1000
0000
0103
0010
,
2000
0000
0001
0000
3100
0010
0002
0000
,
1000
0000
0103
0010
1001
0000
0000
0000
,
0000
0000
0000
0000
,
0000
0000
0000
0000
,
0000
0000
0000
0000
,
0000
0000
0000
0000
,
0000
0000
0000
0000
,
0000
0000
0000
0000
,
1000
0001
1000
0000
0001
0100
1000
0100
,
0001
1000
0010
0000
0010
1000
0001
0000
,
1000
0100
0001
0100
1000
0001
0010
0000
,
0010
0001
0100
0000
0001
0010
1000
0010
,
0001
0000
1000
0001
0100
0010
1000
0001
,
1000
0001
0010
0100
1000
0000
0000
0000
,
0001
0010
0100
0000
1000
0010
0001
0010
,
2000
0000
3002
0000
1003
0010
0100
0000
,
0001
0010
1000
0010
0002
0000
2003
0000
,
3001
0100
0010
0000
1000
0100
0001
0100
,
2000
0000
3002
0000
0103
0010
1000
0001
,
1000
0001
0010
0100
0010
0100
1000
0000
,
0001
0100
0010
0000
1000
0100
0001
1000
,
0010
0001
1000
0000
1000
0100
0010
0000
,
0001
0100
1000
0001
0010
1000
0001
0000
,
0001
0010
0100
1000
0001
0100
0010
0100
,
0001
1000
0100
0010
0100
1000
0001
0100
,
0010
1000
0001
0010
0100
0000
0110
0000
,
1001
1000
0100
0010
,
0011
1002
0000
1003
,
0010
0100
0000
0010
0001
0000
0010
1000
,
0001
0000
0011
0000
0010
0100
0000
0010
,
1000
0000
0010
0001
1000
1000
0001
0100
,
0010
0100
1000
0001
0010
0100
0010
1000
,
0001
0000
1000
0100
0010
0100
0001
1000
,
0010
0100
0010
0001
1000
0010
0110
0000
,
0000
1001
0000
0000
0000
0000
0000
0000
;

//--------------- dance-single - Extraordiberry ----------------
#NOTEDATA:;
#STEPSTYPE:dance-single;
#DESCRIPTION:Extraordiberry;
#DIFFICULTY:Hard;
#METER:17;
#RADARVALUES:0,0,0,0,0;
#CREDIT:Extraordiberry;
#NOTES:
0000
0000
0000
0000
,
0000
0000
0000
0000
,
0000
0000
1001
0000
0000
1001
0000
0000
,
0000
0000
0000
0000
,
0000
0000
0000
0000
,
0000
0000
0110
0000
0000
0110
0000
0000
,
0000
0000
0000
0000
,
0000
0000
0000
0000
,
0000
2001
0000
0000
,
3020
0000
0000
0230
,
0000
0000
0000
0000
0000
0000
0000
0000
0301
1000
0001
1000
0001
1000
0001
1000
,
0001
0000
1000
0100
0010
0100
1000
0001
,
1000
0100
0010
0100
1000
0000
0001
0100
,
0010
0100
0001
1000
0001
0100
0010
1000
,
1001
0000
0000
0000
0001
0000
0010
0100
0010
0000
0001
0000
0010
0100
0010
0000
,
0001
0000
1000
0000
0001
0000
0010
0000
0100
0000
0000
0000
1000
0000
0010
0100
,
0010
0000
1000
0000
0010
0100
0010
0000
1000
0000
0100
0000
0010
0000
0001
0000
,
1000
0001
1000
0001
0100
0000
0000
0000
0010
0000
0110
0000
0000
0000
0001
0000
,
1000
0100
0010
0100
1000
0001
0100
0000
,
0010
0110
0000
1000
0001
0000
0011
0000
,
1100
0000
1001
0000
0100
0110
0000
0001
,
1000
0000
0100
0000
0010
0000
0100
0000
1000
0000
0000
0000
0101
0000
0000
0100
,
0010
0000
1010
0000
0000
1000
0100
0000
1100
0000
0000
0010
0001
0000
0011
0000
,
0000
1000
0001
0000
1000
0000
0010
0000
0100
0000
0001
0000
0100
0010
1000
0000
,
0001
0010
1000
0010
0100
1000
0001
0100
,
0010
0000
1000
0000
0010
0100
0001
0000
1000
0000
0100
0000
0010
0000
0100
0000
,
1000
0001
1000
0001
0100
0000
0000
0000
0010
0000
0110
0000
0000
0000
0001
1000
,
0001
0010
0100
0010
0001
1000
0010
0000
,
0100
0000
0110
0000
0000
0000
0010
1000
0001
0000
0000
0000
0011
0000
0000
0000
,
1100
0000
0000
0000
1001
0000
0000
0000
0010
0000
0110
0000
0000
0000
1000
0001
,
0100
0000
0010
0000
0100
0000
0001
0000
1000
0000
0000
0000
1100
0000
0000
0100
,
0010
0000
0011
0000
0000
0001
0100
0000
0101
0000
0000
0010
1000
0000
1010
0000
,
0000
0001
1000
0000
1001
0000
0001
0000
0010
0000
0110
0000
0100
0000
1000
0000
,
1100
0000
0001
0000
0101
0100
0010
1010
,
1000
0100
1100
0000
1000
0000
0101
0001
,
1000
0000
0100
0000
0010
0001
1000
0000
1010
0000
0010
0000
0100
0000
0001
0000
,
1000
0100
0010
0000
0011
0000
0001
0000
1000
0000
0010
0000
0100
0001
1000
0000
,
1100
0000
0000
0000
0110
0000
0010
0000
0001
1000
0001
0000
1001
0000
0000
0000
,
0000
1001
0000
0000
1000
0000
1000
0000
,
1000
0000
0001
0100
0010
0100
0001
1000
,
0001
0010
0100
1000
0001
0100
0110
0000
,
0000
0110
0000
0000
0001
0000
0001
0000
,
0001
0000
1000
0100
0010
0100
1000
0001
,
1000
0100
0010
0001
0010
0100
1000
0001
0100
0101
0000
0000
,
0010
0000
1010
0000
0000
0000
1000
0001
1000
0000
0100
0000
0010
0000
0100
0000
,
1000
0000
0001
0000
1000
0000
0010
0100
0010
0000
1000
0000
0010
0100
0010
0000
,
1000
0001
0100
1000
0100
0001
0011
0000
,
1000
0000
1100
0000
0000
0000
0001
1000
0001
0000
0100
0000
0010
0000
0100
0000
,
0001
0000
1000
0000
1100
0000
0100
0010
0001
0000
0011
0000
0000
0000
0001
0000
,
0101
0000
0100
0010
1000
0000
1010
0000
0000
0000
1000
0000
1100
0000
0100
0010
,
0001
0000
0011
0000
0000
0000
0001
0000
0100
0001
0100
0000
0010
0000
1000
0010
,
1000
0000
0010
0000
1020
0000
0000
1030
0001
0000
1000
0000
0100
0010
0001
0000
,
0021
0000
0000
0031
1000
0000
0001
0000
0100
0010
1000
0000
1020
0000
0000
1030
,
0001
0000
1000
0000
0100
0010
0001
0000
1001
0000
0000
0000
0000
0000
0000
0000
,
0000
0000
0000
0000
,
0000
0000
0000
0000
,
0000
0000
0000
0000
,
0000
0000
0000
0000
,
0000
0000
0000
0000
,
0000
0000
0000
0000
,
0001
0010
0100
0000
0001
0100
0010
0001
,
1000
1000
0001
0000
1000
0010
0100
0000
,
1000
0100
0010
1000
0001
0001
1000
0000
,
0001
0010
1000
0000
0001
0100
1000
0001
,
0100
0000
1000
0100
0001
1000
0100
0010
,
0100
0000
0010
0000
0001
0000
1000
0000
1001
0000
0000
0000
0001
1000
0001
1000
,
0001
0000
0100
0000
0101
0000
0000
0001
0100
0000
1000
0000
0001
0000
0010
0000
,
2000
0000
0000
0000
3002
0000
0000
0000
1003
0000
0100
0000
1100
0000
0000
1000
,
0100
0001
1000
0010
0002
0000
2003
0000
,
3001
0000
1000
0000
1010
0000
0000
1000
0010
0000
0001
0000
1000
0000
0100
0000
,
0002
0000
2003
0000
3001
1000
0100
0100
,
0010
0010
0001
0001
1000
1000
0010
0100
,
0001
1000
0001
0000
0011
0000
0000
0010
1000
0000
0001
0000
0100
0000
1000
0000
,
0001
0100
0010
0000
2000
0000
0000
0000
3010
0000
1000
0000
1010
0000
0000
0010
,
0001
0000
1000
0000
0100
0000
0001
0000
1000
0100
0010
0000
0002
0000
0000
0000
,
0013
0000
0001
0000
0011
0000
0010
0000
0100
0000
1000
0000
0001
0100
0010
0000
,
1010
0000
1000
0000
0001
0000
0010
0000
0100
1000
0001
0000
0101
0000
0100
0000
,
0010
0000
1000
0000
0001
0010
0100
0000
1100
0000
0000
0000
0011
0000
0000
0000
,
1001
0002
0000
0000
,
1003
0001
1000
0001
1000
0001
1000
0001
1000
0000
0000
0000
0001
0000
0100
0010
,
0100
0000
1000
0000
0100
0010
0100
0000
0001
0000
0100
0000
1000
0000
0100
0000
,
0001
0000
0000
0000
1000
0000
0100
0010
0100
0000
0001
0000
0100
0010
0100
0000
,
1000
0000
0100
0000
0001
0000
1000
0000
0010
0000
0001
0000
1000
0000
0010
0100
,
0010
0000
0001
0000
0010
0100
0010
0000
1000
0010
0100
0000
0001
0100
0010
0000
,
1000
0000
0000
0000
0001
0000
0010
0100
0010
0000
1000
0000
0010
0100
0010
0000
,
0001
0010
0100
0000
1000
0000
0001
0000
0100
0010
0100
0010
0110
0000
0000
0000
,
0000
1001
0000
0000
0000
0000
0000
0000
;

//--------------- dance-double - Extraordiberry ----------------
#NOTEDATA:;
#STEPSTYPE:dance-double;
#DESCRIPTION:Extraordiberry;
#DIFFICULTY:Easy;
#METER:8;
#RADARVALUES:0,0,0,0,0;
#CREDIT:Extraordiberry;
#NOTES:
00000000
00000000
00000000
00000000
,
00000000
00000000
00000000
00000000
,
00000000
00000000
00011000
00000000
00000000
00010000
00000000
00000000
,
00000000
00000000
00000000
00000000
,
00000000
00000000
00000000
00000000
,
00000000
00000000
00011000
00000000
00000000
00001000
00000000
00000000
,
00000000
00000000
00000000
00000000
,
00000000
00000000
00000000
00000000
,
00000000
00020000
00000000
00000000
,
00000000
00000000
00030000
00002000
,
00000000
00000000
00000000
00000000
,
00003000
00010000
00000100
00000100
,
00010000
00000100
00000000
00001000
,
00000001
00000001
00000100
00000010
,
00010000
00001000
01000000
01000000
,
00010000
01000000
00010000
10000000
,
01000000
01000000
00100000
00001000
,
00010000
00000000
00001000
00000000
00000000
00010000
00000000
00000000
,
00000000
00000000
00000100
00001000
,
00000000
00000100
00000000
00000000
00000000
00000000
00000000
00000000
,
00000010
00000000
00000001
00000000
00000000
00000010
00000000
00000000
,
00000000
00000000
00000001
00001001
,
00000000
00001000
00000000
00000000
00001001
00000000
00000000
00000001
,
00000000
00001000
00000010
00010000
,
00001000
00001000
00010000
00001000
,
01000000
00010000
01000000
01000000
,
00100000
00000000
10000000
00000000
00000000
00010000
00000000
00000000
,
00000000
00000000
00100000
00001000
,
00000000
00010000
00000000
00000000
00000000
00000000
00000000
00000000
,
00000010
00000000
00001000
00000000
00000000
00000001
00000000
00000000
,
00000000
00000000
00000100
00000110
,
00000000
00010000
00000000
00000000
00011000
00000000
00000000
01000000
,
00000000
00000000
10010000
00000000
00000000
10010000
00000000
00000000
,
10010000
00000000
00000000
00000000
01100000
00000000
00000000
01100000
,
00000000
01100000
00000000
00010000
,
00010000
00100000
00001000
00001000
,
00010000
00000100
00000100
00001000
,
00000001
00000100
00000010
00001001
,
00000000
00001000
00000000
00000000
00000000
00000000
00000000
00000000
,
00000000
00000000
00000000
00000000
,
00000000
00000000
00000000
00011000
,
00000000
00001000
00000000
00000000
00000000
00000000
00000000
00000000
,
00000000
00000000
00000000
00000000
,
00000000
00000000
00000000
00010000
,
00000000
00001000
00000000
00000000
01000000
00000000
00010000
00000000
,
10000000
00000000
00010000
00000000
00000000
10000000
00000000
00000000
,
00010000
00000000
00000000
10000000
00000000
00000000
01000000
00000000
,
00000000
00100000
00000000
00000000
00010000
00000000
00100000
00000000
,
00001000
00000000
00010000
00000000
00000000
00001000
00000000
00000000
,
00000010
00000000
00000000
00000001
00000000
00000000
00001000
00000000
,
00000000
00000010
00000000
00000000
00010000
00000000
00000000
00001000
,
00000000
00010000
00001000
01000000
,
00010000
10000000
01000000
00010000
,
00001000
00010000
00011000
00000000
,
00000000
00000000
00000000
00000000
,
00000000
00000000
00000000
00000000
,
00000000
00000000
00000000
00000000
,
00000000
00000000
00000000
00000000
,
00000000
00000000
00000000
00000000
,
00000000
00000000
00000000
00000000
,
00000000
00010000
00000000
00000000
,
00001000
00001000
00000000
00000010
,
00000000
00000000
00000001
00000001
,
00000000
00000100
00000000
00000000
,
00001000
00000000
00000000
00010000
,
00100000
10000000
00010000
00000000
,
00000000
10000000
01000000
10000000
,
01000000
00010000
01000000
00010000
,
00001000
00010000
00001000
00000010
,
00001000
00000010
00000001
00000010
,
00000001
00001000
00000001
00000200
,
00000000
00000000
00002300
00000000
,
00000000
00013000
00001000
00010000
,
00100000
10000000
01000000
10000000
,
00010000
10000000
01000000
00010000
,
00001000
00100000
00100000
00000000
,
00010000
00010000
00000000
10000000
,
10000000
00000000
00010000
00100000
,
00001000
00022000
00000000
00000000
,
00000000
00033000
00000000
00010000
,
00000010
00000010
00010000
00000010
,
00000000
00001000
00000001
00000001
,
00000100
00001000
00010000
00001000
,
01000000
01000000
00010000
10000000
,
01000000
10000000
01000000
01000000
,
00010000
00001000
00010000
00011000
,
00000000
00011000
00000000
00000000
00000000
00000000
00000000
00000000
;

//--------------- dance-double - Extraordiberry ----------------
#NOTEDATA:;
#STEPSTYPE:dance-double;
#DESCRIPTION:Extraordiberry;
#DIFFICULTY:Medium;
#METER:13;
#RADARVALUES:0,0,0,0,0;
#CREDIT:Extraordiberry;
#NOTES:
00000000
00000000
00000000
00000000
,
00000000
00000000
00000000
00000000
,
00000000
00000000
00011000
00000000
00000000
00011000
00000000
00000000
,
00000000
00000000
00000000
00000000
,
00000000
00000000
00000000
00000000
,
00000000
00000000
00011000
00000000
00000000
00011000
00000000
00000000
,
00000000
00000000
00000000
00000000
,
00000000
00000000
00000000
00000000
,
00000000
00022000
00000000
00000000
,
00000000
00000000
00000000
00000000
,
00000000
00000000
00033000
00000000
,
00000000
00000000
00011000
00000000
00010000
00100000
00000000
10000000
,
00100000
00000000
00010000
00001000
00010000
00000000
00011000
00000000
,
00001000
00000010
00000000
00000001
00000010
00000000
00001000
00010000
,
00001000
00001000
00010000
00001000
01000000
00010000
01000000
00001000
,
00010000
00001000
01000000
00010000
01000000
00000000
00001000
00010000
,
00000100
00001000
00000100
00010000
00001000
00000010
00000100
00001000
,
00000100
00000000
00011000
00000000
00000000
00011000
00000000
00010000
,
00100000
00000000
01000000
00010000
10000000
00000000
11000000
00000000
,
00000000
11000000
00000000
01000000
00010000
00000000
00001000
00000000
,
00010000
00000000
00011000
00000000
00000000
00011000
00000000
00001000
,
00000010
00000000
00000100
00001000
00000001
00000000
00000101
00000000
,
00000000
00001010
00000000
00000000
01010000
00000000
00000000
10100000
,
00000000
00000000
10000000
01000000
00100000
01000000
00010000
00000000
,
00001000
00000010
00000100
00000010
00000001
00000000
00001000
00000001
,
00000100
00000010
00001000
00000000
00000001
00000100
00000010
00000100
,
00001000
00010000
00011000
00000000
00000000
00011000
00000000
00001000
,
00000100
00000000
00000010
00001000
00000001
00000000
00000011
00000000
,
00000000
00000011
00000000
00001000
00000001
00000000
00000100
00000000
,
00001000
00000000
00011000
00000000
00000000
00011000
00000000
00010000
,
01000000
00000000
00100000
00010000
10000000
00000000
11000000
00000000
,
00000000
00110000
00000000
00000000
00001100
00000000
00000000
00000011
,
00000000
00000000
00000001
00000100
00000010
00000100
00001000
00010000
,
00011000
00000000
00001000
00000000
00010000
00100000
01000000
00100000
,
10000000
00010000
00110000
00000000
00100000
00000000
00010000
10000000
,
01000000
00100000
01000000
00010000
00001000
00000010
00000100
00000010
,
00000001
00001000
00000001
00000100
00000010
00000100
00001000
00010000
,
00011000
01010000
10100000
10010000
,
00000000
10010000
00000000
00000000
00000000
00000000
00000000
00000000
,
00000000
00000000
10000000
00000000
01000000
00100000
00000000
01000000
,
00010000
00000000
00001000
00010000
00001000
00000000
00011000
00000000
,
00000000
00011000
00000000
00000000
00010000
00000000
00000010
00001000
,
00000010
00000000
00001000
00000000
00000001
00000010
00000000
00000100
,
00000010
00001000
00010000
00010000
00001000
00000000
00011000
00000000
,
00000000
00011000
00000000
00010000
00100000
00000000
01000000
00010000
,
10000000
00000000
00010000
10000000
01000000
00100000
01000000
00010000
,
00001000
00010000
00000100
00001000
00000100
00000000
00000110
00000000
,
00000000
00000110
00000000
00000010
00000001
00000000
00001000
00000001
,
00000100
00000000
00000101
00000000
00000000
00001010
00000000
00000000
,
01010000
00000000
00000000
10100000
00000000
00000000
11000000
00000000
,
00000000
00110000
00000000
00000000
00001100
00000000
00000000
00000011
,
00000000
00000000
00000002
00000000
00001000
00000000
00000103
00001000
,
00020000
00000000
00001000
00000000
00130000
10000000
00020000
00000000
,
00100000
00000000
00031000
00000100
00010000
00000000
00000000
00000000
,
00000000
00000000
00000000
00000000
,
00000000
00000000
00000000
00000000
,
00000000
00000000
00000000
00000000
,
00000000
00000000
00000000
00000000
,
00000000
00000000
00000000
00000000
,
00000000
00000000
00000000
00000000
,
00001000
00010000
00001000
00000000
00010000
00100000
01000000
00100000
,
00010000
00001000
00001000
00000000
00010000
00001000
00010000
00000000
,
00001000
00000010
00000100
00000010
00001000
00010000
00010000
00000000
,
00001000
00010000
00001000
00000000
00010000
01000000
00100000
01000000
,
00010000
00000000
00001000
00010000
00100000
00010000
00001000
01000000
,
00010000
01000000
00001000
00010000
00001000
00000000
00000000
00000000
,
00010000
00001000
00020000
00000000
00130000
10000000
00010000
10000000
,
02000000
00000000
03020000
00000000
00031000
00010000
00002000
00000000
,
00003010
00000001
00001000
00000001
00000200
00000000
00002300
00000000
,
00013000
00001000
00020000
00000000
01030000
10000000
00010000
10000000
,
00200000
00000000
00320000
00000000
00031000
00010000
00001000
00000010
,
00000100
00000010
00000001
00000000
00001000
00000001
00000100
00000010
,
00000100
00001000
00020000
00000000
00130000
10000000
00010000
10000000
,
01000000
00010000
00010000
00000000
00001000
00010000
00002000
00000000
,
00003010
00000001
00001000
00000001
00000100
00001000
00001000
00000000
,
00010000
00001000
00010000
00100000
01000000
00100000
10000000
00010000
,
10000000
01000000
00100000
00000000
01000000
00010000
00002000
00000000
,
00003020
00000032
00000203
00002300
,
00023000
00032000
00000000
00000000
,
00003000
00000000
00000000
00011000
,
00010000
01000000
00000000
10000000
01000000
00000000
00010000
00001000
,
00010000
00000000
00011000
00000000
00001000
00000100
00000000
00000001
,
00000100
00000000
00001000
00010000
00001000
00001000
00010000
00001000
,
00100000
00010000
00100000
00001000
00010000
01000000
00010000
00001000
,
00100000
00000000
00001000
00010000
00000010
00001000
00000010
00010000
,
00001000
00000100
00001000
00010000
00000010
00000000
00011000
00000000
,
00000000
00011000
00000000
00000000
00000000
00000000
00000000
00000000
;

//--------------- dance-double - Extraordiberry ----------------
#NOTEDATA:;
#STEPSTYPE:dance-double;
#DESCRIPTION:Extraordiberry;
#DIFFICULTY:Hard;
#METER:17;
#RADARVALUES:0,0,0,0,0;
#CREDIT:Extraordiberry;
#NOTES:
00000000
00000000
00000000
00000000
,
00000000
00000000
00000000
00000000
,
00000000
00000000
00011000
00000000
00000000
00011000
00000000
00000000
,
00000000
00000000
00000000
00000000
,
00000000
00000000
00000000
00000000
,
00000000
00000000
00000110
00000000
00000000
00000110
00000000
00000000
,
00000000
00000000
00000000
00000000
,
00000000
00000000
00000000
00000000
,
00000000
00002001
00000000
00000000
,
00003020
00000000
00000000
00020030
,
00000000
00000000
00000000
00000000
00000000
00000000
00000000
00000000
00031000
00010000
00001000
00010000
00001000
00010000
00001000
00010000
,
00001000
00000000
00010000
00100000
01000000
00100000
00010000
00001000
,
00010000
00100000
01000000
00100000
00010000
00000000
00001000
00000010
,
00000100
00000010
00001000
00010000
00001000
00000010
00000100
00010000
,
00011000
00000000
00000000
00000000
00001000
00000000
00010000
00001000
00010000
00000000
00000100
00000000
00010000
00001000
00010000
00000000
,
00001000
00000000
00000010
00000000
00000100
00000000
00000010
00000000
00001000
00000000
00000000
00000000
00010000
00000000
00001000
00010000
,
00001000
00000000
01000000
00000000
00001000
00010000
00001000
00000000
00010000
00000000
00100000
00000000
10000000
00000000
00010000
00000000
,
00100000
00001000
00100000
00001000
00010000
00000000
00000000
00000000
00001000
00000000
00011000
00000000
00000000
00000000
00010000
00000000
,
00000100
00001000
00000001
00000100
00000010
00000100
00001000
00000000
,
00010000
00011000
00000000
00001000
01000000
00000000
01010000
00000000
,
10100000
00000000
10010000
00000000
00010000
00110000
00000000
00010000
,
10000000
00000000
01000000
00000000
00100000
00000000
01000000
00000000
00010000
00000000
00000000
00000000
00011000
00000000
00000000
00000100
,
00001000
00000000
00001100
00000000
00000000
00000001
00000010
00000000
00000011
00000000
00000000
00000001
00000100
00000000
00000101
00000000
,
00000000
00000010
00001000
00000000
00000001
00000000
00000100
00000000
00001000
00000000
00010000
00000000
00000010
00000000
00001000
00000000
,
00010000
01000000
00001000
00010000
00100000
00000000
10000000
01000000
,
00010000
00001000
00100000
00010000
00001000
00000100
00010000
00001000
,
00000010
00000100
00000010
00000000
00001000
00000000
00000000
00000000
00010000
00000000
00011000
00000000
00000000
00000000
00001000
01000000
,
00010000
10000000
01000000
00100000
01000000
00010000
00001000
00000000
,
00010000
00000000
00011000
00000000
00000000
00000000
00001000
00010000
00000100
00000000
00000000
00000000
00001100
00000000
00000000
00000000
,
00000011
00000000
00000000
00000000
00001001
00000000
00000000
00000000
00001000
00000000
00001010
00000000
00000000
00000000
00000010
00001000
,
00000001
00000000
00000100
00000000
00000010
00000000
00000100
00000000
00001000
00000000
00000000
00000000
00011000
00000000
00000000
01000000
,
00010000
00000000
01010000
00000000
00000000
10000000
00100000
00000000
10100000
00000000
00000000
10000000
01000000
00000000
11000000
00000000
,
00000000
00100000
00010000
00000000
00110000
00000000
00100000
00000000
00001000
00000000
00011000
00000000
00010000
00000000
00000100
00000000
,
00001100
00000000
00001000
00000000
00000101
00000001
00000100
00000110
,
00000010
00010000
00011000
00000000
00001000
00000000
00010000
00100000
,
10000000
00000000
00100000
00000000
00010000
00001000
00010000
00000000
00001000
00000000
00000100
00000000
00000001
00000000
00000100
00000000
,
00001000
00010000
00001000
00000000
00010000
00000000
01000000
00000000
10000000
00000000
01000000
00000000
00010000
00001000
00010000
00000000
,
00001000
00000000
00000000
00000000
00001010
00000000
00000010
00000000
00000001
00001000
00000001
00000000
00001001
00000000
00000000
00000000
,
00000000
00001001
00000000
00000000
00000001
00000000
00000100
00000000
,
00001000
00000000
00010000
00100000
01000000
00100000
00010000
00001000
,
01000000
00001000
00010000
00100000
10000000
00010000
10010000
00000000
,
00000000
10010000
00000000
00000000
10000000
00000000
01000000
00000000
,
00010000
00000000
00001000
00000010
00000100
00000010
00001000
00010000
,
00000100
00001000
00000100
00000010
00000001
00001000
00000010
00000100
00000001
00000101
00000000
00000000
,
00001000
00000000
00001010
00000000
00000000
00000000
00000001
00001000
00000001
00000000
00000010
00000000
00000100
00000000
00000010
00000000
,
00001000
00000000
00010000
00000000
00001000
00000000
00010000
00001000
00010000
00000000
00000010
00000000
00010000
00001000
00010000
00000000
,
00100000
01000000
00010000
10000000
01000000
00100000
00110000
00000000
,
01000000
00000000
11000000
00000000
00000000
00000000
10000000
00010000
10000000
00000000
00100000
00000000
01000000
00000000
00100000
00000000
,
00010000
00001000
00011000
00010000
00000100
00001100
00001000
00000001
,
00000101
00000100
00001000
00011000
00010000
00100000
01100000
01000000
,
00010000
00000000
10010000
00000000
10000000
00000000
01000000
00000000
00010000
00001000
00010000
00000000
00001000
00000000
00000010
00000001
,
00000010
00000000
00000001
00000000
00000021
00000000
00000000
00000031
00000100
00000000
00001000
00000000
00010000
00000000
00100000
00000000
,
10200000
00000000
00000000
10300000
01000000
00000000
00010000
00000000
00001000
00000000
00000010
00000000
00000021
00000000
00000000
00000031
,
00000100
00000000
00001000
00000000
00010000
00100000
10000000
00000000
10010000
00000000
00000000
00000000
00000000
00000000
00000000
00000000
,
00000000
00000000
00000000
00000000
,
00000000
00000000
00000000
00000000
,
00000000
00000000
00000000
00000000
,
00000000
00000000
00000000
00000000
,
00000000
00000000
00000000
00000000
,
00000000
00000000
00000000
00000000
,
00010000
10000000
00010000
00000000
10000000
01000000
00100000
01000000
,
00010000
00010000
00001000
00000000
00000010
00000001
00001000
00000000
,
00000001
00000100
00000010
00000100
00001000
00001000
00010000
00000000
,
01000000
10000000
00010000
00000000
10000000
00100000
01000000
00100000
,
00010000
00000000
00001000
00000010
00000100
00000010
00000001
00001000
,
00000010
00000000
00000100
00000000
00001000
00000000
00010000
00000000
00011000
00000000
00000000
00000000
00010000
00001000
00010000
00001000
,
00010000
00001000
00020000
00000000
00130000
00010000
10000000
01000000
,
00020000
00000000
20030000
00000000
31000000
00010000
00002000
00000000
,
00003010
00001000
00000001
00000100
00002000
00000000
00003002
00000000
,
00000103
00001000
00020000
00000000
01030000
00010000
10000000
00100000
,
00020000
00000000
20030000
00000000
30100000
00010000
00001000
00001000
,
00100000
00100000
00010000
00010000
10000000
10000000
01000000
01000000
,
00010000
00001000
00010000
00000000
00021000
00000000
00000000
00000000
10030000
00000000
01000000
00000000
00010000
00000000
10000000
00000000
,
01000000
00010000
00002000
00000000
00013000
00001000
00012000
00000000
,
00003001
00000100
00001000
00000001
00000100
00001000
00020000
00000000
,
00031000
00000000
00010000
00000000
00001000
00010000
00001000
00000000
00000010
00000000
00000001
00000000
00000010
00000000
00001000
00000000
,
00010000
00001000
00010000
00000000
01000000
00000000
10000000
00000000
01000000
00000000
00010000
00000000
00001000
00010000
00001000
00000000
,
00000100
00000001
00000100
00001000
00011000
00000000
00110000
00000000
,
10100000
12000000
00000000
00000000
,
03010000
00001000
00010000
00001000
00010000
00001000
00010000
00001000
00010000
00000000
00000000
00000000
00001000
00000000
00010000
00001000
,
00010000
00000000
00000010
00000000
00010000
00001000
00010000
00000000
00001000
00000000
00000100
00000000
00000010
00000000
00000100
00000000
,
00001000
00000000
00000000
00000000
00010000
00000000
00001000
00010000
00001000
00000000
00100000
00000000
00001000
00010000
00001000
00000000
,
00010000
00000000
01000000
00000000
10000000
00000000
00010000
00000000
01000000
00001000
01000000
00001000
00010000
00000000
00001000
00010000
,
00001000
00000000
00100000
00000000
00001000
00010000
00001000
00000000
00000010
00000100
00000010
00000000
00000100
00010000
00001000
00000000
,
00010000
00000000
00000000
00000000
00001000
00000000
00010000
00001000
00010000
00000000
00000010
00000000
00010000
00001000
00010000
00000000
,
00100000
01000000
00100000
00000000
01000000
00000000
00001000
00000000
00010000
00001000
00010000
00001000
00011000
00000000
00000000
00000000
,
00000000
00011000
00000000
00000000
00000000
00000000
00000000
00000000
;
