#TITLE:KAMIKAZE;
#SUBTITLE:;
#ARTIST:dj nagureo;
#TITLETRANSLIT:;
#SUBTITLETRANSLIT:;
#ARTISTTRANSLIT:;
#GENRE:;
#CREDIT:;
#MUSIC:KAMIKAZE.ogg;
#BANNER:KAMIKAZE.png;
#BACKGROUND:KAMIKAZE-bg.png;
#CDTITLE:;
#SAMPLESTART:51.994;
#SAMPLELENGTH:14.769;
#SELECTABLE:YES;
#OFFSET:-0.302;
#BPMS:0.000=130.000;
#STOPS:;
#BGCHANGES:;
#FGCHANGES:;

//--------------- dance-single - V.J. ----------------
#NOTES:
     dance-single:
     V.J.:
     Hard:
     12:
     0,0,0,0,0:
0000
0000
0000
0000
,
0000
0000
0000
0000
,
0000
0000
0000
0000
,
0000
0000
0000
0000
,
1000
0100
0000
0100
1000
0010
0000
0010
,
1000
0001
0000
0001
1000
0010
0000
0100
,
0000
0001
0000
0001
0010
0100
0000
0100
,
1000
0001
0000
0001
0010
0100
1000
0000
,
1001
0000
0000
0000
0001
0000
0100
0000
0110
0000
0000
0010
0000
0000
1000
0000
,
0100
0000
0000
0000
1000
0000
0100
0000
0110
0000
0000
0010
0000
0000
0001
0000
,
0100
0000
0000
0010
0100
0000
0000
0000
0010
0000
0000
0010
1000
0000
0010
0000
,
1000
0000
0000
1000
0100
0000
0000
0000
1000
0000
0000
1000
0001
0000
0001
0000
,
0000
0000
0001
0000
0010
0000
0001
0010
0000
0000
0100
0000
0000
0000
0010
0000
,
0000
0000
1000
0000
0010
0000
0001
0010
0000
0000
0100
0000
0000
0000
0010
0000
,
0000
0000
0001
0000
0010
0000
0100
0010
0000
0000
0001
0000
0000
0000
0010
0000
,
0000
0000
1000
0000
0010
0000
0001
0010
0100
0000
0000
0010
0100
0000
0000
0000
,
1001
0000
0000
0000
0001
0000
0100
0000
0101
0000
0000
1100
0000
0000
0001
0000
,
0110
0000
0000
0000
1000
0000
0100
0000
1100
0000
0000
0101
0000
0000
1000
0000
,
0110
0000
0000
0000
0010
0000
0100
0000
0101
0000
0000
0101
0000
0000
0010
0000
,
0011
0000
1000
0001
0000
0000
1000
0000
0100
0000
1000
0001
0000
0000
1000
0000
,
0020
0000
0000
0000
0030
0000
0100
0010
0200
0000
0000
0000
0302
0000
0000
0000
,
0003
0000
0000
0000
0000
0000
1000
0010
2000
0000
0000
0000
3002
0000
0000
0000
,
0003
0010
0000
0001
0000
0011
0000
0101
,
0000
0000
0011
0000
0000
0000
0101
0000
0000
1000
0000
1000
0000
0100
0000
0000
,
2002
0000
0000
0000
3003
0000
0010
0100
0010
0000
0100
0000
0000
0000
0100
0000
,
0010
0000
0000
0000
1001
0000
0000
1000
0100
0000
0000
0000
1001
0000
0000
0000
,
0010
0000
0000
0000
1001
0000
0000
0001
0100
0000
0000
0000
1001
0000
0000
0000
,
0010
0000
0000
0000
1001
0000
0000
1000
0100
0000
0000
1000
1000
0000
0010
0000
,
0000
0000
0100
0000
0001
0000
1000
0010
1000
0000
0001
0000
0010
0000
0100
0000
,
1000
0000
0100
0000
0010
0000
0100
1000
0100
0000
1000
0000
0010
0000
0100
0000
,
0001
0000
0010
0000
0100
0000
0010
0001
0010
0000
0100
0000
1000
0000
0001
0000
,
0100
0000
0010
0000
1000
0000
0010
0100
0010
0000
0100
0000
0001
0000
0010
0000
,
0000
0000
0001
0000
0100
0000
0001
0010
0100
0000
0000
1100
0000
0000
1010
0000
,
0000
0000
1000
0000
0100
0000
1000
0010
0100
0000
0000
0101
0000
0000
0011
0000
,
0000
0000
0001
0000
0100
0000
0001
0010
0100
0000
0000
1100
0000
0000
1010
0000
,
0000
0000
1000
0000
0100
0000
1000
0010
0100
0000
0000
0101
0000
0000
0011
0000
,
0000
0000
1000
0001
0000
0100
0000
0010
,
1000
0000
0001
0100
0000
0000
0001
0000
,
0010
0000
0000
0000
0100
0000
1000
0000
0000
0000
0010
0000
0000
0000
0010
0100
,
0000
0000
0110
0000
0000
0000
0010
0100
0000
0010
0000
0100
0000
0110
0000
0000
,
1001
0100
0001
0100
1000
0100
0001
0100
,
0010
0100
1000
0100
0001
0100
1000
0100
,
0010
0100
1000
0100
0001
0100
1000
0100
,
0001
0000
0000
0000
0001
0000
0000
0000
0001
0000
0000
0000
0001
0010
0100
1000
,
0000
0000
1000
0000
0100
0000
0010
0100
1000
0000
0100
0000
0001
0000
0100
0000
,
0010
0000
0001
0000
0100
0000
0010
0100
0001
0000
1000
0000
0100
0000
0001
0000
,
0100
0000
1000
0000
0001
0000
0010
0001
1000
0000
0010
0000
0100
0000
0001
0000
,
0010
0000
0100
0000
1000
0000
0010
0100
0001
0000
0010
0000
0100
0000
1001
0000
,
0001
0000
0100
0000
0001
0000
0010
0001
1000
0000
0010
0000
0100
0000
0110
0000
,
0001
0000
0010
0000
0100
0000
0010
0001
1000
0000
0100
0000
1000
0000
0101
0000
,
0001
0000
0010
0000
0100
0000
0010
0001
1000
0000
0010
0000
0100
0000
1010
0000
,
1000
0000
0001
0000
0010
0000
0100
0010
0001
0000
1000
0000
0010
0000
1001
0000
,
1000
0000
0000
0000
1000
0000
0001
0000
1000
0000
0000
0010
1000
0000
0000
0000
,
1000
0000
0000
0000
1000
0000
0001
0000
1000
0000
0000
0010
1000
0000
0000
0000
,
1001
0000
0000
0000
0001
0000
1000
0000
0010
0000
0100
0001
0000
0000
1000
0000
,
0000
0000
0010
0000
0100
0000
0001
0000
1000
0000
0010
0100
0000
0001
0000
0000
;
