#TITLE:It's a B Movie;
#SUBTITLE:;
#ARTIST:David Newman;
#TITLETRANSLIT:;
#SUBTITLETRANSLIT:;
#ARTISTTRANSLIT:;
#GENRE:;
#CREDIT:;
#BANNER:Its a B movie-bn.png;
#BACKGROUND:Its a B movie-bg.png;
#LYRICSPATH:;
#CDTITLE:;
#MUSIC:Its a B movie.ogg;
#OFFSET:0.000000;
#SAMPLESTART:80.069000;
#SAMPLELENGTH:16.077440;
#SELECTABLE:YES;
#BPMS:0.000000=119.718002
,24.000000=119.873001
,56.000000=120.077003
,88.000000=119.700996
,120.000000=120.033005
,160.000000=119.421997
,192.000000=119.888000
,216.000000=119.843002
;
#STOPS:
;
#BGCHANGES:;
#KEYSOUNDS:;
#ATTACKS:;

//---------------dance-single - ----------------
#NOTES:
     dance-single:
     :
     Beginner:
     3:
     0.119192,0.197517,0.034055,0.017027,0.000000,98.000000,94.000000,4.000000,2.000000,0.000000,0.000000,0.119192,0.197517,0.034055,0.017027,0.000000,98.000000,94.000000,4.000000,2.000000,0.000000,0.000000:
// measure 0
0000
0000
0000
0000
,  // measure 1
0000
0000
0000
0000
,  // measure 2
0000
0000
0000
0000
,  // measure 3
0000
0000
0000
0000
,  // measure 4
0000
0000
0000
0000
,  // measure 5
0000
0000
0000
0000
,  // measure 6
1000
0000
0000
0000
,  // measure 7
0001
0000
0000
0000
,  // measure 8
0100
0000
0010
0000
,  // measure 9
0100
0000
0000
0000
,  // measure 10
0000
0001
0001
0000
,  // measure 11
1000
0000
1000
0000
,  // measure 12
0100
0100
0100
0000
,  // measure 13
0010
0010
0010
0000
,  // measure 14
0001
0000
0010
0000
,  // measure 15
0001
0000
0000
0000
,  // measure 16
1000
0000
0010
0000
,  // measure 17
1000
0000
0000
0000
,  // measure 18
0000
0001
0001
0000
,  // measure 19
1000
1000
1000
0000
,  // measure 20
0010
0010
0010
0000
,  // measure 21
0100
0100
0100
0000
,  // measure 22
1001
0000
0000
0000
,  // measure 23
1000
1000
1000
0000
,  // measure 24
0001
0001
0001
0000
,  // measure 25
0100
0000
0010
0000
,  // measure 26
0100
0000
0000
0000
,  // measure 27
0001
0001
0001
0000
,  // measure 28
1000
1000
1000
0000
,  // measure 29
0100
0000
0010
0000
,  // measure 30
0001
0000
0001
0000
,  // measure 31
1000
0000
1000
0000
,  // measure 32
0100
0000
0010
0000
,  // measure 33
0100
0000
0000
1000
,  // measure 34
1000
0000
1001
0000
,  // measure 35
0001
0000
0001
0000
,  // measure 36
0100
0100
0100
0000
,  // measure 37
0010
0010
0010
0000
,  // measure 38
1000
0000
0001
0000
,  // measure 39
1000
0000
0110
0000
,  // measure 40
0000
2000
0000
0000
,  // measure 41
3000
0000
0000
0000
,  // measure 42
0001
0000
0001
0000
,  // measure 43
0010
0000
0000
0000
,  // measure 44
0000
0002
0000
0000
,  // measure 45
0003
0000
0000
0000
,  // measure 46
1000
0000
1000
0000
,  // measure 47
0010
0000
0000
0000
,  // measure 48
1000
0000
0000
0000
,  // measure 49
0001
0000
0000
0000
,  // measure 50
1000
0000
0000
0000
,  // measure 51
0001
0000
0000
0000
,  // measure 52
0100
0000
0000
0000
,  // measure 53
0010
0000
0000
0000
,  // measure 54
1000
0000
0010
0000
,  // measure 55
1000
0000
0100
0000
,  // measure 56
0010
0000
0001
0000
,  // measure 57
0100
0000
0000
0000
,  // measure 58
1001
0000
0000
0000
;

//---------------dance-single - ----------------
#NOTES:
     dance-single:
     :
     Easy:
     4:
     0.184868,0.246897,0.102164,0.144733,0.012771,152.000000,140.000000,12.000000,17.000000,6.000000,0.000000,0.184868,0.246897,0.102164,0.144733,0.012771,152.000000,140.000000,12.000000,17.000000,6.000000,0.000000:
// measure 0
0000
0000
0000
0000
,  // measure 1
0000
0000
0000
0000
,  // measure 2
0000
0000
0000
0000
,  // measure 3
0000
0000
0000
0000
,  // measure 4
0000
0000
0000
0000
,  // measure 5
0000
0000
0000
0000
,  // measure 6
1000
0000
0000
0001
0000
0000
0000
0000
,  // measure 7
1000
0010
1000
0000
,  // measure 8
0200
0000
0320
0000
,  // measure 9
0031
0100
0010
1000
,  // measure 10
0000
0001
0000
0000
1000
0000
0000
0000
,  // measure 11
0001
0010
0001
0000
,  // measure 12
1000
0100
0010
0000
,  // measure 13
0001
0100
0010
0000
,  // measure 14
1000
0000
0000
0010
0000
0000
0000
0000
,  // measure 15
1000
0100
1000
0000
,  // measure 16
0200
0000
0320
0000
,  // measure 17
0031
0100
0001
0010
,  // measure 18
0000
0001
0000
0000
1000
0000
0100
0000
,  // measure 19
0001
0100
1000
0000
,  // measure 20
0001
0100
0001
0000
,  // measure 21
1000
0001
0110
0000
,  // measure 22
1010
0000
0000
1000
,  // measure 23
0001
0010
0001
0000
,  // measure 24
1000
0010
1000
0000
,  // measure 25
0001
0010
0100
1000
,  // measure 26
0000
0011
0000
0001
,  // measure 27
1000
0100
1000
0000
,  // measure 28
0001
0100
0001
0000
,  // measure 29
1000
0100
0010
0001
,  // measure 30
1000
0010
0001
0010
,  // measure 31
1000
0001
1000
0000
,  // measure 32
0100
1000
0010
1000
,  // measure 33
0200
0000
0000
0000
0300
0010
0010
0010
,  // measure 34
0000
0011
0000
0000
0001
0000
0100
0000
,  // measure 35
1000
0100
0001
0000
,  // measure 36
0100
0010
1000
0000
,  // measure 37
0100
0010
0001
0000
,  // measure 38
1000
0010
1000
0001
,  // measure 39
0010
0001
1001
0000
,  // measure 40
0000
2000
0000
3010
,  // measure 41
1000
0000
0100
0000
,  // measure 42
0010
0001
0100
0001
,  // measure 43
2000
0000
0000
3000
,  // measure 44
0000
0002
0000
0013
,  // measure 45
0001
0000
0100
0000
,  // measure 46
0010
1000
0100
1000
,  // measure 47
0002
0000
0000
0003
,  // measure 48
1000
0000
0000
1010
0000
0000
0000
0000
,  // measure 49
0001
0000
0000
0011
0000
0000
0000
0000
,  // measure 50
1000
0000
0000
1100
0000
0000
0000
0000
,  // measure 51
0001
0000
0000
0101
0000
0000
0000
0000
,  // measure 52
1000
0000
0000
1001
0000
0000
0000
0000
,  // measure 53
0001
0000
0000
1001
0000
0000
0000
0000
,  // measure 54
2000
0000
3200
0000
,  // measure 55
0320
0000
0032
0000
,  // measure 56
2003
0000
0M00
00M0
0000
0000
0000
0000
0002
0000
0000
0000
3003
0000
0000
0000
,  // measure 57
0220
0000
0000
M000
000M
0000
M000
000M
0000
0000
0000
0000
0000
0000
0000
0000
0000
0000
0000
0000
0000
0000
0000
0000
,  // measure 58
0330
0000
0000
0000
;

//---------------dance-single - ----------------
#NOTES:
     dance-single:
     :
     Medium:
     8:
     0.273654,0.345655,0.110678,0.195815,0.089394,225.000000,212.000000,13.000000,23.000000,6.000000,0.000000,0.273654,0.345655,0.110678,0.195815,0.089394,225.000000,212.000000,13.000000,23.000000,6.000000,0.000000:
// measure 0
0000
0000
0000
0000
,  // measure 1
0000
0000
0000
0000
,  // measure 2
0000
0000
0000
0000
,  // measure 3
0000
0000
0000
0000
,  // measure 4
0000
0000
0000
0000
,  // measure 5
0000
0000
0000
0000
,  // measure 6
1000
0000
0001
0010
0000
0000
0000
0000
,  // measure 7
0001
0000
0100
0000
0001
0000
0000
1000
0000
0000
0000
0000
0000
0000
0000
0000
,  // measure 8
0200
0000
0320
0000
,  // measure 9
0130
1000
0010
1000
,  // measure 10
0000
0001
0000
0100
0010
0000
0000
0000
,  // measure 11
1000
0000
0010
0000
1000
0000
0000
0001
0000
0000
0000
0000
0000
0000
0000
0000
,  // measure 12
0010
0000
0100
0000
1000
0000
0000
1010
0000
0000
0000
0000
0000
0000
0000
0000
,  // measure 13
0010
0000
0100
0000
0001
0000
0000
0011
0000
0000
0000
0000
0100
0000
1000
0000
,  // measure 14
0010
0000
0100
0001
0000
0000
0000
0000
,  // measure 15
1000
0000
0100
0000
1000
0000
0000
0010
0000
0000
0000
0000
0000
0000
0000
0000
,  // measure 16
0200
0000
0320
0000
,  // measure 17
0130
0001
1000
0001
,  // measure 18
0000
0010
0000
0100
1000
0000
1000
0000
,  // measure 19
0001
0100
1000
0100
0001
0000
0000
0000
,  // measure 20
1000
0000
0010
0000
1000
0000
0000
0101
0000
0000
0000
0000
0000
0000
0000
0000
,  // measure 21
0001
0000
1000
0000
0001
0000
0000
0110
0000
0000
0000
0000
1000
0000
0000
0000
,  // measure 22
0020
0000
0000
0000
0030
1000
0100
1000
,  // measure 23
0001
0000
0000
0010
0000
0000
0002
0000
0000
0000
0003
0000
1000
0000
0001
0000
,  // measure 24
1000
0000
0000
0010
0000
0000
2000
0000
0000
0000
3000
0000
0110
0000
0000
0000
,  // measure 25
0001
0100
0001
0010
0001
0100
0010
1000
,  // measure 26
0001
0000
0020
0000
0000
0031
0010
0100
,  // measure 27
1000
0000
0000
0001
0000
0000
1000
0000
0000
0000
0000
0000
0010
0000
0100
0000
,  // measure 28
0001
0000
0000
1000
0000
0000
0001
0000
0000
0000
0000
0000
1001
0000
0000
0000
,  // measure 29
1000
0100
1000
0010
1000
0100
0010
0001
,  // measure 30
0100
1000
0100
0001
,  // measure 31
0100
0000
0010
0000
1000
0000
0000
0001
0000
0000
0000
0000
0000
0000
0000
0000
,  // measure 32
0010
0001
0010
0000
0100
1000
0100
0000
,  // measure 33
2002
0000
0000
0000
3003
0001
1000
0010
,  // measure 34
0000
0102
0000
0010
0013
0000
0100
0000
,  // measure 35
0001
0100
1000
0000
,  // measure 36
0001
0100
1000
0100
0010
0000
0000
0000
,  // measure 37
1000
0100
0001
0100
0010
0000
0000
0000
,  // measure 38
0001
0010
0001
0000
1000
0010
0100
0000
,  // measure 39
0001
0010
0100
0000
0110
0000
0000
0000
,  // measure 40
0000
2000
0000
3010
,  // measure 41
0102
0000
0000
0013
0000
0000
0000
0000
,  // measure 42
0001
1000
0002
0010
0000
0010
0000
0013
,  // measure 43
0000
0000
0100
1000
0001
1000
0010
1000
,  // measure 44
0000
0002
0000
0013
,  // measure 45
2100
0000
0000
3010
0000
0000
0000
0000
,  // measure 46
1000
0001
2000
0010
0000
0010
0000
3010
,  // measure 47
0000
0000
0100
0000
0001
0010
0100
1000
,  // measure 48
0001
0000
0000
0100
0000
0000
0001
0000
0100
0000
0000
0000
0000
0000
0000
0000
,  // measure 49
0001
0000
0000
0010
0000
0000
0001
0000
0010
0000
0000
0000
0000
0000
0000
0000
,  // measure 50
0100
0000
0000
1000
0000
0000
0100
0000
1000
0000
0000
0000
0000
0000
0000
0000
,  // measure 51
0010
0000
0000
1000
0000
0000
0010
0000
1000
0000
0000
0000
0000
0000
0000
0000
,  // measure 52
0001
0000
0000
1000
0000
0000
0001
0000
1000
0000
0000
0000
0000
0000
0000
0000
,  // measure 53
0100
0000
0000
0010
0000
0000
0100
0000
0010
0000
0000
0000
0000
0000
0000
0000
,  // measure 54
0002
0000
0010
0000
,  // measure 55
2003
0000
0010
0000
,  // measure 56
3002
0000
0M00
00M0
0000
0000
0000
0000
2000
0000
0000
0000
3003
0000
0000
0000
,  // measure 57
0220
0000
0000
M000
000M
0000
M000
000M
0000
0000
0000
0000
0000
0000
0000
0000
0000
0000
0330
0000
0000
0000
0000
0000
,  // measure 58
1001
0000
0000
0000
;

//---------------dance-single - ----------------
#NOTES:
     dance-single:
     :
     Hard:
     10:
     0.324736,0.444414,0.068109,0.391629,0.200072,267.000000,259.000000,8.000000,46.000000,32.000000,0.000000,0.324736,0.444414,0.068109,0.391629,0.200072,267.000000,259.000000,8.000000,46.000000,32.000000,0.000000:
// measure 0
0000
0000
0000
0000
,  // measure 1
0000
0000
0000
0000
,  // measure 2
0000
0000
0000
0000
,  // measure 3
0000
0000
0000
0000
,  // measure 4
0000
0000
0000
0000
,  // measure 5
0000
0000
0000
0000
,  // measure 6
1000
0000
0001
0010
0000
0000
0000
0001
,  // measure 7
0100
0000
0001
0000
1000
0000
0100
0010
0000
0000
0000
0000
0000
0000
0000
0000
,  // measure 8
0002
0000
2003
0000
,  // measure 9
3020
0032
2003
3200
,  // measure 10
0300
0001
0000
1000
0010
0000
0000
1000
,  // measure 11
0100
0000
1000
0000
0001
0000
0100
0010
0000
0000
0000
0000
0000
0000
0000
0000
,  // measure 12
1000
0000
0010
0000
1000
0000
0001
0010
0000
0000
0000
0000
MMMM
0000
0000
0000
,  // measure 13
0001
0000
1000
0000
0001
0000
0100
0010
0000
0000
0000
0000
0100
0001
0100
0001
,  // measure 14
0010
0000
0100
1000
0000
0000
0000
0001
,  // measure 15
0100
0000
0001
0000
1000
0000
0100
0010
0000
0000
0000
0000
0000
0000
0000
0000
,  // measure 16
0002
0000
2003
0000
,  // measure 17
3020
0032
2003
3200
,  // measure 18
0300
0001
0000
1000
0100
0001
0100
1000
,  // measure 19
0100
0000
0001
0000
0100
0000
1000
0001
0000
0000
0000
0000
0000
0000
0000
0000
,  // measure 20
1000
0000
0010
0000
1000
0000
0001
0010
0000
0000
0000
0000
MMMM
0000
0000
0000
,  // measure 21
0001
0000
1000
0000
0001
0000
0100
0010
0000
0000
0000
0000
2000
0000
0000
0000
,  // measure 22
3001
0000
0012
0000
0000
0103
0010
1000
,  // measure 23
0001
0000
0000
0020
0000
0030
0020
0000
0030
0000
0000
0000
1000
0000
0001
0000
,  // measure 24
1000
0000
0000
0020
0000
0030
0020
0000
0030
0000
0000
0000
0001
0000
1000
0000
,  // measure 25
0000
0000
0001
0010
0001
0000
1000
0000
0001
0000
0010
0000
0001
0100
0010
1000
,  // measure 26
0001
0000
2010
0000
0000
3100
0010
0001
,  // measure 27
1000
0000
0000
0020
0000
0030
0020
0000
0030
0000
0000
0000
0001
0000
1000
0000
,  // measure 28
0001
0000
0000
0020
0000
0030
0020
0000
0030
0000
0000
0000
1000
0000
0001
0000
,  // measure 29
0000
0000
1000
0010
1000
0000
0001
0000
1000
0000
0100
0000
0010
0000
0001
0000
,  // measure 30
1000
0010
0001
0010
1000
0100
0001
0100
,  // measure 31
1000
0000
0100
0000
0010
0000
0001
1000
0000
0000
0000
0000
0000
0000
0000
0000
,  // measure 32
0001
0000
0100
0000
0001
0000
0000
1000
0010
0000
1000
0000
0100
0000
0000
0010
,  // measure 33
0002
0000
0000
0000
0000
0000
0000
0000
0003
1000
0001
1000
0001
1000
0001
1000
,  // measure 34
0000
1001
0000
1000
0010
0000
0000
1000
,  // measure 35
0001
0000
0100
0000
0001
0000
0010
0100
0000
0000
0000
0000
0000
0000
0000
0000
,  // measure 36
1000
0000
0100
0000
0001
0000
0100
0010
0000
0000
0000
0000
MMMM
0000
0000
0000
,  // measure 37
0001
0000
0100
0000
1000
0000
0100
0010
0000
0000
0000
0000
MMMM
0000
0000
0000
,  // measure 38
1000
0000
0100
0000
1000
0000
0001
0200
0000
0000
1000
0000
130M
0000
1000
0200
,  // measure 39
0000
0000
0001
0000
M301
0000
0001
1000
0000
0000
0000
0000
MMMM
0000
0000
0000
,  // measure 40
0000
0000
2010
0000
0000
0001
3001
0000
,  // measure 41
0012
0000
0000
0000
0000
0000
0103
0000
0000
0000
0000
0000
0001
1000
0000
0000
,  // measure 42
0100
0010
0001
0020
0030
0020
0030
1000
,  // measure 43
0001
0000
0100
0000
0001
0000
1000
0000
0100
0000
0010
0000
0001
0000
1000
0001
,  // measure 44
1000
0000
0012
0000
0000
1000
1003
0000
,  // measure 45
2010
0000
0000
0000
0000
0000
3100
0000
0000
0000
0000
0000
1000
0001
0000
0000
,  // measure 46
0100
0010
1000
0020
0030
0020
0030
0001
,  // measure 47
1000
0100
1000
0001
0100
0010
1000
0001
,  // measure 48
1000
0000
0000
0010
0000
0000
1000
0000
0020
0000
0000
0000
0030
0000
0000
0000
,  // measure 49
0010
0000
0000
0001
0000
0000
0010
0000
0002
0000
0000
0000
0003
0000
0000
0000
,  // measure 50
1000
0000
0000
0100
0000
0000
1000
0000
0200
0000
0000
0000
0300
0000
0000
0000
,  // measure 51
0100
0000
0000
0001
0000
0000
0100
0000
0002
0000
0000
0000
0003
0000
0000
0000
,  // measure 52
1000
0000
0000
0001
0000
0000
1000
0000
0002
0000
0000
0000
0003
0000
0000
0000
,  // measure 53
0100
0000
0000
0010
0000
0000
0100
0000
0020
0000
0000
0000
0030
0000
0000
0000
,  // measure 54
2000
0000
0010
0000
,  // measure 55
3002
0000
0010
0000
,  // measure 56
2003
0000
0M00
00M0
0000
0000
0000
0000
0002
0000
0000
0000
0000
0000
3003
0000
,  // measure 57
0220
0000
0000
M000
000M
0000
M000
000M
0000
0000
0000
0000
0000
0000
0000
0000
0000
0000
0330
0000
0000
0000
0000
0000
,  // measure 58
MMMM
0000
0000
0000
;
