#VERSION:0.83;
#TITLE:It is a Toddler Song, But...;
#SUBTITLE:;
#ARTIST:Metal Toddler;
#TITLETRANSLIT:;
#SUBTITLETRANSLIT:;
#ARTISTTRANSLIT:;
#GENRE:WORLD MUSIC;
#ORIGIN:;
#CREDIT:MANA;
#BANNER:It is a Toddler Song But.png;
#BACKGROUND:It is a Toddler Song But-bg.png;
#PREVIEWVID:;
#JACKET:It is a Toddler Song But-jacket.png;
#CDIMAGE:;
#DISCIMAGE:It is a Toddler Song But.png;
#LYRICSPATH:;
#CDTITLE:;
#MUSIC:It is a Toddler Song But.ogg;
#OFFSET:0.250000;
#SAMPLESTART:35.678005;
#SAMPLELENGTH:14.611553;
#SELECTABLE:YES;
#DISPLAYBPM:180.000000;
#BPMS:0.000=180.000;
#STOPS:;
#DELAYS:;
#WARPS:;
#TIMESIGNATURES:0.000=4=4;
#TICKCOUNTS:0.000=4;
#COMBOS:0.000=1;
#SPEEDS:0.000=1.000=0.000=0;
#SCROLLS:0.000=1.000;
#FAKES:;
#LABELS:0.000=Song Start;
#BGCHANGES:0.000=It is a Toddler Song But.avi=1.000=1=0=0=StretchNoLoop==CrossFade==,
99999=-nosongbg-=1.000=0=0=0 // don't automatically add -songbackground-
;
#KEYSOUNDS:;
#ATTACKS:
;

//---------------dance-single - ----------------
#NOTEDATA:;
#CHARTNAME:;
#STEPSTYPE:dance-single;
#DESCRIPTION:;
#CHARTSTYLE:;
#DIFFICULTY:Beginner;
#METER:4;
#RADARVALUES:0.165033,0.257301,0.064628,0.048471,0.000000,143.000000,135.000000,8.000000,6.000000,0.000000,0.000000,0.000000,0.000000,0.000000,0.165033,0.257301,0.064628,0.048471,0.000000,143.000000,135.000000,8.000000,6.000000,0.000000,0.000000,0.000000,0.000000,0.000000;
#CREDIT:MANA;
#DISPLAYBPM:180.000000;
#NOTES:
0000
0000
0000
0000
,
0000
0000
0000
0000
,
0000
0000
0000
0000
,
1000
0000
0000
0000
,
1000
0000
0000
0000
,
1000
0000
0000
0000
,
1000
0000
1000
0000
,
0001
0000
0000
0000
,
0001
0000
0000
0000
,
0001
0000
0000
0000
,
0001
0000
0001
0000
,
0100
0000
0000
0000
,
0100
0000
0000
0000
,
0100
0000
0000
0000
,
0100
0000
0100
0000
,
0010
0000
0000
0000
,
0010
0000
0010
0000
,
0010
0000
0000
0000
,
0010
0000
0010
0000
,
1000
0000
0000
0000
,
0001
0000
0000
0000
,
2000
0000
3000
0000
,
1000
0000
1000
0000
,
0001
0000
0000
0000
,
1000
0000
0000
0000
,
0002
0000
0003
0000
,
0001
0000
0001
0000
,
1000
0000
0100
0000
,
0010
0000
0001
0000
,
0100
0000
0100
0000
,
0100
0000
0000
0000
,
0001
0000
0010
0000
,
0100
0000
1000
0000
,
0010
0000
0010
0000
,
0010
0000
0000
0000
,
1000
0000
0001
0000
,
1000
0000
0000
0000
,
0001
0000
1000
0000
,
0001
0000
0001
0000
,
0100
0000
0010
0000
,
0100
0000
0000
0000
,
0010
0000
0100
0000
,
0010
0000
0010
0000
,
2002
0000
0000
0000
,
0000
0000
0000
0000
,
0000
0000
0000
0000
,
0000
0000
3003
0000
,
1001
0000
0000
0000
,
1001
0000
0000
0000
,
1000
0000
0001
0000
,
1000
0000
1000
0000
,
1001
0000
0000
0000
,
1001
0000
0000
0000
,
0001
0000
1000
0000
,
0001
0000
0001
0000
,
0100
0000
0000
0000
,
0010
0000
0000
0000
,
0200
0000
0300
0000
,
0100
0000
0100
0000
,
0010
0000
0000
0000
,
0100
0000
0000
0000
,
0020
0000
0030
0000
,
0010
0000
0010
0000
,
1000
0000
0001
0000
,
0100
0000
0010
0000
,
1000
0000
1000
0000
,
1000
0000
0000
0000
,
0001
0000
1000
0000
,
0010
0000
0100
0000
,
0001
0000
0001
0000
,
0001
0000
0000
0000
,
1000
0000
0100
0000
,
0010
0000
0000
0000
,
0001
0000
0010
0000
,
0100
0000
0000
0000
,
1000
0000
0010
0000
,
0100
0000
0000
0000
,
0001
0000
0100
0000
,
0010
0000
0000
0000
,
1000
0000
0001
0000
,
1000
0000
0001
0000
,
0010
0000
0100
0000
,
0010
0000
0100
0000
,
1000
1000
0000
0000
,
1000
1000
0000
1000
,
1000
0000
0001
0000
,
1001
0000
1000
0000
,
0001
0001
0000
0000
,
0001
0001
0000
0001
,
0001
0000
1000
0000
,
1001
0000
0010
0000
,
0110
0000
0000
0000
;

//---------------dance-single - ----------------
#NOTEDATA:;
#CHARTNAME:;
#STEPSTYPE:dance-single;
#DESCRIPTION:;
#CHARTSTYLE:;
#DIFFICULTY:Easy;
#METER:7;
#RADARVALUES:0.276978,0.367573,0.064628,0.113099,0.000000,240.000000,232.000000,8.000000,14.000000,0.000000,0.000000,0.000000,0.000000,0.000000,0.276978,0.367573,0.064628,0.113099,0.000000,240.000000,232.000000,8.000000,14.000000,0.000000,0.000000,0.000000,0.000000,0.000000;
#CREDIT:MANA;
#DISPLAYBPM:180.000000;
#NOTES:
0000
0000
0000
0000
,
0000
0000
0000
0000
,
0000
0000
0000
0000
,
1000
0000
0001
0000
,
1000
0000
0001
0000
,
1000
0000
0001
0000
,
1000
0000
1000
0000
,
0010
0000
0100
0000
,
0010
0000
0100
0000
,
0010
0000
0100
0000
,
0010
0000
0010
0000
,
1000
0000
0100
0000
,
0010
0000
0001
0000
,
0010
0000
0100
0000
,
1000
0000
0001
0000
,
0100
0100
0100
0000
,
0010
0010
0010
0000
,
1000
1000
0001
0001
,
1000
0001
1000
0001
,
0200
0000
0300
0000
,
0020
0000
0030
0000
,
0200
0000
0300
0000
,
0010
1000
0001
1000
,
0020
0000
0030
0000
,
0200
0000
0300
0000
,
0020
0000
0030
0000
,
0100
0001
1000
0001
,
0100
0100
0000
0000
,
0100
0100
0000
0100
,
0100
0001
1000
0010
,
0110
0000
0000
0000
,
0010
0010
0000
0000
,
0010
0010
0000
0010
,
0010
1000
0001
0100
,
0110
0000
0000
0000
,
0010
1000
0100
0010
,
0001
0010
0000
0010
,
0001
0010
0100
1000
,
0001
0000
1000
0000
,
0001
0100
0010
1000
,
0001
1000
0000
1000
,
0010
0100
0001
1000
,
0001
0000
1000
0000
,
2002
0000
0000
0000
,
0000
0000
0000
0000
,
0000
0000
0000
0000
,
0000
0000
0000
3003
,
1000
1000
0000
0000
,
0001
0001
0000
1000
,
1000
0100
0010
0001
,
0100
0000
0000
0100
0000
0000
0010
0000
,
0100
0100
0000
0000
,
0010
0010
0000
0100
,
0010
1000
0001
0010
,
0100
0000
0000
0100
0000
0000
0010
0000
,
0200
0000
0300
0000
,
2000
0000
3000
0000
,
0020
0000
0030
0000
,
1000
0100
0010
0001
,
0020
0000
0030
0000
,
0002
0000
0003
0000
,
0200
0000
0300
0000
,
0001
0010
0100
1000
,
0001
0001
0100
0000
,
0001
0001
0010
0000
,
0001
0100
0001
0010
,
0001
0000
0000
0001
0000
0000
0001
0000
,
1000
1000
0010
0000
,
1000
1000
0100
0000
,
1000
0010
1000
0100
,
1000
0000
0000
1000
0000
0000
0001
0000
,
1000
0100
0010
0001
,
0010
0010
0000
0001
,
0100
0010
1000
0010
,
0010
0000
0000
0100
0000
0000
0010
0000
,
1000
0001
0010
0100
,
1000
1000
0000
0001
,
1000
0010
0100
0001
,
0001
0000
0000
1000
0000
0000
0001
0000
,
0100
0010
0100
0010
,
1000
0001
1000
0001
,
0010
0100
1000
0100
,
0010
0001
0100
0010
,
1000
1001
0000
0000
,
0001
1001
0000
1000
,
1000
0010
0100
0001
,
0010
0000
0000
0100
0000
0000
0010
0000
,
0001
1001
0000
0000
,
1000
1001
0000
0001
,
0010
0100
1000
0010
,
0100
0000
0000
0001
0000
0000
1000
0000
,
1001
0000
0000
0000
;

//---------------dance-single - ----------------
#NOTEDATA:;
#CHARTNAME:;
#STEPSTYPE:dance-single;
#DESCRIPTION:;
#CHARTSTYLE:;
#DIFFICULTY:Medium;
#METER:12;
#RADARVALUES:0.535491,0.663449,0.630125,0.177728,0.000000,464.000000,386.000000,78.000000,22.000000,0.000000,0.000000,2.000000,0.000000,0.000000,0.535491,0.663449,0.630125,0.177728,0.000000,464.000000,386.000000,78.000000,22.000000,0.000000,0.000000,2.000000,0.000000,0.000000;
#CREDIT:MANA;
#DISPLAYBPM:180.000000;
#NOTES:
0000
0000
0000
0000
,
0000
0000
0000
0000
,
0000
0000
0000
0000
,
1000
1000
0000
0000
0010
0000
1000
0000
,
0001
0001
0000
0000
0100
0000
0001
0000
,
1000
1000
0000
0000
0010
0000
1000
0000
,
1001
0000
0000
0101
0000
0000
0110
0000
,
0010
0010
0000
0000
1000
0000
0010
0000
,
0100
0100
0000
0000
0001
0000
0100
0000
,
0010
0010
0000
0000
1000
0000
0010
0000
,
0110
0000
0000
0101
0000
0000
1001
0000
,
1000
0100
1000
0000
0010
0000
1000
0000
,
0001
0010
0001
0000
0100
0000
0001
0000
,
1000
0100
1000
0000
0100
0000
0010
0000
,
0011
0000
0000
1100
0000
0000
1001
0000
,
0001
0100
0001
0000
1000
0010
1000
0000
,
0001
1000
0001
1000
0010
0100
0010
0100
,
0001
0010
0001
0000
1000
0100
1000
0000
,
1010
0000
0000
0101
0000
0000
0110
0000
,
1002
0000
0023
0000
,
0230
0000
2300
0000
,
0002
0000
0000
3003
,
0101
0000
0000
1100
0000
0000
0101
0000
,
2001
0000
3020
0000
,
0230
0000
0302
0000
,
2000
0000
0000
3003
,
1010
0000
0000
0011
0000
0000
1010
0000
,
1000
1000
1100
1100
,
0001
0001
0011
0011
,
0010
0100
1000
0001
,
1001
0000
1000
0010
0000
0010
0100
0000
,
0001
0001
0101
0101
,
1000
1000
1010
1010
,
0010
0100
0001
1000
,
1001
0000
0001
0010
0000
0010
0100
0000
,
1000
0010
0001
0010
,
1000
1100
0000
0001
,
0100
1000
0100
0001
,
0011
0000
0010
0100
0000
0100
1000
0000
,
0010
1000
0010
0000
0100
0001
0100
0000
,
0010
1000
0010
0000
1000
0001
1000
0000
,
0001
0010
0001
0000
1000
0010
1000
0000
,
0001
0010
0001
0000
0100
0010
0100
0000
,
4004
0000
0000
0000
,
0000
0000
0000
0000
,
0000
0000
0000
0000
,
0000
0000
0000
3003
,
0001
0000
0101
0000
0100
0010
1000
0000
,
0010
0000
1010
0000
1000
0100
0010
0000
,
0100
0001
0100
1000
,
0010
0000
0001
0010
0000
0100
0010
0000
,
1000
0000
1100
0000
0100
0010
0001
0000
,
0010
0000
0011
0000
0001
0100
0010
0000
,
0100
1000
0100
0001
,
0010
0000
1000
0010
0000
0010
0100
0000
,
0120
0000
0032
0000
,
2003
0000
3020
0000
,
0200
0000
0000
0330
,
0101
0000
0001
0010
0100
1000
0010
0000
,
0210
0000
0302
0000
,
2003
0000
3200
0000
,
0020
0000
0000
0330
,
1100
0000
1000
0010
0100
0001
1000
0000
,
0001
0010
0100
0000
1100
0000
1100
0000
,
1000
0010
0100
0000
0101
0000
0101
0000
,
0011
0100
1100
0010
,
0110
0000
0100
1000
0100
0010
0001
0000
,
1000
0010
0100
0000
0101
0000
0101
0000
,
0001
0010
0100
0000
1100
0000
1100
0000
,
1010
0100
0101
0010
,
0110
0000
0100
0001
0100
0010
1000
0000
,
0001
0010
0100
1000
0100
0010
0001
0000
,
0101
1010
1000
0001
,
0010
0100
1000
0000
0001
0010
0100
0000
,
0110
0000
1000
0010
0100
0001
1000
0000
,
0001
0100
0010
1000
0010
0100
0001
0000
,
0011
1100
0100
0010
,
0001
0100
0010
0000
1000
0010
0100
0000
,
0001
1000
0100
0010
0001
1000
0010
0100
,
0001
0010
0001
0010
0100
1000
0100
1000
,
0010
1000
0010
1000
0001
0100
0001
0100
,
0001
0010
0100
1000
0001
0100
0010
1000
,
0100
0010
0001
1000
0010
0100
0001
0010
,
0100
1000
0100
0000
1100
0000
0101
0000
,
0100
1000
0100
0000
0101
0000
1100
0000
,
1010
0011
0101
1100
,
1001
0000
1000
0100
0001
0100
1000
0010
,
0100
0001
0100
0000
0101
0000
1100
0000
,
0100
0001
0100
0000
1100
0000
0101
0000
,
0011
1010
1100
0101
,
0001
0010
1000
0010
0001
0100
1000
0100
,
2002
3003
0000
0000
;

//---------------dance-single - ----------------
#NOTEDATA:;
#CHARTNAME:;
#STEPSTYPE:dance-single;
#DESCRIPTION:;
#CHARTSTYLE:;
#DIFFICULTY:Hard;
#METER:16;
#RADARVALUES:0.760535,0.958315,0.363534,0.920952,0.226199,659.000000,614.000000,45.000000,114.000000,0.000000,0.000000,2.000000,0.000000,0.000000,0.760535,0.958315,0.363534,0.920952,0.226199,659.000000,614.000000,45.000000,114.000000,0.000000,0.000000,2.000000,0.000000,0.000000;
#CREDIT:MANA;
#DISPLAYBPM:180.000000;
#NOTES:
0000
0000
0000
0000
,
0000
0000
0000
0000
,
0000
0000
0000
0000
,
1000
1000
0001
1000
0001
1000
0010
0100
,
0001
0001
1000
0001
1000
0001
0100
0010
,
1000
1000
0001
0100
0010
0100
0001
1000
,
2010
0000
0000
0000
3001
0000
0102
0000
0000
0000
1003
0000
1000
0100
1000
0000
,
0001
0001
0100
0001
0100
0001
0010
0100
,
1000
1000
0010
1000
0010
1000
0100
0010
,
0001
0001
0100
0010
1000
0001
0010
0100
,
0210
0000
0000
0000
1300
0000
0120
0000
0000
0000
0031
0000
0001
0100
0001
0000
,
1000
1000
0010
1000
0010
0001
0010
1000
,
0001
0001
0100
1000
0100
1000
0100
0001
,
1000
1000
0010
0001
0010
1000
0100
0010
,
0012
0000
0103
0000
0010
0000
0120
0000
1030
0000
0100
0000
0010
0100
0010
0000
,
0001
0001
0100
0100
0010
0010
1000
1000
,
0001
0100
0001
0000
1000
0100
1000
0000
0001
0010
0001
0000
1000
0010
1000
0000
,
0100
0100
0010
0010
0001
0001
1000
1000
,
1020
0000
0130
0000
0001
0000
0201
0000
0310
1000
0001
0000
0100
0001
1000
0000
,
1200
0000
0302
0000
,
0203
0000
2300
0000
,
3020
0000
0100
0200
0000
0000
0330
0000
,
0010
1000
0200
0300
0000
0000
1000
0010
0200
0300
0000
0000
0010
1000
0001
0000
,
0021
0000
2030
0000
,
3020
0000
0032
0000
,
0203
0000
0010
0020
0000
0000
0330
0000
,
0100
0001
0020
0030
0000
0000
0001
0100
0020
0030
0000
0000
0100
0001
1000
0000
,
1010
0000
1010
0000
1000
0100
0020
0030
,
0011
0000
0011
0000
0001
0100
0020
0030
,
1000
0100
0010
0100
1000
0100
0010
0001
,
0200
0300
0000
0000
0200
0300
0000
0000
1000
0000
0000
0000
0020
0030
0000
0000
0020
0030
0000
0000
0001
0000
0000
0000
0100
0000
0000
0000
0100
0000
0000
0000
,
0101
0000
0101
0000
0001
0010
0200
0300
,
1100
0000
1100
0000
1000
0010
0200
0300
,
0001
0010
0100
0010
0001
0010
0100
1000
,
0020
0030
0000
0000
0020
0030
0000
0000
0001
0000
0000
0000
0200
0300
0000
0000
0200
0300
0000
0000
1000
0000
0000
0000
0010
0000
0000
0000
0010
0000
0000
0000
,
0100
0001
0100
1000
0100
0001
0100
1000
,
0100
0001
0202
0303
0000
0000
0001
0010
,
0100
0001
0100
1000
0100
0001
0100
1000
,
0020
0030
0000
0000
0020
0030
0000
0000
0001
0000
0000
0000
0200
0300
0000
0000
0200
0300
0000
0000
1000
0000
0000
0000
0010
0000
0000
0000
0010
0000
0000
0000
,
0100
0001
0100
0000
0010
0000
1000
0000
0100
0010
0100
0000
1000
0000
0010
0000
,
0100
0001
0100
0000
0220
0000
0330
0000
0000
0000
0000
0000
0100
0000
0010
0000
,
1000
0100
1000
0000
0001
0000
0010
0000
0100
0010
0100
0000
0010
0000
0001
0000
,
0200
0300
0000
0000
0200
0300
0000
0000
1000
0000
0000
0000
0020
0030
0000
0000
0020
0030
0000
0000
0001
0000
0000
0000
1000
0000
0000
0000
0001
0000
0000
0000
,
4004
0000
0000
0000
,
0000
0000
0000
0000
,
0000
0000
0000
0000
,
0000
0000
0000
3003
,
1010
0000
0101
0000
1000
0100
0010
0001
,
0101
0000
1010
0000
0001
0010
0100
1000
,
0010
0001
0010
1000
0010
0001
0010
1000
,
0200
0300
0000
0000
0200
0300
0000
0000
0001
0000
0000
0000
0020
0030
0000
0000
0020
0030
0000
0000
1000
0000
0000
0000
0100
0000
0000
0000
0010
0000
0000
0000
,
0011
0000
1100
0000
0001
0100
0010
1000
,
1100
0000
0011
0000
1000
0010
0100
0001
,
0010
1000
0010
0001
0010
1000
0010
0001
,
0200
0300
0000
0000
0200
0300
0000
0000
1000
0000
0000
0000
0020
0030
0000
0000
0020
0030
0000
0000
0001
0000
0000
0000
0100
0000
0000
0000
0010
0000
0000
0000
,
2010
0000
3200
0000
,
0302
0000
2003
0000
,
3020
0000
0000
0032
0000
0000
2000
0000
0000
0000
0000
0000
3003
0000
0000
0000
,
1010
0000
0010
0100
0001
0000
0010
0000
0001
0100
0010
0000
1000
0100
0010
0000
,
0012
0000
0203
0000
,
2300
0000
3002
0000
,
0023
0000
0000
0000
2030
0000
0000
0002
0000
0000
0000
0000
3003
0000
0000
0000
,
0011
0000
0010
0100
1000
0000
0010
0000
1000
0100
0010
0000
0001
0100
0010
0000
,
1000
0100
2100
0000
3001
0100
0102
0000
,
1003
0100
2100
0000
3001
0100
0010
0100
,
0001
0010
1000
0010
0001
0100
1000
0100
,
0002
0003
0000
0000
0002
0003
0000
0000
0010
0000
0000
0000
2000
3000
0000
0000
2000
3000
0000
0000
0100
0000
0000
0000
0001
0000
0000
0000
1000
0000
0000
0000
,
0001
0100
0102
0000
1003
0100
2100
0000
,
3001
0100
0102
0000
1003
0100
0010
0100
,
1000
0010
0001
0010
1000
0100
0001
0100
,
2000
3000
0000
0000
2000
3000
0000
0000
0010
0000
0000
0000
0002
0003
0000
0000
0002
0003
0000
0000
0100
0000
0000
0000
1000
0000
0000
0000
0001
0000
0000
0000
,
1000
0010
0001
1000
0100
0001
1000
0010
,
0100
0001
0022
0033
0000
0000
0010
0100
,
1000
0010
0001
1000
0100
0001
0010
0100
,
2000
3000
0000
0000
2000
3000
0000
0000
0010
0000
0000
0000
0002
0003
0000
0000
0002
0003
0000
0000
0100
0000
0000
0000
1000
0000
0000
0000
1000
0000
0000
0000
,
0010
0100
0010
0000
0001
0000
0010
0000
1000
0100
1000
0000
0010
0000
0001
0000
,
0010
0100
0010
0000
2020
0000
3030
0000
0000
0000
0000
0000
0010
0000
1000
0000
,
0100
0010
0100
0000
0001
0000
0100
0000
1000
0010
1000
0000
0100
0000
0010
0000
,
0002
0003
0000
0000
0002
0003
0000
0000
0100
0000
0000
0000
2000
3000
0000
0000
2000
3000
0000
0000
0010
0000
0000
0000
0001
0000
0000
0000
0001
0000
0000
0000
,
0100
0010
0100
0000
1000
0000
0100
0000
0010
0100
0010
0000
0001
0000
0010
0000
,
1000
0001
1000
0000
0100
0000
0010
0000
0001
1000
0001
0000
0010
0000
0100
0000
,
1000
0010
1000
0000
0001
0010
0001
0000
1000
0100
1000
0000
0001
0100
0001
0000
,
1000
0010
0100
0000
1000
0100
0010
0000
0100
0001
0010
0000
0100
0010
0001
0000
,
0100
0010
1000
0000
1100
0000
0100
0000
1000
0000
0020
0000
0130
0000
0020
0000
,
0130
0001
0010
0000
0011
0000
0001
0000
0100
0000
0020
0000
1030
0000
0020
0000
,
1030
0100
0001
0100
1000
0010
0001
0010
,
1000
0000
0001
0000
0200
0300
0000
0000
0200
0300
0000
0000
1000
0000
0010
0000
0200
0300
0000
0000
0200
0300
0000
0000
1000
0000
0100
0000
0010
0000
0000
0000
,
0100
0010
0001
0000
0101
0000
0100
0000
0001
0000
0020
0000
0130
0000
0020
0000
,
0130
1000
0010
0000
1010
0000
1000
0000
0100
0000
0020
0000
0031
0000
0020
0000
,
0031
0100
1000
0100
0001
0010
1000
0010
,
0001
0000
1000
0000
0200
0300
0000
0000
0200
0300
0000
0000
0001
0000
0010
0000
0200
0300
0000
0000
0200
0300
0000
0000
0001
0000
0100
0000
0010
0000
2000
0000
,
0002
3003
0000
0000
;

//---------------dance-single - ----------------
#NOTEDATA:;
#CHARTNAME:;
#STEPSTYPE:dance-single;
#DESCRIPTION:;
#CHARTSTYLE:;
#DIFFICULTY:Challenge;
#METER:18;
#RADARVALUES:1.004045,1.216323,0.622046,0.840166,0.731106,870.000000,793.000000,77.000000,104.000000,0.000000,0.000000,0.000000,0.000000,0.000000,1.004045,1.216323,0.622046,0.840166,0.731106,870.000000,793.000000,77.000000,104.000000,0.000000,0.000000,0.000000,0.000000,0.000000;
#CREDIT:MANA;
#DISPLAYBPM:180.000000;
#NOTES:
// measure 0
0000
0000
0000
0000
,  // measure 1
0000
0000
0000
0000
,  // measure 2
0000
0000
0000
0000
,  // measure 3
1001
0000
1000
0000
0010
0000
1000
0000
0010
0000
1000
0100
1000
0000
0001
0000
,  // measure 4
1001
0000
0001
0000
0100
0000
0001
0000
0100
0000
0001
0010
0001
0000
1000
0000
,  // measure 5
1001
0000
1000
0000
0001
0000
1000
0000
0001
0000
0100
0010
0100
0000
0010
0000
,  // measure 6
2010
0000
3100
0000
0010
0000
0012
0000
0000
0000
0103
0000
0100
0010
0100
0000
,  // measure 7
0101
0000
0001
0000
0010
0000
0001
0000
0010
0000
0001
0100
0001
0000
1000
0000
,  // measure 8
1010
0000
1000
0000
0100
0000
1000
0000
0100
0000
1000
0010
1000
0000
0001
0000
,  // measure 9
1001
0000
1000
0000
0010
0000
0100
0000
0001
0000
1000
0010
1000
0000
0001
0000
,  // measure 10
0201
0000
0310
0000
1000
0000
1200
0000
0310
0001
0100
0000
0010
1000
0100
0000
,  // measure 11
0110
0000
0010
0000
0100
0000
0010
0000
0100
0000
1000
0000
0001
0100
0010
0000
,  // measure 12
0110
0000
0010
0000
0100
0000
0010
0000
0100
0000
0001
0000
1000
0100
0010
0000
,  // measure 13
0110
0000
0100
0000
1000
0000
0001
0000
0100
0000
0010
0000
1000
0001
1000
0000
,  // measure 14
1020
0130
0001
0012
0103
0010
2010
3001
,  // measure 15
0001
0001
0100
0100
0010
0010
1000
1000
,  // measure 16
0001
0010
0001
0010
0100
1000
0100
1000
0010
0100
0010
0100
0001
1000
0001
1000
,  // measure 17
0100
0100
0010
0010
0001
0001
1000
1000
,  // measure 18
1002
0000
0103
0000
0010
0000
0110
0000
0100
0001
1000
0000
0010
1000
0001
0000
,  // measure 19
0021
0000
0000
0130
,  // measure 20
0021
0000
0000
1030
,  // measure 21
0012
0000
0100
0200
0000
0000
0303
0000
,  // measure 22
0100
0001
0020
0030
0001
0000
0100
0001
0020
0030
0100
0000
0010
0001
1000
0000
,  // measure 23
1020
0000
0000
0130
,  // measure 24
1020
0000
0000
0031
,  // measure 25
2010
0000
0100
0200
0000
0000
3300
0000
,  // measure 26
0100
1000
0020
0030
1000
0000
0100
1000
0020
0030
0100
0000
0010
1000
0001
0000
,  // measure 27
0101
0100
0020
0030
0110
0100
0002
0003
,  // measure 28
0011
0001
0200
0300
0110
0010
0100
0001
,  // measure 29
0020
0130
0020
0031
0020
1030
0020
0031
,  // measure 30
0001
0100
1000
0100
0001
0010
0100
1000
,  // measure 31
1100
0100
0020
0030
0110
0100
2000
3000
,  // measure 32
1010
0010
0200
0300
0110
0100
0010
1000
,  // measure 33
0020
0130
0020
1030
0020
0031
0020
1030
,  // measure 34
1000
0100
0020
0030
0100
0000
1000
0010
0200
0300
1000
0000
0100
0010
2000
3000
,  // measure 35
0001
0010
0001
0000
0100
0010
0100
0000
0001
0010
0001
0000
1000
0100
1000
0000
,  // measure 36
0001
0010
0001
0000
2002
0000
3003
0000
0000
0000
0000
0000
1000
0000
0010
0000
,  // measure 37
0001
0010
1000
0100
0001
0100
1000
0010
,  // measure 38
0100
0001
0020
0030
0100
0000
0010
0001
0200
0300
0010
0000
0100
0001
0020
0030
,  // measure 39
0100
1000
0100
1000
0001
0000
0100
0000
0010
1000
0010
1000
0001
0000
0010
0000
,  // measure 40
0100
1000
0002
0003
0100
0001
2000
3000
0010
0000
0100
0000
0001
0000
1000
0000
,  // measure 41
0100
0010
0100
0000
1000
0010
1000
0000
0001
0100
0001
0000
1000
0010
1000
0000
,  // measure 42
0100
1000
0020
0030
0100
0000
1000
0100
0020
0030
1000
0000
0001
1000
0010
0100
,  // measure 43
0001
1000
0001
1000
0001
1000
0001
1000
0001
1000
0001
1000
0001
1000
0001
1000
,  // measure 44
0001
1000
0001
1000
0001
1000
0001
1000
0001
1000
0001
1000
0001
1000
0001
1000
,  // measure 45
0001
1000
0001
1000
0001
1000
0001
1000
0001
1000
0001
1000
0001
1000
0001
1000
,  // measure 46
0001
1000
0001
1000
0001
1000
0001
1000
0001
1000
0001
1000
0001
1000
0001
1000
,  // measure 47
0001
0010
0021
0000
1030
0010
0001
0001
,  // measure 48
1000
0010
1020
0000
0031
0010
1000
1000
,  // measure 49
0001
0100
1000
0100
0001
0010
0100
1000
,  // measure 50
0010
0100
0002
0003
0010
0000
1000
0010
0200
0300
1000
0000
0010
0100
0002
0003
,  // measure 51
1000
0100
1200
0000
0301
0100
0010
0010
,  // measure 52
0001
0100
0201
0000
1300
0100
0010
0010
,  // measure 53
1000
0100
0001
0100
1000
0010
0100
0001
,  // measure 54
0010
0100
2000
3000
0010
0000
0001
0010
0200
0300
0010
0000
1000
0100
0010
0000
,  // measure 55
0012
0000
0000
0103
,  // measure 56
2100
0000
0000
3010
,  // measure 57
0012
0000
0000
0100
0000
0000
2000
0000
0000
0000
0000
0000
3003
0000
0000
0000
,  // measure 58
1000
0010
0100
0010
2000
3000
0001
0010
0100
0010
0002
0003
1000
0010
0100
0010
,  // measure 59
2000
0000
0000
3100
,  // measure 60
0102
0000
0000
0013
,  // measure 61
2010
0000
0000
0000
0100
0000
0000
0002
0000
0000
0000
0000
3003
0000
0000
0000
,  // measure 62
0001
0010
0100
0010
0002
0003
1000
0010
0100
0010
2000
3000
0001
0010
0100
1000
,  // measure 63
0001
0100
0210
0000
0301
0010
0120
0000
,  // measure 64
0031
0100
0210
0000
0301
0001
0010
0100
,  // measure 65
1100
1000
1010
0010
0110
0100
0101
0001
,  // measure 66
1001
0100
0001
0100
1000
0010
0001
0010
,  // measure 67
1000
0100
0210
0000
1300
0010
0120
0000
,  // measure 68
1030
0100
0210
0000
1300
1000
0010
0100
,  // measure 69
0101
0001
0011
0010
0110
0100
1100
1000
,  // measure 70
0010
0100
0002
0003
0010
0000
0001
0100
0020
0030
0001
0000
0010
1000
0100
0000
,  // measure 71
0110
0010
0011
0010
1010
0010
0011
0010
,  // measure 72
0110
0010
0022
0033
0000
0000
0001
0100
,  // measure 73
0110
0100
1100
0100
0101
0100
1100
0100
,  // measure 74
0010
1000
0200
0300
0010
0000
0001
0100
0020
0030
0001
0000
0010
1000
0100
0000
,  // measure 75
0010
0100
0010
0100
1000
0000
0001
0000
0100
0010
0100
0010
1000
0000
0001
0000
,  // measure 76
1000
0010
0200
0300
0001
0100
0020
0030
1000
0000
0001
0000
0010
0000
0100
0000
,  // measure 77
1000
0001
1000
0001
0100
0000
0010
0000
1000
0001
1000
0001
0010
0000
0100
0000
,  // measure 78
1000
0010
0200
0300
1000
0000
0100
0001
0020
0030
1000
0000
0010
0100
1000
0001
,  // measure 79
0100
0010
0100
0010
0100
0010
0100
0010
1000
0001
1000
0001
1000
0001
1000
0001
,  // measure 80
0010
0100
0010
0100
0010
0100
0010
0100
1000
0010
1000
0010
0100
0001
0100
0001
,  // measure 81
0010
0100
1000
0001
1000
0100
0010
0100
1000
0001
1000
0100
0010
0100
1000
0010
,  // measure 82
0100
0001
1000
0001
0100
0010
0100
0001
1000
0001
0100
0010
0100
0001
0010
0100
,  // measure 83
2000
3010
0210
0301
0001
0020
1030
0020
,  // measure 84
0032
0000
0103
0000
0120
0000
1030
0000
1000
0000
0100
0000
0010
0100
2000
3000
,  // measure 85
0100
0010
0002
0003
0010
0100
2000
3000
0001
0010
0200
0300
1000
0010
0100
0000
,  // measure 86
0102
0010
1003
2010
0100
3001
0101
1010
,  // measure 87
1000
0100
0010
0100
1000
0100
0010
0000
0012
0000
1003
0000
1020
0000
0130
0000
,  // measure 88
0100
0001
0010
0001
0100
0001
0010
0000
0210
0000
1300
0000
1002
0000
0103
0000
,  // measure 89
0100
0010
2000
3000
0010
0100
0002
0003
1000
0100
0020
0030
0100
0010
0001
0100
,  // measure 90
0010
1000
0010
0100
0001
0010
0001
0100
0010
1000
0010
0100
0001
0010
0100
2000
,  // measure 91
0002
3003
0000
0000
;
