#TITLE:一網打尽;
#SUBTITLE:;
#ARTIST:96;
#TITLETRANSLIT:Ichimoudajin;
#SUBTITLETRANSLIT:;
#ARTISTTRANSLIT:;
#GENRE:PROGRESSIVE;
#CREDIT:;
#MUSIC:Ichimoudajin.ogg;
#BANNER:Ichimoudajin.png;
#BACKGROUND:Ichimoudajin-bg.png;
#CDTITLE:cdtitle.png;
#SAMPLESTART:59.586;
#SAMPLELENGTH:15.000;
#SELECTABLE:YES;
#OFFSET:-0.006;
#BPMS:0.000=290.000;
#STOPS:;
#BGCHANGES:0.000=Ichimoudajin.avi=1.000=1=0=0=StretchNoLoop==CrossFade==;
#FGCHANGES:;

//--------------- dance-single - KAYSTAR ----------------
#NOTES:
     dance-single:
     KAYSTAR:
     Beginner:
     9:
     0,0,0,0,0:
0000
0000
0000
0000
,
0000
0000
0000
0000
,
0000
0000
0000
0000
,
0000
0000
0000
0000
,
0000
0000
0000
0000
,
0000
0000
0000
0000
,
0000
0000
0000
0000
,
0000
0000
0000
0000
,
2002
0000
0000
0000
,
3003
0000
0000
0000
,
0000
0000
0000
0000
,
0000
0000
0000
0000
,
0000
0000
0000
0000
,
0000
0000
1000
0000
,
0000
1000
0000
0100
,
0000
0000
0100
0000
,
0010
0000
0000
0010
,
0000
0001
0000
0000
,
0001
0000
1000
0000
,
0010
0000
0100
0000
,
0000
0000
0001
0000
,
0010
0000
0100
0000
,
0000
0000
1000
0000
,
0010
0000
0100
0000
,
0000
0000
0001
0000
,
0010
0000
1000
0000
,
0010
0000
0001
0000
,
0100
0000
1000
0000
,
0100
0000
0001
0000
,
1000
0000
0100
0000
,
0010
0000
0001
1000
,
0002
0000
0000
0000
,
0000
0000
0000
0000
,
1003
0000
0000
0000
,
0000
0000
0000
0000
0000
0010
0000
0010
,
0000
0000
0000
0000
,
0000
0000
0000
0000
,
0000
0000
0000
1002
0000
0000
0000
0000
,
0003
0000
0000
0000
0000
0010
0000
0010
,
0000
0000
0001
0000
,
0100
0000
0010
0000
,
1000
0000
0100
0000
,
0001
0000
0100
0000
,
1000
0000
0001
0000
,
0010
0000
0010
0000
,
0001
0000
0100
0000
,
1000
0000
0100
0000
,
0001
0000
1000
0000
,
0010
0000
0010
0000
,
1000
0000
0100
0000
,
0010
0000
0000
0000
,
0001
0000
0000
0000
,
0100
0000
0000
0000
,
0001
0000
0010
0000
,
0100
0000
0000
0000
,
1000
0001
1000
0001
,
1000
0000
0000
0000
,
0001
0000
0100
0000
,
0010
0000
0000
0000
,
1000
0000
0000
0000
,
0100
0000
0000
0000
,
1000
0000
0010
0000
,
0100
0000
0001
0000
,
0020
0000
0000
0000
,
0000
0000
0130
0000
,
1000
0000
0010
0000
,
0100
0000
0001
1000
,
0000
0100
0000
0010
,
0000
0001
1000
0000
,
0010
0000
0100
0000
,
0001
1000
0000
0000
,
0000
0000
0000
0000
,
2002
0000
0003
0000
,
3001
0000
1000
0100
,
1000
0000
0010
0000
,
0100
0000
0000
0100
0000
0000
0100
0000
,
0001
0000
0001
0000
,
1000
0000
1000
0000
,
0100
0000
0000
0100
0000
0000
0200
0000
,
0000
0000
0300
0000
,
2002
0000
3000
0000
,
1003
0000
0001
0100
,
0001
0000
0010
0000
,
0100
0000
1000
0001
,
1000
0000
0000
1000
0000
0000
1000
0000
,
0020
0000
0230
0000
,
0301
0000
0000
0001
0000
0000
0001
0000
,
0020
0000
0130
0000
,
2002
0000
0000
0000
,
0000
0000
0000
0000
,
0000
0000
0000
0000
,
0000
0000
3003
0000
,
1000
0000
0010
0000
,
0010
0000
0100
0001
,
0000
0010
0000
1000
,
0000
0010
0001
0000
,
0100
0000
0100
0000
,
0010
1000
0000
1000
,
0001
1000
0001
1000
,
0001
0000
0010
0000
,
0010
0000
0100
1000
,
0000
0010
0000
0001
,
0000
0010
1000
0000
,
0100
0000
0100
0000
,
0010
0002
0000
0000
,
0000
0003
0000
0000
,
0000
0000
1000
0001
,
1000
0001
1000
0001
,
1000
0001
1000
0001
,
1000
0001
0200
0000
,
0000
0000
0300
0000
,
2002
0000
0000
0000
,
0000
0000
0000
0000
,
0000
0000
0000
0000
,
0000
0000
0000
3003
;

//--------------- dance-single - KAYSTAR ----------------
#NOTES:
     dance-single:
     KAYSTAR:
     Easy:
     13:
     0,0,0,0,0:
0000
0000
0000
0000
,
0000
0000
0000
0000
,
0000
0000
0000
0000
,
0000
0000
0000
0000
,
0000
0000
0000
0000
,
0000
0000
0000
0000
,
0000
0000
0000
0000
,
0000
0000
0000
0000
,
2002
0000
0000
0000
,
3003
0000
0000
0000
,
0000
0000
0000
0000
,
0000
0000
0000
0000
,
0000
0000
0000
0000
,
0000
0000
0000
0000
0001
0000
0100
0001
,
0000
0100
0010
0000
0010
0000
1000
0000
,
0100
1000
0000
0100
0010
0000
0010
0000
,
0001
0000
0100
0001
0000
0100
0010
0000
,
0010
0000
1000
0000
0100
1000
0000
0100
,
0010
0000
0010
0000
0001
0000
0100
0010
,
2000
0000
3001
0001
,
0010
0010
0100
0100
,
1000
1000
0010
0010
,
0100
0100
0001
0001
,
0010
0010
0100
0100
,
1000
0000
1000
0000
0001
0100
0001
0100
,
0001
0000
1000
0000
0001
0000
1000
0100
,
1000
0100
1000
0000
0001
0000
1000
0000
,
0001
0010
0001
0010
0001
0000
1000
0000
,
0001
0000
1000
0010
1000
0010
1000
0000
,
0001
0010
0100
1000
,
0010
0001
0010
1000
,
0200
0000
0000
0000
,
0000
0000
0000
0000
,
0310
0000
0000
0000
,
0000
0000
0000
0000
0000
0001
0000
1000
,
0000
0000
0000
0000
,
0000
0002
0000
0000
0203
0000
0000
0310
,
0000
0000
0000
2010
0000
0000
0000
0000
,
0000
0000
0000
0000
0000
3001
0000
2002
,
0000
0000
0000
3000
,
1003
0000
1001
0000
,
0001
0010
0100
1000
,
0010
0000
0100
0000
0001
1000
0000
1000
,
0000
0001
0010
1000
,
0010
0001
0100
0010
,
1000
0000
0000
1001
0000
0000
0001
0000
,
0010
0000
0100
0000
1000
0001
0000
0002
,
0000
0000
0000
0000
1003
0010
0000
0100
,
0001
0000
1000
0100
1000
0000
0001
0100
,
0002
0000
0010
0000
,
2003
0000
0100
0000
,
3001
0100
1000
0000
,
1000
0100
0001
0000
,
0020
0000
0100
0000
,
0032
0000
1000
0000
,
0103
0100
0010
0010
,
1000
0001
0010
0100
,
2000
0000
0010
0000
,
3002
0000
0100
0000
,
1003
0100
0001
0000
,
0001
0100
1000
0000
,
0001
0100
0101
0000
,
1000
0100
1100
0000
,
0001
1000
0001
1000
0001
1000
0001
1000
,
0010
0100
0002
0000
,
1003
0000
0100
1000
0000
0100
0010
0000
,
0001
0100
0100
0010
,
1000
0100
0000
0010
0001
0000
0100
0000
,
0010
0000
1000
0000
0001
0000
0010
0001
,
0000
0010
0100
0000
1000
0000
0010
0000
,
0010
0010
0000
0000
,
0000
0000
0000
0000
,
1002
0000
0000
0013
,
0100
0000
1000
0010
0000
0001
0010
0000
,
1000
0000
0100
0000
0010
0000
0001
0100
,
0010
0000
0000
0110
0000
0000
1001
0000
,
2000
0100
3002
0100
,
1003
0000
0100
0010
0000
0001
1000
0000
,
0010
0000
0000
0110
0000
0000
1001
0000
,
2000
3200
0320
0032
,
2003
0000
0000
3010
,
0100
0000
0001
0010
0000
1000
0010
0000
,
0001
0100
0010
1000
,
0002
0000
0000
0000
0013
0100
1000
0000
,
0001
0000
0100
1000
0000
0100
0001
0000
,
1000
0010
1000
0010
1000
0000
0001
0000
,
1000
0000
0100
0001
0000
0100
1000
0000
,
0001
0010
0001
0010
0001
0000
1000
0000
,
2002
0000
0000
0000
,
0000
3003
0000
0000
,
0220
0000
0000
0000
,
0000
0000
0330
0000
,
0001
0000
1000
0010
0000
0010
1000
0000
,
0100
0010
0010
0001
,
1000
0010
0000
0010
0100
0000
1000
0000
,
0100
0000
0001
0000
1000
0000
0100
0010
,
0000
0010
0100
0000
1000
0000
0001
0000
,
0001
0000
1000
0010
0000
0100
0001
0000
,
1000
0100
1000
0100
1000
0100
1000
0100
,
1000
0000
0001
0010
0000
0010
0001
0000
,
0100
0010
0010
1000
,
0001
0010
0000
0010
0100
0000
0001
0000
,
0100
0000
1000
0000
0001
0000
0100
0010
,
0000
0010
0100
0000
0001
0000
1000
0001
,
1000
0001
1000
0000
0000
0000
0000
0000
,
0000
0000
0000
0000
,
0000
0000
0000
0000
0001
0010
0001
0010
,
0001
0010
0001
0010
0001
0010
0001
0010
,
0001
0010
0001
0010
0001
0010
0001
0010
,
0001
0010
0001
0010
0200
0000
0000
0000
,
0000
0000
0300
0000
,
2002
0000
0000
0000
,
0000
0000
0000
0000
,
0000
0000
0000
0000
,
0000
0000
3003
0000
1000
0001
0000
0000
;

//--------------- dance-single - KAYSTAR ----------------
#NOTES:
     dance-single:
     KAYSTAR:
     Medium:
     16:
     0,0,0,0,0:
0000
0000
0000
0000
,
0000
0000
0000
0000
,
0000
0000
0000
0000
,
0000
0000
0000
0000
,
0000
0000
0000
0000
,
0000
0000
0000
0000
,
0000
0000
0000
0000
,
0000
0000
0000
0000
,
2002
0000
0000
0000
,
3003
0000
0000
0000
,
0000
0000
0000
0000
,
0000
0000
0000
0000
,
0000
0000
0000
0000
,
1000
0100
0010
0000
0001
0000
1000
0010
,
1000
0010
1000
0000
0001
0000
0100
0000
,
0001
0010
0001
0010
0001
0000
1000
0000
,
0100
0000
1000
0010
1000
0010
1000
0000
,
0001
0000
0100
0000
0001
0010
0001
0010
,
0001
0000
1000
0000
0100
0000
1000
0001
,
0200
0000
0000
0310
1000
0000
0100
0000
,
0001
0000
0100
1000
0001
0000
0100
0000
,
1000
0000
0100
0001
1000
0000
0100
0000
,
0001
0000
0100
1000
0001
0000
0100
0000
,
1000
0000
0100
0001
1000
0000
0001
1000
,
0001
0000
1001
0000
1000
0100
1000
0001
,
0100
0001
1000
0100
0010
0001
1000
0010
,
1000
0001
0010
0001
1000
0010
0100
0001
,
1000
0100
1000
0001
0100
0001
1000
0100
,
0010
0001
1000
0010
1000
0001
0010
0001
,
1000
0010
0100
0001
1000
0100
0010
0001
,
1000
0010
1000
0100
0010
0001
0100
0001
,
2000
0000
3200
0000
,
0320
0000
0032
0000
,
1003
0000
0000
0000
,
0000
0000
0000
0000
0000
0001
0000
0101
,
0000
0000
0000
0000
,
0000
1000
0100
0000
0010
0100
0000
0010
,
0001
0000
0000
2001
0000
0000
0000
0000
,
0000
0000
0000
0000
0000
3010
0000
1010
,
0000
0000
0000
0000
0001
0010
0001
0010
,
0100
1000
0100
1000
0001
0100
0010
1000
,
0001
0000
0010
0100
0010
0000
0001
0000
,
0100
0010
0100
0000
0001
0010
0000
0010
,
0000
0100
1000
0000
0001
0100
0010
0000
,
2000
0000
3200
0000
0320
0000
0032
0000
0023
0000
0230
0000
,
1300
0000
0010
0100
0010
0000
1000
0000
,
0100
0010
0100
0000
1000
0010
0000
0010
,
0000
0100
0001
0000
1000
0100
1000
0100
,
0010
0001
0010
0001
1000
0010
0100
0001
,
2000
0000
0000
0000
3100
0001
0000
0100
,
1000
0001
0100
0100
,
0010
0000
1000
0000
0002
0010
0000
0000
,
2003
0100
0000
0000
3001
0000
0100
0000
,
0010
1000
0100
0001
,
0100
1000
0010
0100
,
0001
0010
0001
0000
1000
0100
1000
0000
,
0010
0000
0100
0000
0001
1000
0001
1000
,
0002
0000
0000
0000
0103
1000
0000
0100
,
0001
1000
0100
0100
,
0010
0000
0001
0000
2000
0010
0000
0000
,
3002
0100
0000
0000
1003
0000
0100
0000
,
0010
0001
0100
1000
,
0100
0001
0010
0100
,
1000
0001
1000
0001
1000
0001
1000
0001
,
1000
0100
0010
0001
0200
0000
0000
0000
,
0310
0000
1000
0100
0000
0100
0010
0000
,
0100
1000
0001
0000
0100
0000
0100
0000
,
0010
1000
0000
0001
0010
0000
0100
1000
,
0001
1000
0010
0000
0100
0000
0001
0010
,
0000
0010
0100
0000
0010
0001
1000
0000
,
0010
0110
0000
0000
,
0000
0000
0000
0000
,
2001
0000
0000
0000
0000
3100
0010
0000
,
0001
0100
0001
0100
0010
1000
0001
0000
,
1000
0100
1000
0100
0010
0000
0001
0100
,
1000
0000
0100
0010
0000
0010
0100
0000
,
0001
1000
0100
0000
0010
0001
1000
0000
,
0001
0100
0001
0100
0010
0000
1000
0100
,
0001
0000
0100
0010
0000
0010
0100
0000
,
1000
0001
0100
0010
1000
0100
0010
0001
,
1000
0000
0010
0100
0010
1000
0001
0010
,
0100
0000
1000
0010
0000
0001
0010
0000
,
1000
0001
1000
0100
0010
0000
0001
0100
,
0010
0000
1000
0100
0020
0000
1000
0000
,
0031
0000
0000
0011
0000
0000
1001
0000
,
1000
0010
1000
0001
0010
0001
1000
0010
,
1000
0000
0000
1010
0000
0000
1001
0000
,
0001
0010
0001
1000
0010
1000
0100
0010
,
0002
0000
0000
0000
,
0000
0000
0000
0000
0000
0000
0103
0010
,
1000
0000
0100
0010
0100
0010
0100
0010
,
0100
0010
0100
0010
0002
0000
0000
0000
,
1003
0010
0100
0001
0100
0010
1000
0000
,
0001
0010
0100
0000
0100
0000
1000
0010
,
0100
0001
0100
0010
1000
0001
0010
0001
,
0100
0000
0010
1000
0001
0010
0100
1000
,
0100
0010
0001
0000
1000
0010
0100
0000
,
0100
0000
0001
0010
0001
1000
0100
1000
,
0001
0100
1000
0100
0001
0100
1000
0100
,
0001
0100
0010
1000
0010
0100
0001
0000
,
1000
0100
0010
0000
0010
0000
0001
0100
,
0010
1000
0010
0100
0001
1000
0100
1000
,
0010
0000
0100
0001
1000
0100
0010
0001
,
0010
0100
1000
0000
0010
0100
0001
1000
,
0001
1000
0000
0000
0000
0000
0000
0000
,
0000
0000
0000
0000
,
0000
0000
0000
0000
0001
0010
1000
0010
,
0001
0010
1000
0010
0001
0010
1000
0010
,
0001
0010
1000
0010
0001
0010
1000
0010
,
0001
1000
0010
0100
0002
0000
0000
0000
,
0000
0000
0003
0000
,
2002
0000
0000
0000
,
0000
0000
0000
0000
,
0000
0000
0000
0000
,
0000
0000
3003
0000
1000
0001
0000
0000
;

//--------------- dance-single - KAYSTAR ----------------
#NOTES:
     dance-single:
     KAYSTAR:
     Hard:
     18:
     0,0,0,0,0:
0000
0000
0000
0000
,
0000
0000
0000
0000
,
0000
0000
0000
0000
,
0000
0000
0000
0000
,
0000
0000
0000
0000
,
0000
0000
0000
0000
,
0000
0000
0000
0000
,
0000
0000
0000
0000
,
2002
0000
0000
0000
,
3003
0000
0000
0000
,
0000
0000
0000
0000
,
0000
0000
0000
0000
,
0000
0000
0000
0000
,
0001
0000
1000
0000
0001
0000
1000
0000
0000
0000
0000
0000
0001
0000
0000
1000
0000
0000
0001
0000
0000
0100
0000
0000
,
0010
1000
0001
1000
0010
0100
0001
1000
,
0001
0010
0100
1000
0001
1000
0100
0010
,
0001
1000
0001
0100
0010
1000
0001
1000
,
0010
0100
0001
1000
0001
0010
0100
1000
,
0001
1000
0010
0100
0001
0010
0100
1000
,
0001
0100
0001
0100
0010
0100
0001
0100
,
0001
0100
0001
0100
0010
1000
0001
1000
,
0100
1000
0100
0010
0100
1000
0100
1000
,
0100
1000
0100
0010
0001
1000
0001
0100
,
0010
0100
0010
1000
0001
1000
0100
0010
,
0001
0100
0010
1000
0001
0010
0100
0001
,
0100
0010
0001
1000
0010
0100
0001
1000
,
0100
0010
1000
0010
0100
1000
0001
1000
,
0001
0100
0010
0001
0010
0100
0001
1000
,
0100
0010
0001
1000
0010
0100
1000
0100
,
0010
1000
0001
0010
0100
0001
1000
0010
,
0100
1000
0001
0100
0010
1000
0100
0010
,
0002
0000
2003
3020
,
0230
0302
2003
0000
,
3001
0000
0000
0000
,
0000
0000
0000
0000
0000
0110
0000
1001
,
0000
0000
0000
0000
,
0000
0000
0000
0001
0000
0100
0000
0001
0000
0000
0000
0000
0100
0000
0010
0000
0100
0000
0000
0000
0000
0010
0000
1000
,
0000
0010
0000
0000
0000
0000
0000
0000
0000
2010
0000
0000
0000
0000
0000
0000
0000
0000
0000
0000
0000
0000
0000
0000
,
0000
0000
0000
0000
3001
0010
0000
0012
,
0000
0000
0000
0000
1003
0010
0100
0001
,
1000
0100
1000
0100
1000
0000
0001
0100
0001
0100
0001
0000
,
1000
0100
0010
0001
0010
0100
1000
0001
,
0100
1000
0100
0001
1000
0001
0000
0011
,
0000
0000
0000
0010
0000
0000
0100
0000
0000
1000
0000
0000
0002
0000
0000
0000
0203
0000
0000
0000
2300
0000
0000
0000
,
3002
0000
0023
0000
2030
0000
3001
0000
0010
0000
0100
0000
,
1000
0000
0000
1010
0000
0010
0100
0001
,
1000
0100
0001
0100
1000
0001
0000
1000
,
0001
0100
0001
0100
0001
0000
1000
0100
1000
0100
1000
0000
,
0001
0000
1000
0000
0001
0000
1000
0000
0001
0000
1000
0000
0001
0000
1000
0000
0001
0000
0100
0000
0000
0010
0000
0000
,
2000
0000
3001
0010
0001
0000
0010
0001
,
0010
0000
0001
0010
0001
0000
1000
0000
,
0002
0000
1003
0010
1000
0000
0010
1000
,
0010
0000
1000
0010
1000
0000
0001
0000
,
2000
0000
3100
0010
0100
0000
0010
0100
,
0010
0000
0100
0010
0001
0000
1000
0000
,
0001
1000
0010
0001
0010
1000
0001
0010
,
0100
1000
0001
0100
0010
1000
0100
0010
,
0002
0000
1003
0010
0100
0000
0001
1000
,
0100
0000
0001
0100
1000
0000
0001
0000
,
2000
0000
3001
0010
0100
0000
1000
0001
,
0100
0000
1000
0100
0001
0000
1000
0000
,
0001
0010
0100
1000
0010
0100
0010
1000
,
0100
0010
0001
0100
0010
0100
0001
1000
,
0100
0010
0100
0010
0001
0000
0100
0010
0100
0010
1000
0000
,
0001
0010
0100
1000
0100
0010
0002
0000
0000
0000
0000
0000
,
0103
0010
1000
0001
0010
0001
1000
0010
,
0100
0001
0010
0100
1000
1000
0001
0100
,
0001
1000
0100
1000
0001
0100
0010
1000
,
0100
0010
0001
1000
0010
0100
0001
1000
,
0100
1000
0001
0100
0010
1000
0100
0010
,
0001
0001
1000
0000
0000
0000
0000
0000
,
0000
0000
0000
0000
,
1002
0000
0000
0103
0010
0000
1001
0000
,
1000
0100
0010
0100
0001
0100
0010
0100
,
1000
0001
0100
0010
1000
0001
0010
0100
,
2000
0000
3010
0002
0000
0013
1000
0000
,
0001
0010
0100
1000
0001
0100
0010
1000
,
0001
0010
0100
0010
1000
0010
0100
0010
,
0002
0000
0103
2000
0000
3100
0001
0000
,
1000
0100
0001
1000
0001
1000
0010
0001
,
2000
0000
3010
0100
0001
0010
0001
0100
,
0010
1000
0100
1000
0010
0100
0001
0010
,
0100
1000
0001
0100
0010
0100
1000
0100
,
0010
0001
1000
0100
0001
1000
0001
0000
,
2000
0000
3100
0002
0000
1003
0020
0000
,
0031
1000
0010
0100
0001
0010
0100
0000
,
2000
0000
3010
0002
0000
1003
0200
0000
,
0301
1000
0100
0010
0001
0100
0010
1000
,
0200
0000
0000
0000
,
0000
0000
0000
0000
0000
0000
0310
0001
,
1000
0000
0010
0100
0010
0100
0010
0100
,
0010
0100
0010
0100
0110
0000
0000
0000
,
1000
0001
1000
0100
0001
0100
1000
0001
,
0100
0010
1000
0100
0010
0010
0001
1000
,
0001
0100
1000
0100
0001
1000
0100
0010
,
1000
0010
0100
1000
0001
1000
0010
0001
,
0010
1000
0001
0010
0100
1000
0010
0100
,
0001
0001
0010
0100
1000
0001
0100
0010
,
1000
0000
0001
0000
0010
0000
0001
0000
0010
0000
0001
0000
0010
0000
0001
0000
0010
0000
0001
0000
0000
1000
0000
0000
,
0010
0100
0001
0010
1000
0010
0001
1000
,
0010
0100
0001
0010
0100
0100
1000
0001
,
1000
0010
0001
0010
1000
0001
0010
0100
,
0001
0100
0010
0001
1000
0001
0100
1000
,
0100
0001
0010
0100
1000
0010
0100
0001
,
1000
1000
0001
0010
0001
1000
0100
1000
,
0001
0100
0001
1000
0010
1000
0001
0010
,
0001
0000
0000
1000
0000
0000
0100
0000
0000
1000
0000
0000
0001
0000
0100
0000
0001
0000
0100
0000
0001
0000
0000
0000
,
0100
0010
0100
0010
0100
0000
0010
1000
0010
1000
0010
0000
,
2000
0000
3001
0010
0100
1000
0002
0000
1003
0010
0100
0001
,
1000
0100
0010
0100
0010
0001
2000
0000
0000
0000
0000
0000
,
0000
0000
3000
0000
,
2002
0000
0000
0000
,
0000
0000
0000
0000
,
0000
0000
0000
0000
,
0000
0000
3003
0000
0001
1000
0000
0000
;

//--------------- dance-single - KAYSTAR ----------------
#NOTES:
     dance-single:
     KAYSTAR:
     Challenge:
     19:
     0,0,0,0,0:
0000
0000
0000
0000
,
0000
0000
0000
0000
,
0000
0000
0000
0000
,
0000
0000
0000
0000
,
0000
0000
0000
0000
,
0000
0000
0000
0000
,
0000
0000
0000
0000
,
0000
0000
0000
0000
,
0001
0100
0001
0010
0100
1000
0010
1000
,
0100
0010
0001
0100
0001
0010
0100
1000
,
0010
1000
0100
0010
0001
0100
0001
0010
,
0100
1000
0010
1000
0100
0010
0001
0100
,
0001
0010
0100
1000
0010
1000
0100
0010
,
0001
0000
1000
0000
0001
0000
1000
0000
0000
0000
0000
0000
0001
0000
0000
0010
0000
0000
0001
0000
0000
0100
0000
0000
,
0010
1000
0100
1000
0010
0100
0001
0010
,
0001
0100
0010
1000
0100
1000
0010
0100
,
0001
0010
0001
0100
0010
1000
0100
1000
,
0010
0100
0001
0010
0001
0100
0010
1000
,
0001
0010
0100
0010
0001
1000
0010
0100
,
0001
1000
0001
1000
0100
0001
0100
1000
,
0001
1000
0001
1000
0100
0001
0100
1000
,
0001
1000
0001
0100
1000
0100
0001
1000
,
0001
1000
0001
0100
1000
0100
0001
1000
,
0100
0010
0100
1000
0001
0100
0010
1000
,
0001
0010
0100
0010
0001
1000
0010
0100
,
0001
0010
1000
0010
0001
0010
0100
1000
,
0001
1000
0010
0001
0010
1000
0010
0100
,
0001
1000
0001
0010
1000
0010
0001
0010
,
0100
1000
0001
1000
0010
0001
0010
1000
,
0001
1000
0100
0001
1000
0010
0001
1000
,
0001
0100
1000
0001
0010
1000
0001
1000
,
0002
0000
0000
0000
0000
0000
0013
0100
0010
0100
0010
0100
,
1000
0001
0100
0010
1000
0100
0010
0001
,
0200
0000
0000
0000
,
0300
0000
0000
0000
0000
0102
0000
1003
,
0000
0000
0000
0000
,
0000
0000
0000
0001
0000
0010
0000
0100
0000
0000
0000
0000
1000
0000
0010
0000
0100
0000
0000
0000
0000
0001
0000
0010
,
0000
0100
0000
0000
0000
0000
0000
0000
0000
2002
0000
0000
0000
0000
0000
0000
0000
0000
0000
0000
0000
0000
0000
0000
,
0000
0000
3003
0000
1000
2100
0000
3001
,
0000
0100
0001
0100
0001
0100
0010
1000
0010
1000
0010
1000
,
0001
0010
0100
0010
0100
1000
0001
0100
0010
0100
0010
1000
,
0002
0000
0013
0100
1000
0100
0010
0001
,
0100
0010
1000
0001
0010
0210
0000
1300
,
0000
0000
0010
0000
0100
0000
0001
0000
1000
0000
0100
0010
0100
0000
1000
0000
,
0001
0000
1001
0000
0101
0000
0110
0000
1010
0000
2001
0000
,
0000
0000
3100
0010
0001
1000
0010
0100
,
0001
0100
0010
1000
0100
0120
0000
0031
,
1000
0010
1000
0010
1000
0001
0100
0001
0100
0001
1000
0100
,
0010
0100
1000
0001
0100
0010
1000
0001
0010
0100
0010
0001
,
2000
0000
3010
0100
1000
0100
0010
1000
,
0100
1000
0010
0100
1000
0100
0010
1000
,
0001
0010
0100
0001
1000
0010
0001
1000
,
0001
0100
1000
0001
0010
0100
0010
1000
,
0001
0010
0100
0001
0100
0010
0001
0100
,
0001
0010
0100
0001
0100
0010
0001
1000
,
0002
0100
2003
0010
3002
0100
2003
0010
,
3001
0100
0010
1000
0100
0010
0001
0100
,
0120
0000
1030
0100
0001
0100
1000
0010
,
0100
0010
1000
0100
0001
0100
1000
0001
,
0100
0010
0100
1000
0001
0010
1000
0001
,
1000
0100
0001
1000
0010
0100
0010
0001
,
1000
0010
0001
0010
1000
0010
0001
0010
,
1000
0001
0010
0100
1000
0010
0100
0001
,
1000
0100
0010
0100
1000
0100
0010
0001
0010
0100
0010
0001
,
1000
0010
0100
0001
0100
0010
2000
0000
0000
0000
0000
0000
,
3001
0010
0001
0100
0010
1000
0100
1000
,
0001
0000
0100
0000
0010
1000
0010
0000
1000
0000
0001
0000
0010
0000
0100
0000
,
0001
0100
0010
0001
1000
0010
0100
0001
,
1000
0100
0010
0001
1000
0010
1000
0100
,
0010
0000
0001
0000
0100
0000
0001
0000
1000
0000
0100
0000
0010
0001
0010
0000
,
0001
1000
0010
0100
1000
0100
0010
1000
,
0001
0010
0100
1000
0100
0010
0001
0010
0100
1000
0100
0010
,
0002
0000
0000
0103
1000
0100
0001
0000
,
1000
0010
1000
0100
0010
0100
1000
0010
,
1000
0100
0010
0001
0100
0010
1000
0100
,
1001
0000
0100
1001
0000
0100
1001
0000
,
0001
1000
0200
0000
0301
1000
0020
0000
,
0031
0100
0010
1000
0100
0010
0001
0100
,
1001
0000
0100
1001
0000
0100
1001
0000
,
1000
0100
1000
0100
0010
0100
0010
0001
0010
0001
1000
0010
,
0200
0000
0000
0301
0010
0001
0100
0010
,
0100
0001
0010
0001
0100
0010
1000
0100
,
0010
0001
0100
1000
0001
0010
1000
0010
,
0001
1000
0100
0001
1000
0100
0010
0000
,
0011
0001
0010
0110
0100
1000
1100
0000
,
0100
0001
1000
0010
0100
0010
0001
0000
,
1010
1000
0010
0110
0100
0001
0101
0000
,
0100
1000
0001
0010
0100
0010
1000
0001
,
0021
0000
0000
0000
,
0000
0000
0000
0000
0000
0000
0130
1000
,
0001
0000
1000
0001
0101
0100
0001
1000
,
1001
0001
1000
0100
2100
0000
3001
0100
,
0010
1000
0100
0001
0100
1000
0010
0100
,
0001
0000
1000
0000
0100
0010
0100
0000
1000
0000
1000
0000
0001
0000
0100
0000
,
0010
0001
0010
0100
0001
1000
0100
0001
,
1000
0010
0001
0100
0010
1000
0100
0001
,
0100
0000
1000
0000
0010
0000
0100
0000
0001
0000
1000
0000
0100
0010
0100
0000
,
1000
1000
0001
0100
0010
1000
0100
0010
,
0001
1000
0010
1000
0001
0100
0001
1000
0100
0010
0001
1000
,
0020
0000
0130
1000
0100
0001
0010
0100
,
1000
0000
0001
0000
0100
0010
0100
0000
0001
0000
0001
0000
1000
0000
0100
0000
,
0010
1000
0010
0100
1000
0001
0100
1000
,
0001
0010
1000
0100
0010
0001
0100
1000
,
0100
0000
0001
0000
0010
0000
0100
0000
1000
0000
0001
0000
0100
0010
0100
0000
,
0001
0001
1000
0100
0001
1000
0010
0001
,
1000
0010
0001
1000
0100
0001
1000
0100
,
0001
0000
0000
1000
0000
0000
0010
0000
0000
0001
0000
0000
1000
0000
0010
0000
1000
0000
0001
0000
0010
0000
0001
0000
,
1000
0010
1000
0001
0010
0001
1000
0010
1000
0001
0010
0001
,
1000
0010
0100
0001
0100
0001
1000
0100
1000
0100
0010
0001
,
1000
0010
0100
0001
1000
0100
0020
0000
0000
0000
0000
0000
,
0000
0000
0030
0000
,
2002
0000
0000
0000
,
0000
0000
0000
0000
,
0000
0000
0000
0000
,
0000
0000
3003
0000
1001
1001
0000
0000
;

//--------------- dance-double - KAYSTAR ----------------
#NOTES:
     dance-double:
     KAYSTAR:
     Easy:
     13:
     0,0,0,0,0:
00000000
00000000
00000000
00000000
,
00000000
00000000
00000000
00000000
,
00000000
00000000
00000000
00000000
,
00000000
00000000
00000000
00000000
,
00000000
00000000
00000000
00000000
,
00000000
00000000
00000000
00000000
,
00000000
00000000
00000000
00000000
,
00000000
00000000
00000000
00000000
,
00022000
00000000
00000000
00000000
,
00033000
00000000
00000000
00000000
,
00000000
00000000
00000000
00000000
,
00000000
00000000
00000000
00000000
,
00000000
00000000
00000000
00000000
,
00000000
00000000
00000000
00000000
00001000
00000000
00100000
00010000
,
00000000
00100000
00001000
00000000
00001000
00000000
00010000
00000000
,
00000010
00001000
00000000
00000010
00010000
00000000
00010000
00000000
,
00001000
00000000
00100000
00010000
00000000
00100000
00001000
00000000
,
00001000
00000000
00010000
00000000
00000010
00001000
00000000
00000010
,
00010000
00010000
00001000
00100000
,
01000000
01000000
10000000
10000000
,
00100000
00100000
00010000
00010000
,
00001000
00001000
00000010
00000010
,
00000001
00000001
00000100
00000100
,
00000010
00000010
00010000
00010000
,
00001000
00000000
00001000
00000000
00010000
00000000
00000100
00001000
,
00000100
00001000
00000100
00000000
00010000
00000000
00001000
00000000
,
00100000
00010000
00100000
00010000
00100000
00000000
00001000
00000000
,
00010000
00000000
00000010
00001000
00000010
00001000
00000010
00000000
,
00010000
00001000
01000000
00100000
,
10000000
01000000
00010000
00001000
,
00000100
00000001
00000010
00000100
,
00020000
00000000
00000000
00000000
,
00000000
00000000
00000000
00000000
,
00031000
00000000
00000000
00000000
,
00000000
00000000
00000000
00000000
00000000
00010000
00000000
00001000
,
00000000
00000000
00000000
00000000
,
00000000
00020000
00000000
00000000
00230000
00000000
00000000
01300000
,
00000000
00000000
00000000
00002000
00000000
00000000
00000000
00000000
,
00000000
00000000
00000000
00003000
00000000
00010000
00000000
00021000
,
00000000
00000000
00000000
00000000
,
02030000
00000000
23000000
00000000
,
30010000
01000000
00100000
10000000
,
01000000
00000000
00100000
00000000
00001000
00010000
00000000
00020000
,
00000000
00130000
01000000
00001000
,
00010000
00000100
00000010
00000001
,
00001000
00000000
00000000
00001001
00000000
00000000
00000001
00000000
,
00000100
00000000
00000010
00000000
00010000
00001000
00000000
00002000
,
00000000
00000000
00003010
00000000
00000001
00000100
00000000
00000010
,
00001000
00000000
00000100
00001000
00000100
00000000
00010000
00001000
,
00020000
00000000
00000010
00000000
,
00032000
00000000
00010000
00000000
,
00103000
00010000
10000000
00000000
,
00100000
01000000
00010000
00000000
,
20000000
00000000
01000000
00000000
,
30020000
00000000
01000000
00000000
,
10030000
01000000
00010000
01000000
,
10000000
00100000
01000000
00001000
,
00012000
00000000
00100000
00000000
,
00023000
00000000
00001000
00000000
,
00030010
00001000
00000001
00000000
,
00000010
00000100
00001000
00000000
,
00000001
00000100
00001000
00000100
,
00000001
00000010
00000100
00010000
,
00001000
00010000
00001000
00010000
00001000
00010000
00001000
00010000
,
00001000
00010000
00001000
00010000
00002000
00000000
00000000
00000000
,
01003000
00000000
00010000
01000000
00000000
00100000
10000000
00000000
,
01000000
00100000
00100000
00001000
,
00010000
00100000
00000000
00100000
00010000
00000000
00001000
00000000
,
00010000
00000000
00010000
00000000
00000100
00000000
00001000
00000100
,
00000000
00000010
00000100
00000000
00000010
00000000
00000001
00000000
,
00000100
00000000
00002000
00000000
00000000
00023000
00000000
00000000
,
02030000
00000000
13000000
00000000
,
20010000
00000000
00000000
30100000
,
01000000
00000000
00010000
00100000
00000000
01000000
10000000
00000000
,
00100000
00000000
00010000
00000000
00001000
00000000
00100000
00010000
,
00100000
00000000
00010000
00100000
00000000
00000000
00001000
00000000
,
00020000
00001000
00032000
00010000
,
00013000
00000000
00001000
01000000
00000000
00000000
00001000
00010000
,
00001000
00000000
00010000
00000100
00000000
00000000
00010000
00000000
,
00002000
00003200
00000320
00002030
,
00003002
00000000
00000000
00000013
,
00000100
00000000
00001000
00000010
00000000
00000100
00000001
00000000
,
00000010
00000000
00001000
00000000
00010000
00000000
00000010
00001000
,
00000010
00000000
00010000
00000000
00001000
00010000
00001000
00000000
,
00021000
00000000
00000000
00230000
00000000
00000000
02300000
00000000
,
03001000
00010000
00001000
00010000
00001000
00000000
00010000
00000000
,
00012000
00000000
00000000
00003020
00000000
00000000
00000230
00000000
,
00010300
00001000
00010000
00001000
00010000
00000000
00001000
00000000
,
02000000
00000000
00000000
00000000
,
00000000
03000000
00000000
00000000
,
20020000
00000000
00000000
00000000
,
00000000
00000000
30030000
00000000
,
10000000
00000000
01000000
00010000
00000000
01000000
10000000
00000000
,
00010000
01000000
01000000
00100000
,
10000000
01000000
00000000
01000000
00010000
00000000
00001000
00000000
,
00000100
00000000
00000001
00000000
00001000
00000000
00000001
00000010
,
00000000
00001000
00000010
00000000
00000001
00000000
00000100
00000000
,
00000100
00000000
00000010
00001000
00000000
00000010
00010000
00000000
,
00001000
00010000
00001000
00010000
00001000
00010000
00000100
00000010
,
00000001
00000000
00000100
00001000
00000000
00000100
00000001
00000000
,
00001000
00000100
00000100
00000010
,
00000001
00000100
00000000
00000100
00001000
00000000
00010000
00000000
,
01000000
00000000
10000000
00000000
00010000
00000000
10000000
00100000
,
00000000
00010000
00100000
00000000
10000000
00000000
01000000
00000000
,
01000000
00000000
00000000
00000000
,
00000000
00000000
00000000
00000000
,
00000000
00000000
00000000
00000000
00010000
00001000
00010000
00001000
,
00010000
00001000
00010000
00001000
00010000
00001000
00010000
00001000
,
00010000
00001000
00010000
00001000
00010000
00001000
00010000
00001000
,
00010000
00001000
00010000
00001000
00020000
00000000
00000000
00000000
,
00000000
00000000
00030000
00000000
,
00022000
00000000
00000000
00000000
,
00000000
00000000
00000000
00000000
,
00000000
00000000
00000000
00000000
,
00000000
00000000
00033000
00000000
00001000
00010000
00000000
00000000
;

//--------------- dance-double - KAYSTAR ----------------
#NOTES:
     dance-double:
     KAYSTAR:
     Medium:
     16:
     0,0,0,0,0:
00000000
00000000
00000000
00000000
,
00000000
00000000
00000000
00000000
,
00000000
00000000
00000000
00000000
,
00000000
00000000
00000000
00000000
,
00000000
00000000
00000000
00000000
,
00000000
00000000
00000000
00000000
,
00000000
00000000
00000000
00000000
,
00000000
00000000
00000000
00000000
,
00022000
00000000
00000000
00000000
,
00033000
00000000
00000000
00000000
,
00000000
00000000
00000000
00000000
,
00000000
00000000
00000000
00000000
,
00000000
00000000
00000000
00000000
,
00010000
00001000
00010000
00000000
00001000
00000000
00100000
00010000
,
00100000
00010000
00100000
00000000
00001000
00000000
00010000
00000000
,
00000010
00001000
00000010
00001000
00000010
00000000
00010000
00000000
,
00001000
00000000
00100000
00010000
00100000
00010000
00100000
00000000
,
00001000
00000000
00010000
00000000
00000010
00001000
00000010
00001000
,
00000010
00000000
00000100
00000000
00000001
00000000
00001000
00000100
,
00000020
00000000
00000000
00000031
00001000
00000000
00000010
00000000
,
00000100
00000000
00001000
00010000
00001000
00000000
00010000
00000000
,
00100000
00000000
00010000
00001000
00010000
00000000
00001000
00000000
,
00000010
00000000
00001000
00010000
00001000
00000000
00010000
00000000
,
01000000
00000000
00010000
00001000
00010000
00000000
00100000
00000000
,
10000000
00000000
01000000
00000000
00200000
00000000
00310000
10000000
,
00100000
10000000
00010000
00100000
01000000
00000000
10000000
00000000
,
00010000
01000000
00001000
00010000
00001000
00010000
00000010
00000000
,
00000100
00000000
00000001
00001000
00000100
00001000
00000001
00000100
,
00000010
00000000
00001000
00000000
00000001
00000010
00000100
00001000
,
00000001
00000100
00000010
00001000
00000010
00010000
00001000
00010000
,
00001000
01000000
00010000
01000000
00100000
10000000
01000000
00100000
,
00020000
00000000
02030000
00000000
,
03200000
00000000
20300000
00000000
,
30010000
00000000
00000000
00000000
,
00000000
00000000
00000000
00000000
00000000
00011000
00000000
00011000
,
00000000
00000000
00000000
00000000
,
00000000
00010000
00001000
00000000
00001000
00010000
00000000
00010000
,
00001000
00000000
00000000
00021000
00000000
00000000
00000000
00000000
,
00000000
00000000
00000000
00000000
00030010
00001000
00000000
00002001
,
00000000
00000000
00000000
00000000
00003001
00000010
00000001
00000010
,
00000100
00001000
00000100
00001000
00000001
00000100
00000010
00001000
,
00000001
00000000
00000010
00000100
00000010
00000000
00000001
00000000
,
00000100
00000010
00000100
00000000
00000001
00001000
00000000
00001000
,
00000001
00000000
00000000
00000010
00000000
00000000
00001000
00000000
00010000
00000000
00001000
00000000
,
00010000
00000000
00100000
00000000
10000000
00000000
00010000
00000000
10000000
00000000
01000000
00000000
,
00100000
00000000
01000000
00100000
01000000
00000000
10000000
00000000
,
00100000
01000000
00100000
00000000
10000000
00010000
00000000
00010000
,
10000000
01000000
10000000
01000000
00100000
00010000
00100000
00010000
,
10000000
00100000
01000000
00010000
00100000
00001000
00010000
00000000
,
00012000
00000000
00000000
00000000
00103000
00010000
00000000
00100000
,
00001000
00010000
00000010
00001000
,
00000001
00000000
00000010
00000000
00000200
00001000
00000000
00000000
,
00020300
00001000
00000000
00000000
00030010
00000000
00000100
00000000
,
00000001
00000010
00000100
00010000
,
00001000
01000000
00100000
00100000
,
20000000
32000000
03020000
00032000
,
00023000
00230000
20300000
32000000
,
03020000
00000000
00000000
00000000
00030010
00001000
00000000
00000010
,
00010000
00001000
01000000
00010000
,
10000000
00000000
01000000
00000000
00200000
00010000
00000000
00000000
,
00302000
00010000
00000000
00000000
01003000
00000000
00100000
00000000
,
10000000
01000000
00100000
00010000
00100000
00001000
00010000
00001000
,
00010000
00000100
00001000
00000100
00000010
00000001
00001000
00000000
,
00000010
00000100
00000010
00000100
00000010
00000100
00000010
00000100
,
00000001
00000010
00000100
00001000
00000020
00000000
00000000
00000000
,
00000130
00000000
00000001
00000010
00000000
00000001
00000100
00000000
,
00000010
00000000
00001000
00000100
00000010
00000000
00000100
00000000
,
00001000
00000010
00000000
00010000
00001000
00010000
00001000
00000000
,
01000000
00000000
01000000
00000000
00100000
00000000
10000000
01000000
,
00000000
10000000
00100000
00000000
01000000
00000000
00010000
00100000
,
00010000
00100000
00001000
00000000
00000000
00000000
00000000
00000000
,
00000000
00000000
00000000
00000000
,
00012000
00000000
00000000
00000000
00000000
00003100
00000001
00000000
,
00001000
00000100
00000010
00000001
00000010
00000100
00001000
00000000
,
00000010
00010000
00001000
00010000
00000010
00000000
00010000
00001000
,
01000000
00000000
00010000
10000000
00000000
10000000
00010000
00000000
,
00100000
01000000
10000000
00000000
00100000
01000000
00010000
00000000
,
00100000
00001000
00010000
00001000
00100000
00000000
00001000
00010000
,
00000100
00000000
00001000
00000001
00000000
00000001
00001000
00000000
,
00000010
00010000
00001000
00010000
00001000
00010000
00001000
00000000
,
00020000
00000000
00000000
00000000
00000000
00130000
10000000
00000000
,
00010000
00100000
01000000
10000000
01000000
00100000
00010000
00000000
,
01000000
00001000
01000000
00001000
00010000
00000010
00010000
00000010
,
00001000
00000000
00000001
00001000
00000100
00000010
00000001
00000000
,
00000201
00000000
00000000
00002300
00000000
00000000
00013000
00000000
,
00001000
00010000
00001000
00010000
00001000
00010000
00001000
00000000
,
00021000
00000000
00000000
02030000
00000000
00000000
13000000
00000000
,
00010000
01000000
00100000
10000000
00010000
00100000
01000000
10000000
,
00200000
00000000
00000000
00000000
,
00000000
00000000
00000000
00000000
00000000
00000000
01300000
00010000
,
10000000
00000000
01000000
00100000
01000000
00100000
01000000
00100000
,
01000000
00100000
01000000
00100000
00020000
00000000
00000000
00000000
,
10030000
00000000
00100000
00010000
00000000
00100000
10000000
00000000
,
00010000
00000000
00100000
00010000
00100000
00001000
00010000
00000000
,
00100000
10000000
00000000
01000000
00100000
00000000
00001000
00010000
,
00000100
00000000
00000010
00000000
00000001
00000000
00000100
00001000
,
00000000
00000100
00000001
00000000
00001000
00000000
00000100
00010000
,
00001000
00010000
00001000
00000010
00000000
00001000
00010000
00000000
,
00001000
00000100
00000001
00000100
00001000
00000100
00000001
00001000
,
00000001
00000000
00000010
00001000
00000000
00000010
00000001
00000000
,
00001000
00000000
00000010
00001000
00000010
00010000
00001000
00000000
,
00000010
00000001
00000000
00000100
00000010
00000000
00010000
00001000
,
01000000
00000000
00100000
00000000
10000000
00000000
01000000
00010000
,
00000000
01000000
10000000
00000000
00010000
00000000
01000000
00001000
,
01000000
00001000
00000000
00000000
00000000
00000000
00000000
00000000
,
00000000
00000000
00000000
00000000
,
00000000
00000000
00000000
00000000
00010000
00100000
10000000
00100000
,
00010000
00100000
10000000
00100000
00010000
00100000
10000000
00100000
,
00010000
00100000
10000000
00100000
00010000
00100000
10000000
00100000
,
00010000
00100000
10000000
00010000
20000000
00000000
00000000
00000000
,
00000000
00000000
30000000
00000000
,
20020000
00000000
00000000
00000000
,
00000000
00000000
00000000
00000000
,
00000000
00000000
00000000
00000000
,
00000000
00000000
30030000
00000000
00010000
10000000
00000000
00000000
;

//--------------- dance-double - KAYSTAR ----------------
#NOTES:
     dance-double:
     KAYSTAR:
     Hard:
     18:
     0,0,0,0,0:
00000000
00000000
00000000
00000000
,
00000000
00000000
00000000
00000000
,
00000000
00000000
00000000
00000000
,
00000000
00000000
00000000
00000000
,
00000000
00000000
00000000
00000000
,
00000000
00000000
00000000
00000000
,
00000000
00000000
00000000
00000000
,
00000000
00000000
00000000
00000000
,
00022000
00000000
00000000
00000000
,
00033000
00000000
00000000
00000000
,
00000000
00000000
00000000
00000000
,
00000000
00000000
00000000
00000000
,
00000000
00000000
00000000
00000000
,
00010000
00000000
00001000
00000000
00010000
00000000
00001000
00000000
00000000
00000000
00000000
00000000
00010000
00000000
00000000
00001000
00000000
00000000
00100000
00000000
00000000
00010000
00000000
00000000
,
00100000
00001000
00010000
00000010
00001000
00000010
00010000
00001000
,
00100000
00010000
00100000
00001000
00010000
00000010
00001000
00000010
,
00010000
00001000
00100000
00010000
00100000
00001000
00010000
00000010
,
00001000
00000010
00010000
00001000
00100000
00010000
00100000
00001000
,
00010000
00001000
00010000
00000010
00000100
00000001
00001000
00000100
,
00000010
00000001
00000010
00000001
00000100
00000010
00000100
00000010
,
00000100
00000010
00000100
00000010
00010000
00001000
00010000
00001000
,
00010000
00001000
00010000
00001000
00100000
01000000
00100000
01000000
,
00100000
01000000
00100000
01000000
10000000
00100000
10000000
00100000
,
10000000
00100000
10000000
00100000
01000000
00010000
10000000
01000000
,
00100000
00001000
00010000
00001000
00010000
00000010
00001000
00000010
,
00000100
00001000
00000100
00000010
00001000
00000010
00000100
00001000
,
00000100
00000010
00010000
00001000
00100000
00010000
00100000
01000000
,
00010000
01000000
00100000
00010000
00100000
01000000
00010000
01000000
,
00100000
00010000
00100000
00001000
00010000
00000100
00001000
00000100
,
00000010
00000001
00001000
00000010
00010000
00001000
00010000
00001000
,
01000000
00010000
01000000
00100000
10000000
00010000
00100000
01000000
,
00020000
00000000
00032000
00003020
,
00000032
00000203
00000320
00000000
,
00010030
00000000
00000000
00000000
,
00000000
00000000
00000000
00000000
00000000
00011000
00000000
00011000
,
00000000
00000000
00000000
00000000
,
00000000
00000000
00000000
00001000
00000000
00010000
00000000
00001000
00000000
00000000
00000000
00000000
00100000
00000000
00010000
00000000
00100000
00000000
00000000
00000000
00000000
00001000
00000000
00010000
,
00000000
00001000
00000000
00000000
00000000
00000000
00000000
00000000
00000000
00021000
00000000
00000000
00000000
00000000
00000000
00000000
00000000
00000000
00000000
00000000
00000000
00000000
00000000
00000000
,
00000000
00000000
00000000
00000000
00130000
10000000
00000000
10020000
,
00000000
00000000
00000000
00000000
10030000
01000000
00100000
00010000
,
10000000
00100000
10000000
00100000
10000000
00000000
00010000
00100000
00010000
00100000
00010000
00000000
,
10000000
00100000
01000000
00010000
10000000
01000000
00010000
01000000
,
00100000
00001000
00010000
00001000
00010000
00000100
00000000
00002100
,
00000000
00000000
00003001
00000100
00001000
00000100
00000010
00010000
,
00002000
00000000
00023000
00000000
02030000
00000000
03020000
00000000
00032000
00000000
00203000
00000000
,
00300000
00000000
00000000
00120000
00000000
00000000
10030000
00100000
,
01000000
00010000
10000000
01000000
00100000
00001000
00000000
00022000
,
00000000
00000000
00033000
00000000
00000100
00000010
00000001
00001000
,
00000010
00000000
00000000
00000100
00000000
00000000
00001000
00000000
00000000
00000000
00000000
00000000
00010000
00000000
00001000
00000000
00010000
00000000
00001000
00000000
00010000
00000000
00000000
00000000
,
00002000
00000000
00103000
00010000
00100000
00000000
00001000
00010000
,
00001000
00000000
00100000
00010000
00100000
00000000
00001000
00000000
,
00020000
00000000
00030010
00001000
00000010
00000000
00010000
00001000
,
00010000
00000000
00000010
00001000
00000010
00000000
00010000
00000000
,
00002000
00000000
00103000
00010000
00100000
00000000
01000000
00100000
,
01000000
00000000
10000000
01000000
10000000
00000000
00010000
00000000
,
10000000
00100000
00010000
00100000
10000000
00010000
00100000
01000000
,
10000000
00010000
01000000
00100000
10000000
01000000
00100000
00001000
,
00020000
00000000
00031000
01000000
00010000
00000000
01000000
00001000
,
00010000
00000000
01000000
00010000
00001000
00000000
00010000
00000000
,
00002000
00000000
00013000
00000100
00001000
00000000
00000100
00010000
,
00001000
00000000
00000100
00001000
00010000
00000000
00001000
00000000
,
00020000
00000000
00030100
00001000
00000100
00001000
00000100
00000010
,
00000100
00000010
00000001
00000010
00000001
00000010
00000100
00001000
,
00000001
00000100
00000001
00000100
00000001
00000000
00001000
00000100
00001000
00000100
00001000
00000000
,
00000001
00000100
00001000
00010000
00200000
00000000
00000000
00000000
,
10300000
01000000
00100000
00010000
10000000
00010000
01000000
00010000
,
10000000
00010000
00100000
00100000
00001000
00010000
00001000
00010000
,
00000010
00001000
00000010
00010000
00001000
00100000
00010000
00100000
,
00001000
00010000
00000100
00000010
00000001
00000100
00000010
00001000
,
00000001
00001000
00000100
00001000
00000001
00001000
00000010
00000010
,
00010000
00001000
01000000
00000000
00000000
00000000
00000000
00000000
,
00000000
00000000
00000000
00000000
,
10020000
00000000
00000000
00130000
01000000
00000000
10010000
00000000
,
10000000
00100000
01000000
00010000
00100000
00010000
01000000
00100000
,
10000000
01000000
00100000
01000000
00010000
00001000
00010000
00001000
,
00000020
00000000
00000031
00000200
00000000
00000310
00001000
00000000
,
00000001
00000010
00000100
00001000
00000010
00001000
00000100
00000010
,
00000001
00000100
00000010
00000100
00001000
00010000
00001000
00010000
,
00200000
00000000
01300000
00020000
00000000
00130000
01000000
00000000
,
10000000
00100000
01000000
00010000
00100000
00001000
00010000
00000100
,
00002000
00000000
00003001
00000100
00000010
00000100
00000001
00001000
,
00000100
00000001
00000100
00001000
00000001
00000100
00000010
00001000
,
00000010
00010000
00001000
00100000
00010000
00100000
01000000
10000000
,
00010000
01000000
10000000
01000000
00010000
10000000
01000000
00000000
,
00200000
00000000
00301000
00020000
00000000
00130000
02000000
00000000
,
03001000
00010000
00100000
00010000
00001000
00000100
00001000
00010000
,
00000020
00000000
00010030
00002000
00000000
00003010
00000200
00000000
,
00010300
00001000
00000010
00001000
00010000
00001000
00000100
00000001
,
00000020
00000000
00000000
00000000
,
00000000
00000000
00000000
00000000
00000000
00000000
00000130
00001000
,
00000001
00000000
00000100
00000010
00000100
00000010
00000100
00000010
,
00000100
00000010
00000100
00000010
00000110
00000000
00000000
00000000
,
00000001
00000010
00000100
00001000
00000100
00000010
00000001
00001000
,
00000010
00001000
00000001
00000001
00000010
00000100
00010000
00001000
,
00000010
00001000
00010000
00000010
00000100
00001000
00010000
00001000
,
00010000
00100000
01000000
00010000
10000000
01000000
00100000
00010000
,
00100000
01000000
10000000
00010000
01000000
00010000
10000000
10000000
,
01000000
00100000
00001000
00010000
00000010
00001000
00000010
00010000
,
00001000
00000000
00010000
00000000
00001000
00000000
00010000
00000000
00001000
00000000
00010000
00000000
00002000
00000000
00000000
00000000
00000000
00000000
00103000
00000000
00000000
01000000
00000000
00000000
,
10000000
00100000
01000000
00010000
01000000
00100000
10000000
00010000
,
00100000
00010000
10000000
10000000
00100000
01000000
00001000
00010000
,
00100000
00010000
00001000
00100000
01000000
00010000
00001000
00010000
,
00001000
00000010
00000100
00001000
00000001
00000100
00000010
00001000
,
00000010
00000100
00000001
00001000
00000100
00001000
00000001
00000001
,
00000100
00001000
00000000
00000000
00000000
00000000
00000000
00000000
,
00000000
00000000
00000000
00000000
,
00000000
00000000
00000000
00000000
00000000
00000000
00010000
00001000
00010000
00001000
00010000
00000000
,
00001000
01000000
00001000
01000000
00001000
00000000
01000000
00010000
01000000
00010000
01000000
00000000
,
00020000
00000000
10030000
01000000
00100000
00010000
20000000
00000000
30010000
01000000
00100000
10000000
,
00010000
10000000
00010000
00100000
00010000
00100000
00002000
00000000
00000000
00000000
00000000
00000000
,
00000000
00000000
00003000
00000000
,
00022000
00000000
00000000
00000000
,
00000000
00000000
00000000
00000000
,
00000000
00000000
00000000
00000000
,
00000000
00000000
00033000
00000000
00010000
00001000
00000000
00000000
;

//--------------- dance-double - KAYSTAR ----------------
#NOTES:
     dance-double:
     KAYSTAR:
     Challenge:
     19:
     0,0,0,0,0:
00000000
00000000
00000000
00000000
,
00000000
00000000
00000000
00000000
,
00000000
00000000
00000000
00000000
,
00000000
00000000
00000000
00000000
,
00000000
00000000
00000000
00000000
,
00000000
00000000
00000000
00000000
,
00000000
00000000
00000000
00000000
,
00000000
00000000
00000000
00000000
,
00001000
00010000
00100000
01000000
00100000
00010000
00001000
00100000
,
00010000
00100000
00001000
00010000
00100000
01000000
00100000
00010000
,
00001000
00100000
00010000
00100000
00001000
00010000
00100000
01000000
,
00100000
00010000
00001000
00100000
00010000
00100000
00001000
00010000
,
00100000
01000000
00100000
00010000
00001000
00100000
00010000
00100000
,
00001000
00000000
00010000
00000000
00001000
00000000
00010000
00000000
00000000
00000000
00000000
00000000
00010000
00000000
00000000
00001000
00000000
00000000
00000010
00000000
00000000
00000100
00000000
00000000
,
00000010
00001000
00010000
00000010
00001000
00000010
00010000
00001000
,
00000010
00000100
00000010
00001000
00010000
00000010
00001000
00000010
,
00010000
00001000
00000010
00000100
00000010
00001000
00010000
00000010
,
00001000
00000010
00010000
00001000
00000010
00000100
00000010
00001000
,
00010000
00000010
00001000
00000010
00010000
00001000
00000010
00000001
,
00001000
00000001
00001000
00000001
00000100
00001000
00000100
00000001
,
00001000
00000001
00001000
00000001
00000100
00001000
00010000
00100000
,
10000000
00010000
10000000
00010000
10000000
01000000
00010000
01000000
,
10000000
00010000
10000000
00010000
10000000
01000000
00010000
00001000
,
00000010
00000001
00001000
00000001
00000100
00000010
00010000
00001000
,
00100000
01000000
10000000
00010000
10000000
00100000
00010000
00100000
,
10000000
00010000
10000000
01000000
00010000
00001000
00100000
00001000
,
00010000
00000010
00010000
00001000
00000100
00000001
00001000
00000001
,
00000010
00001000
00000010
00000001
00001000
00000001
00000100
00001000
,
00010000
00000010
00010000
00001000
00100000
00001000
00010000
01000000
,
10000000
01000000
00010000
00001000
00010000
00001000
00000100
00000001
,
00000100
00001000
00010000
00100000
10000000
01000000
00100000
00001000
,
00020000
00000000
00000000
00000000
00000000
00000000
00031000
00010000
00001000
00010000
00001000
00010000
,
00000100
00000010
00000001
00000100
00000010
00001000
00000100
00000010
,
00000002
00000000
00000000
00000000
,
00000003
00000000
00000000
00000000
00000000
00021000
00000000
00130000
,
00000000
00000000
00000000
00000000
,
00000000
00000000
00000000
10000000
00000000
01000000
00000000
00100000
00000000
00000000
00000000
00000000
00010000
00000000
01000000
00000000
00100000
00000000
00000000
00000000
00000000
10000000
00000000
01000000
,
00000000
00100000
00000000
00000000
00000000
00000000
00000000
00000000
00000000
20020000
00000000
00000000
00000000
00000000
00000000
00000000
00000000
00000000
00000000
00000000
00000000
00000000
00000000
00000000
,
00000000
00000000
30030000
00000000
00001000
00012000
00000000
00003010
,
00000000
00000000
00000000
00000001
00000100
00000010
00001000
00000010
00001000
00000010
00010000
00001000
,
00010000
00001000
00010000
00001000
01000000
00001000
01000000
00001000
01000000
00010000
01000000
00010000
,
20000000
00000000
31000000
00100000
00010000
00100000
01000000
10000000
,
00100000
01000000
00010000
00100000
00001000
00012000
00000000
00003010
,
00000000
00000000
00000001
00000000
00000100
00000000
00000010
00000000
00010000
00000000
00001000
00010000
00001000
00000000
00010000
00000000
,
00000100
00000000
00001100
00000000
00000110
00000000
00000011
00000000
00001001
00000000
00001002
00000000
,
00000000
00000000
00000103
00000010
00001000
00000010
00000100
00000001
,
00000010
00000100
00001000
00000010
00010000
00021000
00000000
00130000
,
00000000
00000000
00000000
10000000
01000000
00100000
00010000
00100000
00010000
00100000
00001000
00010000
,
00001000
00010000
00001000
00010000
00000100
00010000
00000100
00001000
00000100
00001000
00000100
00000000
,
00020000
00000000
00031000
00000010
00000001
00001000
00000001
00000100
,
00000010
00001000
00000010
00001000
00000001
00000010
00000001
00000010
,
00000100
00001000
00000001
00000100
00001000
00000100
00000001
00000010
,
00001000
00000010
00000001
00000100
00000010
00010000
00001000
00010000
,
00000100
00001000
00000100
00000010
00000001
00001000
00000001
00000100
,
00000010
00001000
00000010
00001000
00000001
00000010
00000001
00000010
,
00000100
00010000
00001000
00010000
00000010
00000100
00001000
00010000
,
00100000
01000000
00001000
00010000
00001000
00100000
01000000
00010000
,
00002000
00000000
00013000
00100000
10000000
00010000
10000000
01000000
,
00100000
00010000
00100000
00010000
10000000
00100000
10000000
00100000
,
01000000
00010000
10000000
01000000
00010000
01000000
10000000
00100000
,
00010000
00100000
10000000
01000000
00100000
00001000
00010000
00001000
,
01000000
00100000
10000000
01000000
00010000
00001000
00010000
00001000
,
00000100
00000001
00000010
00000100
00001000
00000001
00000100
00000010
,
00010000
00001000
00010000
00001000
00010000
00001000
00010000
00001000
00010000
00001000
00010000
00001000
,
00010000
00001000
00010000
00001000
00010000
00001000
02000000
00000000
00000000
00000000
00000000
00000000
,
03010000
10000000
01000000
00010000
01000000
10000000
00010000
01000000
,
00001000
00000000
00010000
00000000
00001000
00010000
00001000
00000000
00100000
00000000
00100000
00000000
00010000
00000000
10000000
00000000
,
00100000
01000000
00001000
00010000
00001000
00010000
00000100
00000010
,
00000001
00001000
00000010
00000100
00000001
00001000
00000100
00000001
,
00000100
00000000
00001000
00000000
00000001
00000000
00000100
00000000
00000010
00000000
00010000
00000000
00001000
00010000
00001000
00000000
,
00010000
00010000
00001000
01000000
10000000
00010000
00100000
10000000
,
00010000
00100000
00010000
00100000
00010000
00100000
00001000
00010000
00001000
00010000
00001000
00010000
,
00000200
00000000
00000000
00010300
00001000
00000010
00000001
00000000
,
00001000
00000010
00000001
00000010
00001000
00000100
00000010
00001000
,
00010000
01000000
00100000
00001000
00010000
00100000
10000000
00010000
,
00110000
00000000
00100000
01100000
00000000
01000000
11000000
00000000
,
10000000
00100000
00020000
00000000
00031000
00000010
00000002
00000000
,
00000103
00000010
00010000
00001000
00000010
00000001
00001000
00000010
,
00001010
00000000
00000100
00000110
00000000
00000001
00000101
00000000
,
00000002
00000023
00000230
00002300
00023000
00230000
02300000
23000000
,
30020000
00000000
00000000
01030000
00001000
00010000
00100000
10000000
,
01000000
00100000
00010000
01000000
00001000
00010000
00000010
00001000
,
00000001
00000010
00000100
00010000
00001000
00000100
00000001
00000010
,
00001000
00010000
00100000
10000000
01000000
00100000
00010000
10000000
,
10010000
00000000
00010000
00011000
00000000
00001000
00001001
00000000
,
00000001
00000100
00001000
00010000
00001000
00000010
00000001
00000000
,
00001001
00000000
00001000
00011000
00000000
00010000
10010000
00000000
,
10000000
01000000
00010000
00001000
00010000
00100000
10000000
00010000
,
00002000
00000000
00000000
00000000
,
00000000
00000000
00000000
00000000
00000000
00000000
00003001
00000100
,
00000010
00000000
00001010
00001000
00000010
00010000
00011000
00001000
,
01000000
00010000
01010000
01000000
00200000
00000000
10300000
01000000
,
00100000
00010000
01000000
10000000
01000000
00010000
10000000
01000000
,
00100000
00000000
00001000
00000000
00010000
00001000
00010000
00000000
00000100
00000000
00000100
00000000
00001000
00000000
00000001
00000000
,
00000100
00000010
00010000
00001000
00000010
00000001
00000010
00001000
,
00010000
00000010
00000100
00000001
00001000
00000100
00000010
00000001
,
00000100
00000000
00001000
00000000
00000100
00000000
00000001
00000000
00000010
00000000
00000100
00000000
00010000
00001000
00010000
00000000
,
00001000
00001000
00100000
01000000
10000000
00100000
00010000
00001000
,
00100000
00010000
00100000
00001000
00010000
00001000
00010000
00000010
00001000
00000010
00010000
00001000
,
00020000
00000000
00031000
00000010
00000001
00000100
00000010
00001000
,
00000100
00000000
00010000
00000000
00001000
00010000
00001000
00000000
00100000
00000000
00100000
00000000
00010000
00000000
10000000
00000000
,
00100000
01000000
00001000
00010000
01000000
10000000
01000000
00010000
,
00001000
01000000
00100000
10000000
00010000
00100000
01000000
10000000
,
00100000
00000000
00010000
00000000
00100000
00000000
10000000
00000000
01000000
00000000
00100000
00000000
00001000
00010000
00001000
00000000
,
00010000
00010000
00000100
00000001
00001000
00000010
00000001
00000100
,
00001000
01000000
10000000
00010000
00100000
10000000
01000000
00010000
,
00000100
00000000
00000000
00000010
00000000
00000000
00000001
00000000
00000000
00000100
00000000
00000000
00000010
00000000
00010000
00000000
00001000
00000000
00010000
00000000
00000010
00000000
00010000
00000000
,
00001000
00010000
00000010
00010000
00001000
00100000
00001000
00010000
00001000
00100000
00001000
00010000
,
00001000
01000000
00010000
10000000
01000000
00100000
00001000
00010000
00001000
00010000
00000100
00001000
,
00000001
00000100
00000010
00010000
00001000
00010000
00002000
00000000
00000000
00000000
00000000
00000000
,
00000000
00000000
00003000
00000000
,
00022000
00000000
00000000
00000000
,
00000000
00000000
00000000
00000000
,
00000000
00000000
00000000
00000000
,
00003000
00000000
00000000
00000000
10030000
10010000
00000000
00000000
;
